#TITLE:August;
#SUBTITLE:;
#ARTIST:iCONiSM;
#TITLETRANSLIT:;
#SUBTITLETRANSLIT:;
#ARTISTTRANSLIT:;
#CREDIT:;
#BANNER:August.png;
#BACKGROUND:August-bg.png;
#LYRICSPATH:;
#CDTITLE:;
#MUSIC:August.mp3;
#OFFSET:0.000;
#SAMPLESTART:33.874;
#SAMPLELENGTH:11.960;
#SELECTABLE:YES;
#BPMS:0.000=170.000;
#STOPS:;
#BGCHANGES:;
// cache tags:
#FIRSTBEAT:12.000;
#LASTBEAT:224.000;
#SONGFILENAME:Songs/StepMix 1/August/August.sm;
#HASMUSIC:1;
#HASBANNER:1;
#MUSICLENGTH:81.875;
// end cache tags

//---------------dance-single - Steps by something----------------
#NOTES:
     dance-single:
     Steps by something:
     Hard:
     9:
     0.661,0.650,0.611,0.366,0.073,299.000,50.000,30.000,0.000,0.000:
0000
0000
0000
0000
,
0000
0000
0000
0000
,
0000
0000
0000
0000
,
0001
0000
0000
0000
0001
0000
1000
0000
0001
1000
0001
1000
0001
1000
0001
1000
,
0001
1000
0010
0100
0001
1000
0010
0100
,
0001
1000
0100
0010
0001
1000
0100
1000
,
0010
0100
0001
1000
0001
0100
0010
0000
,
0001
0000
0000
0000
0001
0000
1000
0000
0001
1000
0001
1000
0001
1000
0001
1000
,
0001
0010
0100
0010
0001
0010
0100
1000
,
0001
0010
0100
1000
0010
0100
0001
0010
,
0100
0010
0001
0010
0100
1000
0100
0010
,
1100
0000
0000
0011
0000
0000
1001
0000
0000
0000
0010
0000
0100
0000
0010
0000
,
0001
0100
0010
1000
0100
0010
0100
1000
,
0001
1000
0001
0010
0001
1000
0001
0010
,
0001
0010
0100
1000
0001
0010
0100
1000
,
1010
0000
0000
0101
0000
0000
1001
0000
0000
0000
1000
0000
0001
0000
1000
0000
,
2000
0000
3010
0100
0000
0000
0001
0010
,
0100
1000
0001
2000
0000
0000
3001
0010
,
0002
0000
0013
0100
0000
0000
1000
0100
,
0010
0001
1000
0002
0000
0000
1003
0100
,
1100
0000
0001
0000
0000
1100
0000
0100
,
0101
0000
1000
0000
0000
0101
0000
0010
,
1010
0000
0001
0000
0000
1001
0000
0100
,
1100
0000
0000
0101
0000
0000
1001
0000
0000
0000
0100
0000
0010
0000
0100
0000
,
0010
1000
0010
1000
0010
1000
0010
1000
,
0010
0100
0010
1000
0010
0100
0010
0100
,
0001
0100
0010
2000
0000
3001
0000
1000
,
0100
0010
0001
1001
0000
0110
0000
0001
,
0010
0100
1000
1100
0000
0011
0000
1000
,
0100
0010
0001
1010
0000
0101
0000
1000
,
0100
0010
0001
1001
0000
1001
0000
0010
,
0001
1000
0001
1001
0000
0110
0000
1001
,
2000
3010
0002
0013
,
2000
3100
0002
0103
,
0020
0000
0130
0000
0000
0110
0000
0000
,
0200
0000
0310
0000
0000
0110
0000
0000
,
2000
0000
3001
0000
0000
1010
0000
0000
,
0002
0000
1003
0000
0000
0101
0000
0000
,
0020
0000
1030
0000
0000
1001
0000
0000
,
1001
0000
0000
0110
0000
0000
1001
0000
0000
0000
1000
0000
0001
0000
1000
0000
,
2001
0000
3002
0000
0013
0000
0010
0001
,
0000
0001
0010
0000
0200
0000
1300
0000
,
1002
0000
2003
0000
3010
0000
0010
1000
,
0000
1000
0010
0000
0020
0000
0031
0000
,
0120
0000
0230
0000
0301
0000
1000
0100
,
0000
0100
1000
0000
0200
0000
0301
0000
,
0210
0000
0320
0000
1030
0000
0100
0010
,
0000
0010
0000
0010
0200
0000
0301
0000
,
2000
0000
3001
0000
1001
0000
0001
0010
,
0000
0010
0001
0000
0101
0000
1100
0000
,
0002
0000
1003
0000
1001
0000
1000
0100
,
0000
0100
1000
0000
1010
0000
0011
0000
,
0020
0000
0130
0000
0110
0000
0001
1000
,
0000
1000
0001
0000
0011
0000
1100
0000
,
0200
0000
0310
0000
1001
0000
0010
0100
,
0000
0100
0000
0100
0010
0000
0110
0000
,
1001
0000
0000
0000
;

//---------------dance-single - Steps by something----------------
#NOTES:
     dance-single:
     Steps by something:
     Medium:
     7:
     0.511,0.581,0.586,0.122,0.018,235.000,48.000,10.000,0.000,0.000:
0000
0000
0000
0000
,
0000
0000
0000
0000
,
0000
0000
0000
0000
,
0001
0000
0001
1000
0001
0100
0010
1000
,
0001
1000
0010
0000
1000
0001
0010
0000
,
0001
1000
0100
0000
1000
0001
0100
0000
,
0001
0010
0100
0000
1000
0100
0010
0000
,
0001
0000
0001
1000
0001
1000
0010
0100
,
0001
0010
0100
0000
1000
0100
0010
0000
,
0001
0010
0100
0000
1000
0100
0010
0000
,
0001
1000
0010
0000
1000
0001
0010
0000
,
0001
1000
0001
0000
1001
0000
1001
0000
,
0010
0100
0010
0000
0100
0010
0100
0000
,
0001
1000
0001
0000
1000
0001
1000
0000
,
0001
0010
0100
0000
1000
0100
0010
0000
,
1001
0000
0000
1001
0000
0000
1001
0000
0000
0000
1000
0000
0001
0000
1000
0000
,
2002
0000
0000
0003
,
0200
0000
0000
3300
,
2002
0000
0000
3000
,
0020
0000
0000
0033
,
1100
0000
0000
0000
0000
1100
0000
0000
,
0101
0000
0000
0000
0000
0101
0000
0000
,
0011
0000
0000
0000
0000
1100
0000
0000
,
1001
0000
0000
1001
0000
0000
1001
0000
0000
0000
0100
0000
0010
0000
0100
0000
,
0010
1000
0001
0000
0010
0001
1000
0000
,
0100
1000
0001
0000
0100
0001
1000
0000
,
0001
1000
0001
0000
1000
0001
1000
0000
,
0100
0010
0001
1000
0000
1001
0000
0000
,
0001
0010
0100
0000
1000
0100
0010
0000
,
0001
0010
0100
0000
1000
0100
0010
0000
,
0001
1000
0001
0000
1000
0001
1000
0000
,
1000
0001
1000
0001
0000
0110
0000
1001
,
1001
0000
0000
0000
0000
0110
0000
0000
,
0011
0000
0000
0000
0000
0011
0000
0000
,
1100
0000
0000
0000
0000
1100
0000
0000
,
0101
0000
0000
0000
0000
0101
0000
0000
,
1010
0000
0000
0000
0000
1010
0000
0000
,
0110
0000
0000
0000
0000
0110
0000
0000
,
1001
0000
0000
0000
0000
1001
0000
0000
,
1001
0000
0000
1001
0000
0000
1001
0000
0000
0000
1000
0000
0001
0000
1000
0000
,
2000
0000
0100
0000
3100
0000
0010
0001
,
0000
0010
0001
0000
0010
0000
0010
0000
,
0002
0000
0100
0000
0103
0000
0010
1000
,
0000
0010
1000
0000
0010
0000
0010
0000
,
2000
0000
0100
0000
3100
0000
0010
0001
,
0000
0010
0001
0000
0010
0000
0010
0000
,
0002
0000
0100
0000
0103
0000
0010
1000
,
0000
0001
0000
1000
0010
0000
0010
0000
,
1000
0000
0001
0000
1001
0000
0010
0001
,
0000
0010
0001
0000
1001
0000
1001
0000
,
0001
0000
1000
0000
1001
0000
0100
1000
,
0000
0100
1000
0000
0110
0000
0110
0000
,
0010
0000
0100
0000
0110
0000
0001
1000
,
0000
0001
1000
0000
1001
0000
1001
0000
,
0100
0000
0010
0000
1001
0000
0010
0100
,
0000
0100
0000
0100
0010
0000
0110
0000
,
1001
0000
0000
0000
;

//---------------dance-single - Steps by something----------------
#NOTES:
     dance-single:
     Steps by something:
     Easy:
     5:
     0.330,0.410,0.342,0.232,0.018,142.000,28.000,19.000,0.000,0.000:
0000
0000
0000
0000
,
0000
0000
0000
0000
,
0000
0000
0000
0000
,
0010
0010
0010
0010
,
0001
0001
1000
1000
,
0010
0010
0100
0100
,
0001
0010
0100
1000
,
0010
0010
0010
0010
,
1000
0100
1000
0010
,
0001
0100
0001
0010
,
0001
0010
1000
0010
,
0001
0001
1000
1000
,
0010
0010
0100
0100
,
0001
0001
1000
1000
,
0001
0100
1000
0010
,
0010
0000
0000
0010
0000
0000
0010
0000
0000
0000
0000
0000
1001
0000
0000
0000
,
2002
0000
0000
0003
,
0020
0000
0000
0030
,
0200
0000
0000
0300
,
0002
0000
0000
3003
,
2002
0000
0000
3000
,
0020
0000
0000
0030
,
2000
0000
0000
3003
,
0010
0000
0000
0010
0000
0000
0010
0000
0000
0000
0000
0000
1001
0000
0000
0000
,
0001
0001
0010
0010
,
0100
0100
1000
1000
,
0010
0001
0010
1000
,
0001
0100
1000
0100
,
0001
0100
1000
0010
,
0001
0100
1000
0010
,
0001
0001
1000
1000
,
0010
0000
0010
0000
0000
1001
0000
0000
,
1001
0000
0000
0000
0000
0001
0000
0000
,
0001
0000
0000
0000
0000
1000
0000
0000
,
1000
0000
0000
0000
0000
0100
0000
0000
,
0100
0000
0000
0000
0000
0010
0000
0000
,
0010
0000
0000
0000
0000
1001
0000
0000
,
1001
0000
0000
0000
0000
0110
0000
0000
,
0110
0000
0000
0000
0000
1001
0000
0000
,
0010
0000
0000
0010
0000
0000
0010
0000
0000
0000
0000
0000
1001
0000
0000
0000
,
2002
0000
0000
0003
,
0020
0000
0000
0030
,
0200
0000
0000
0300
,
0002
0000
0000
3003
,
2002
0000
0000
3000
,
0200
0000
0000
0300
,
0020
0000
0000
0030
,
2000
0000
0000
3003
,
1000
0001
1001
0000
,
0011
0000
1100
0000
,
0001
1000
1001
0000
,
1010
0000
0101
0000
,
0010
0100
0110
0000
,
0101
0000
1100
0000
,
1000
0001
1001
0000
,
0110
0000
1001
0110
,
1001
0000
0000
0000
;

//---------------dance-single - Steps by something----------------
#NOTES:
     dance-single:
     Steps by something:
     Beginner:
     1:
     0.204,0.239,0.024,0.000,0.000,115.000,2.000,0.000,0.000,0.000:
0000
0000
0000
0000
,
0000
0000
0000
0000
,
0000
0000
0000
0000
,
0010
0010
0010
0010
,
0000
0001
0000
0001
,
0000
1000
0000
1000
,
0000
0001
0000
0001
,
0000
0010
0010
0010
,
0000
1000
0000
1000
,
0000
0100
0000
0100
,
0000
0001
0000
0001
,
0000
0010
0010
0010
,
0000
1000
0000
1000
,
0000
0001
0000
0001
,
0000
0100
0000
0100
,
0000
0010
0010
0010
,
1000
0000
0000
0000
,
0001
0000
0000
0000
,
1000
0000
0000
0000
,
0100
0000
0000
0000
,
0010
0000
0000
0000
0000
0001
0000
0000
,
0001
0000
0000
0000
0000
1000
0000
0000
,
1000
0000
0000
0000
0000
0010
0000
0000
,
0010
0010
0010
0010
,
0000
1000
0000
1000
,
0000
0001
0000
0001
,
0000
1000
0000
1000
,
0000
0001
0000
0001
,
0000
0100
0000
0100
,
0000
0010
0000
0010
,
0000
0100
0000
0100
,
0000
0010
0010
0010
,
0010
0000
0001
0000
,
1000
0010
0010
0000
,
0001
0000
1000
0000
,
0100
0010
0010
0000
,
0001
0000
1000
0000
,
0010
0100
0100
0000
,
0001
0000
1000
0000
,
0010
0010
0010
0010
,
1000
0000
0001
0000
,
0010
0010
0010
0000
,
0001
0000
1000
0000
,
0100
0100
0100
0000
,
1000
0000
0001
0000
,
0010
0010
0010
0000
,
1000
0000
0001
0000
,
0010
0010
0010
0010
,
1000
0000
0000
0000
,
0001
0000
0000
0000
,
0010
0000
0000
0000
,
0100
0000
0000
0000
,
1000
0000
0000
0000
,
0001
0000
0000
0000
,
1000
0000
0000
0000
,
0110
0000
0010
0010
,
1001
0000
0000
0000
;

//---------------dance-single - ----------------
#NOTES:
     dance-single:
     :
     Challenge:
     10:
     0.776,0.787,1.000,0.635,0.116,308.000,85.000,52.000,0.000,0.000:
0000
0000
0000
0000
,
0000
0000
0000
0000
,
0000
0000
0000
0000
,
0110
0000
0000
0000
1010
0000
0101
0000
0001
0100
0001
0010
0001
0100
0001
0010
,
0001
1000
0100
0001
0010
1000
0100
0010
,
0001
0010
0001
1000
0010
1000
0100
0010
,
0001
0010
1000
0100
0010
0001
0100
0010
,
1010
0000
0000
0000
0110
0000
1001
0000
1000
0100
1000
0010
1000
0100
1000
0010
,
2000
0000
3020
0000
0130
0001
2000
0001
,
3002
0000
0203
0000
0310
1000
0002
1000
,
2003
0000
3002
0000
0013
0001
0200
0010
,
0320
0000
2030
0000
3001
1100
0110
0011
,
2000
0000
3002
0000
0103
0010
2000
0001
,
3002
0000
0023
0000
1030
0010
0002
0010
,
0023
0000
0230
0000
1300
0100
0002
0010
,
0013
0000
0000
0110
0000
0000
1100
0000
0000
0000
1010
0000
1001
0000
0101
0000
,
2000
0000
3100
0002
0000
0000
0013
0100
,
1000
0010
0100
0002
0000
0010
0013
0110
,
2000
0000
3100
0020
0000
0000
0031
1000
,
0001
0100
0001
0020
0000
0130
1000
0100
,
0110
0000
0000
0000
1001
0000
0000
0000
0000
0000
1100
0000
0000
0110
0000
0000
,
0012
0000
0000
0000
1003
0000
0000
0000
0000
0000
0101
0000
0000
1001
0000
0000
,
2010
0000
0000
0000
3100
0000
0000
0000
0000
0000
1001
0000
0000
1010
0000
0000
,
1100
0000
0000
1010
0000
0000
1001
0000
0000
0000
1001
0000
0101
0000
0011
0000
,
1000
0000
0010
0000
0200
0000
0001
0000
0301
0000
1000
0000
0001
0000
1000
0010
,
1000
0000
0001
0000
0010
0000
0200
0000
1000
0000
1300
0000
1000
0000
0001
0100
,
0001
0000
1000
0000
0100
0000
0020
0000
0001
0000
0031
0000
0001
0000
1000
0100
,
1000
0100
0010
0002
0000
1003
0000
1001
,
0101
0000
0010
0000
1000
0000
0200
0000
0010
0000
0310
0000
0001
0000
0100
0010
,
0100
0000
0010
0000
1000
0000
0002
0000
0100
0000
0103
0000
1000
0000
0001
0010
,
0001
1000
0100
0020
0000
0031
0000
0110
,
1001
0101
0011
0101
0000
1001
0000
0110
,
2001
0000
0010
0000
0100
3010
0110
0000
,
1002
0000
0100
0000
0010
0103
0000
0000
,
0210
0000
0001
0000
1000
0301
0110
0000
,
0120
0000
1000
0000
0001
1030
0000
0000
,
1002
0100
0010
1003
,
2001
0010
0100
3001
,
0201
1000
0001
1300
,
1010
0000
0000
1001
0000
0000
0101
0000
0000
0000
0011
0000
0110
0000
1100
0000
,
2000
0000
3200
0000
0320
0000
0031
0010
,
0000
0010
1000
0000
1010
0000
0101
0000
,
0012
0000
0023
0000
0230
0000
1300
0100
,
0000
0100
0001
0000
0011
0000
1100
0000
,
2100
0000
0010
0000
3001
0000
1000
0100
,
0000
0100
0010
0000
1001
0000
0110
0000
,
2000
0000
3200
0000
0302
0000
0013
1000
,
0000
1000
0000
1000
0100
0000
0011
0000
,
1001
0000
1010
0000
1100
0000
1000
0100
,
0000
0100
0001
0000
0011
0000
0101
0000
,
1001
0000
0101
0000
0011
0000
0001
0010
,
0000
0010
1000
0000
1100
0000
1010
0000
,
1001
0000
0101
0000
0011
0000
0001
0010
,
0000
0100
1000
0000
1010
0000
0101
0000
,
1001
0000
0110
0000
1001
0000
1000
0001
,
0000
0110
0000
0001
1000
0000
0110
0000
,
1001
0000
0000
0000
;

//---------------dance-double - Steps by something----------------
#NOTES:
     dance-double:
     Steps by something:
     Easy:
     5:
     0.321,0.479,0.330,0.183,0.018,142.000,27.000,15.000,0.000,0.000:
00000000
00000000
00000000
00000000
,
00000000
00000000
00000000
00000000
,
00000000
00000000
00000000
00000000
,
00010000
00001000
00010000
00011000
,
00010000
00010000
10000000
10000000
,
00010000
00010000
00100000
00100000
,
01000000
01000000
10000000
10000000
,
00010000
00001000
00010000
00011000
,
00001000
00000100
00001000
00000100
,
00000010
00000001
00000010
00000001
,
00000010
00010000
00001000
01000000
,
00100000
01000000
00100000
01000000
,
00010000
00010000
00001000
00001000
,
00000010
00000010
00000100
00000100
,
00000010
00001000
00010000
00010000
,
00001000
00000000
00000000
00010000
00000000
00000000
00001000
00000000
00000000
00000000
00000000
00000000
00010000
00000000
00000000
00000000
,
00002000
00000000
00000000
00000000
,
00000002
00000000
00000000
00000003
,
00000020
00000000
00000000
00000030
,
00000200
00000000
00000000
00003300
,
00000002
00000000
00000000
00000000
,
00000020
00000000
00000000
00000030
,
00002000
00000000
00000000
00003003
,
00000100
00000000
00000000
00000010
00000000
00000000
00000100
00000000
00000000
00000000
00000000
00000000
00001001
00000000
00000000
00000000
,
00000010
00000010
00000001
00000001
,
00000100
00000100
00001000
00010000
,
00100000
00100000
10000000
10000000
,
01000000
01000000
00010000
00001000
,
00000100
00000010
00000001
00000011
,
00001000
00000100
00010000
00110000
,
10000000
10000000
00010000
00010000
,
01100000
01100000
01100000
01100000
,
10010000
00000000
00000000
00000000
00000000
10000000
00000000
00000000
,
10000000
00000000
00000000
00000000
00000000
00010000
00000000
00000000
,
00010000
00000000
00000000
00000000
00000000
00001000
00000000
00000000
,
00001000
00000000
00000000
00000000
00000000
00000001
00000000
00000000
,
00000001
00000000
00000000
00000000
00000000
00000010
00000000
00000000
,
00000010
00000000
00000000
00000000
00000000
00000110
00000000
00000000
,
00001001
00000000
00000000
00000000
00000000
00011000
00000000
00000000
,
00010000
00000000
00000000
00001000
00000000
00000000
00010000
00000000
00000000
00000000
00000000
00000000
00011000
00000000
00000000
00000000
,
00020000
00000000
00000000
00000000
,
00200000
00000000
00000000
00300000
,
02000000
00000000
00000000
03000000
,
20000000
00000000
00000000
30030000
,
00002000
00000000
00000000
00000000
,
00000200
00000000
00000000
00000300
,
00000020
00000000
00000000
00000030
,
00000002
00000000
00000000
00003003
,
00001000
00000001
00001001
00000000
,
00000011
00000000
00001100
00000000
,
00001000
00010000
00011000
00000000
,
00110000
00000000
00001100
00000000
,
00000100
00001000
00001100
00000000
,
00011000
00000000
00110000
00000000
,
00100000
00010000
00110000
00000000
,
01100000
00000000
00011000
00000000
,
00000110
00000000
00000000
00000000
;

//---------------dance-double - ----------------
#NOTES:
     dance-double:
     :
     Medium:
     7:
     0.492,0.513,0.110,0.379,0.018,242.000,9.000,31.000,0.000,0.000:
00000000
00000000
00000000
00000000
,
00000000
00000000
00000000
00000000
,
00000000
00000000
00000000
00000000
,
10000000
00000000
10000000
00100000
10000000
00010000
10000000
00100000
,
10000000
01000000
00100000
00000000
00010000
00000000
10000000
00000000
,
00010000
00000100
00000010
00000000
00000001
00000000
00001000
00000000
,
00000010
00000100
00001000
00000000
00000100
00000000
00000010
00000000
,
00001000
00000000
00000001
00000010
00000001
00000100
00000001
00001000
,
00000100
00000000
00000010
00000000
00000001
00000100
00000010
00000000
,
00010000
00000000
00001000
00000000
01000000
00100000
01000000
00000000
,
10000000
01000000
00100000
00000000
00010000
00100000
01000000
00000000
,
10000000
00000000
10000000
00000000
01000000
00100000
00010000
00000000
,
00001000
00000000
00001000
00000000
00001000
00000100
00000010
00000000
,
00000001
00000010
00000100
00000000
00001000
00000100
00000010
00000000
,
00000001
00000001
00001000
00001000
,
00001000
00000000
00000000
00000001
00000000
00000000
00000010
00000000
00000000
00000000
00000100
00000000
00000010
00000000
00000100
00000000
,
00002000
00000000
00000000
00000000
,
00003020
00000000
00000000
00000000
,
00020030
00000000
00000000
00000000
,
00230000
00000000
00000000
00300000
,
01100000
00000000
00000000
00000000
00000000
11000000
00000000
00000000
,
00110000
00000000
00000000
00000000
00000000
00110000
00000000
00000000
,
00011000
00000000
00000000
00000000
00000000
00011000
00000000
00000000
,
00001000
00000000
00000000
00010000
00000000
00000000
00001000
00000000
00000000
00000000
01000000
00000000
00100000
00000000
01000000
00000000
,
00100000
10000000
00010000
10000000
00000000
10000000
00000000
10000000
,
01000000
00100000
00010000
00001000
00000000
00001000
00000000
00001000
,
00000100
00000010
00000001
00000010
00000000
00000010
00000000
00000010
,
00000001
00000010
00000100
00001000
00000000
00001000
00000000
00001000
,
00010000
00100000
01000000
10000000
00000000
10000000
00000000
10000000
,
00100000
01000000
00010000
01000000
00000000
01000000
00000000
01000000
,
00010000
00001000
00000100
00000010
00000000
00000010
00000000
00000010
,
00001000
00000001
00001000
00000001
00000000
00000001
00000000
00000001
,
00002000
00003100
00000002
00000103
,
00002000
00013000
02000000
13000000
,
20000000
31000000
00020000
01030000
,
00200000
00320000
00032000
00003200
,
00000302
00000013
00002000
00003010
,
00002000
00003002
00000203
00000310
,
00002000
00003100
00020000
00031000
,
00010000
00000000
00000000
00001000
00000000
00000000
01000000
00000000
00000000
00000000
01000000
00000000
00100000
00000000
01000000
00000000
,
00200000
00000000
01300000
00000000
10010000
00000000
00010000
01000000
,
00000000
00100000
10000000
00000000
02000000
00000000
03100000
00000000
,
00020000
00000000
00030100
00000000
00000010
00000000
00000001
00000010
,
00000000
00000001
00000010
00000000
00000200
00000000
00001300
00000000
,
00000002
00000000
00000013
00000000
00001100
00000000
00000100
00010000
,
00000000
00000010
00010000
00000000
00000002
00000000
00001003
00000000
,
00000010
00000000
00000100
00000000
00001000
00000000
00010000
01000000
,
00000000
00100000
00000000
01000000
00010000
00000000
00000010
00000000
,
00000001
00000000
00001000
00000000
00000100
00000000
00000010
00000001
,
00000000
00000010
00000001
00000000
00002000
00000000
00003100
00000000
,
00000100
00000000
00010000
00000000
00100000
00000000
01000000
00010000
,
00000000
01000000
00010000
00000000
20000000
00000000
30100000
00000000
,
02000000
00000000
03010000
00000000
00100000
00000000
00000010
00001000
,
00000000
00000010
00001000
00000000
00000002
00000000
00000103
00000000
,
00000010
00000000
00001000
00000000
00010000
00000000
01000000
00010000
,
00000000
00010000
00000000
00010000
01000000
00000000
01000000
00000000
,
11000000
00000000
00000000
00000000
;

//---------------dance-double - Copied from Steps by----------------
#NOTES:
     dance-double:
     Copied from Steps by:
     Hard:
     9:
     0.682,0.650,0.501,0.574,0.073,303.000,41.000,47.000,0.000,0.000:
00000000
00000000
00000000
00000000
,
00000000
00000000
00000000
00000000
,
00000000
00000000
00000000
00000000
,
00010000
00000000
00000000
00000000
00010000
00000000
10000000
00000000
00010000
10000000
00010000
10000000
00010000
10000000
00010000
10000000
,
00010000
10000000
00010000
00001000
00000100
00000010
00000001
00000100
,
00000010
00001000
00010000
01000000
00100000
10000000
01000000
10000000
,
00100000
01000000
00001000
00000100
00000010
00001000
00000001
00000000
,
00001000
00000000
00000000
00000000
00000001
00000000
00001000
00000000
00000001
00001000
00000001
00001000
00000001
00001000
00000001
00001000
,
00000001
00000010
00000100
00001000
00010000
00100000
01000000
10000000
,
00010000
00100000
01000000
10000000
00100000
01000000
00001000
00010000
,
00000010
00000100
00000001
00000010
00000100
00010000
00100000
01000000
,
01010000
00000000
00000000
10100000
00000000
00000000
10010000
00000000
00000000
00000000
00100000
00000000
01000000
00000000
00100000
00000000
,
00010000
01000000
00100000
10000000
01000000
00100000
01000000
10000000
,
00010000
01000000
00001000
00010000
00000010
00001000
00000001
00000010
,
00000100
00001000
00010000
10000000
00010000
00001000
00000100
00000010
,
00000101
00000000
00000000
00001010
00000000
00000000
00001001
00000000
00000000
00000000
00000010
00000000
00010000
00000000
00001000
00000000
,
02000000
00000000
03100000
10000000
00000000
00000000
00010000
00100000
,
01000000
10000000
00010000
20000000
00000000
00000000
30010000
00001000
,
00000200
00000000
00000310
00000001
00000000
00000000
00000001
00000010
,
00000100
00001000
00100000
02000000
00000000
00000000
03100000
10000000
,
11000000
00000000
00010000
00000000
00000000
11000000
00000000
01000000
,
01010000
00000000
00001000
00000000
00000000
00001100
00000000
00000010
,
00001010
00000000
00001000
00000000
00000000
00001001
00000000
00000100
,
00001100
00000000
00000000
00000011
00000000
00000000
00001001
00000000
00000000
00000000
00001000
00000000
00000100
00000000
00001000
00000000
,
00000100
00001000
00000010
00001000
00000010
00001000
00000010
00001000
,
00010000
00100000
00001000
01000000
00100000
01000000
00100000
01000000
,
00010000
01000000
00100000
20000000
00000000
30010000
00000000
10000000
,
01000000
00100000
00010000
00110000
00000000
01100000
00000000
00100000
,
00001000
00010000
00000100
00001100
00000000
00000011
00000000
00000001
,
00000010
00000100
00001000
00001100
00000000
00011000
00000000
00010000
,
01000000
00100000
10000000
10010000
00000000
10010000
00000000
00100000
,
00010000
00001000
00000100
00001001
00000000
00000110
00000000
00001001
,
00000002
00000203
00000320
00020030
,
00032000
02003000
03200000
20300000
,
32000000
03200000
00302000
00023000
,
00030200
00020300
00032000
00203000
,
02300000
23000000
30200000
02300000
,
03020000
00230000
00302000
00023000
,
00030200
00002300
00003002
00000003
,
00001001
00000000
00000000
00000110
00000000
00000000
00001001
00000000
00000000
00000000
00001000
00000000
00000001
00000000
00001000
00000000
,
00000002
00000000
00002003
00000000
00003010
00000000
00000010
00000100
,
00000000
00000100
00000010
00000000
00020000
00000000
00031000
00000000
,
02000000
00000000
03200000
00000000
10300000
00000000
00100000
10000000
,
00000000
10000000
00100000
00000000
00200000
00000000
01300000
00000000
,
00200000
00000000
02300000
00000000
03001000
00000000
00010000
00000100
,
00000000
00000100
00010000
00000000
00000020
00000000
00001030
00000000
,
00000002
00000000
00002003
00000000
00003001
00000000
00000100
00000010
,
00000000
00000010
00000000
00000010
00000100
00000000
00000001
00000000
,
00000020
00000000
00010030
00000000
01001000
00000000
00010000
00100000
,
00000000
00100000
00010000
00000000
01010000
00000000
11000000
00000000
,
00020000
00000000
10030000
00000000
10010000
00000000
10000000
01000000
,
00000000
01000000
00100000
00000000
00101000
00000000
00010100
00000000
,
00000020
00000000
00000130
00000000
00001001
00000000
00001000
00000001
,
00000000
00000001
00001000
00000000
00001100
00000000
00110000
00000000
,
02000000
00000000
03100000
00000000
10010000
00000000
00100000
01000000
,
00000000
00001000
00000000
00010000
00000100
00000000
01001000
00000000
,
00011000
00000000
00000000
00000000
;
