#TITLE:Y's;
#SUBTITLE:- To Make The End Of Battle;
#ARTIST:Soundteam JDK;
#TITLETRANSLIT:;
#SUBTITLETRANSLIT:;
#ARTISTTRANSLIT:;
#CREDIT:Anime Toshokan;
#BANNER:Y's - To Make The End Of Battle.png;
#BACKGROUND:Y's - To Make The End Of Battle bg.png;
#LYRICSPATH:;
#CDTITLE:dejiko.png;
#MUSIC:Y's - To Make The End Of Battle.mp3;
#OFFSET:-0.083;
#SAMPLESTART:27.040;
#SAMPLELENGTH:9.800;
#SELECTABLE:YES;
#DISPLAYBPM:195.000;
#BPMS:0.000=195.370,248.000=196.260,256.000=195.160;
#STOPS:;
#BGCHANGES:;
// cache tags:
#FIRSTBEAT:8.000;
#LASTBEAT:305.500;
#SONGFILENAME:Songs/DDR Anime 2nd Mix/Y's - To Make The End Of Battle/Y's - To Make The End Of Battle.sm;
#HASMUSIC:1;
#HASBANNER:1;
#MUSICLENGTH:97.176;
// end cache tags

//---------------dance-single - BASIC----------------
#NOTES:
     dance-single:
     BASIC:
     Easy:
     5:
     0.479,0.667,0.340,0.309,0.015,263.000,33.000,30.000,0.000,0.000:
0000
0000
0000
0000
,
0000
0000
0000
0000
,
1001
1001
1001
1001
,
0010
0001
0100
1000
,
0010
0001
0100
1000
,
0100
0000
0010
0000
,
0100
0000
0010
0000
,
0010
0001
0100
1000
,
1001
0000
1001
0000
,
1000
0100
0001
0010
,
1000
0100
1000
0000
0010
0001
0010
0000
,
1001
0010
0100
1000
,
0010
0000
0001
0000
0010
0001
0001
0000
,
0002
0000
0000
0000
0000
0000
0000
0000
0000
0000
0000
0000
0000
0000
0000
0003
2000
0000
0000
0000
0000
0000
0000
0000
0000
0000
0000
0000
0000
0000
0000
3000
,
0001
0000
1000
0000
,
0001
0000
1000
0000
,
0001
0000
1000
0000
,
0010
0000
0100
0000
,
0010
0000
0100
0000
,
0001
1000
0001
1000
,
0001
1000
0001
1000
0001
1000
0001
1000
,
2002
0000
0000
0000
0000
0000
0000
3003
,
0001
0000
0010
0000
0001
0000
0010
0001
,
0010
0000
1000
0100
0010
0000
1001
0000
,
0001
1000
0001
0100
,
0001
0001
1000
1000
,
0002
0000
0000
0000
0000
0000
0000
0003
0000
0000
0000
0000
0000
0000
0000
0000
2000
0000
0000
0000
0000
0000
0000
0000
3000
0000
0000
0000
0000
0000
0000
0000
,
0002
0003
2000
3000
,
0002
0003
2000
3000
,
0001
1000
0001
1000
,
0010
0010
0100
0100
,
0001
0000
0000
0000
0000
0000
0000
0000
1001
0000
0000
0000
0000
0000
0000
0000
0100
0000
0000
0000
0000
0000
0000
0000
0001
1000
0000
0000
0000
0000
0000
0000
,
0011
0000
0000
0000
0000
0000
0000
0000
0010
0000
0000
0000
0000
0000
0000
0000
0011
0000
0000
0000
0000
0000
0000
0000
0000
0010
0000
0000
0000
0000
0000
0000
,
0001
0100
0010
0001
,
0001
0000
0010
0000
0001
0001
0010
0000
,
0001
0010
0100
0010
,
0011
0100
0010
1001
,
0002
0000
0000
0000
0000
0000
0000
0003
,
0010
0000
0100
0000
2002
0000
0000
3003
,
0010
0001
0100
1000
,
0010
0000
0100
0000
2002
0000
0000
3003
,
0002
0000
0000
0000
0000
0000
0000
0000
0000
0000
0000
0000
0000
0000
0000
0003
0010
0000
0000
0000
0000
0000
0000
0000
0001
0000
0000
0000
0000
0000
0000
0000
,
0010
1000
0010
1000
,
0010
0001
0010
0001
,
0001
1000
0100
0100
,
1000
0100
1000
0000
0100
0000
0010
0000
,
0010
0001
0100
0010
,
0100
0001
0010
0001
,
0100
0000
0000
0000
,
0001
0100
0001
0000
,
0010
1000
0100
0000
,
0010
1000
0100
0000
,
0020
0000
0000
0030
0002
0000
0003
0000
,
0002
0000
0000
0003
2000
0000
0000
3000
,
0002
0000
0000
0000
0000
0000
0000
0000
1000
0000
0000
0000
0000
0000
0000
0003
0000
0000
0000
0000
0000
0000
0000
0000
0010
0000
0000
0000
0000
0000
0000
0000
,
0001
1000
0010
0000
,
0001
1000
0010
0100
,
0001
0001
1000
0100
,
0002
0000
0000
0003
0011
0000
0001
0000
,
0010
1000
0100
0110
,
0002
0000
0000
0000
0000
0000
0000
0000
0000
0000
0000
0000
0000
0000
0000
0003
0000
0000
0000
0000
0000
0000
0000
0000
0100
0000
0000
0000
0000
0000
0000
0000
,
2000
0000
0000
0000
0000
0000
3000
0000
0000
0000
0000
0000
2002
0000
0000
3003
,
0001
0000
0001
0000
0000
0100
0001
0000
,
0001
0000
0001
0000
0000
0010
0001
0000
,
0001
0000
0000
0000
0010
0000
0000
0000
0001
0000
0000
0000
0000
0000
0000
0000
0010
0000
0000
0001
0000
0000
0000
0000
0010
0000
0000
0000
0000
0000
0000
0000
,
1000
0100
1000
0000
1100
0000
1100
0000
,
0010
0001
0100
1000
,
0010
0001
0000
0000
1001
0000
1001
0000
,
0010
0000
0000
0010
0000
0010
1000
0000
,
0010
0000
0100
0000
2002
3003
2002
3003
,
1001
0110
1001
0110
,
1001
0110
1001
0110
,
0010
0001
0100
1000
,
1000
0100
1000
0100
0100
0000
0010
0000
,
0001
0000
0000
0001
0000
0000
0000
0000
,
1000
0000
1000
1000
,
0010
0010
0010
0000
0000
0000
0000
0000
;

//---------------dance-single - ANOTHER----------------
#NOTES:
     dance-single:
     ANOTHER:
     Medium:
     7:
     0.559,0.707,0.442,0.545,0.036,284.000,43.000,53.000,0.000,0.000:
0000
0000
0000
0000
,
0000
0000
0000
0000
,
1001
0010
0010
0100
,
0100
0100
0100
0001
,
0001
0001
1000
1000
,
1001
0110
1001
0000
,
1001
1000
0100
0010
,
0001
1000
0100
0001
,
0010
1000
0100
0001
,
0001
0000
0010
0000
0001
0001
0001
0001
,
0020
0000
0000
0000
0000
0000
0000
0030
2000
0000
0000
0000
0000
0000
0000
3000
0200
0000
0000
0000
0000
0000
0000
0300
0002
0000
0000
0000
0000
0000
0000
0003
,
0001
1000
0001
1000
,
0002
0000
0000
0000
0000
0000
0000
0003
0000
0000
0000
0000
0000
0000
0000
0000
2000
0000
0000
0000
0000
0000
0000
3000
0000
0000
0000
0000
0000
0000
0000
0000
,
0002
0000
0000
0000
0000
0000
0000
0003
0000
0000
0000
0000
0000
0000
0000
0000
2000
0000
0000
0000
0000
0000
0000
3000
0000
0000
0000
0000
0000
0000
0000
0000
,
0010
0001
0100
0000
0010
0001
0200
0300
,
0001
0010
0100
0000
0001
0010
0100
0001
,
0001
0100
0001
0000
0001
0000
0011
0000
,
0001
0001
0001
0001
,
1000
1000
1000
1000
,
0100
0100
0100
0100
,
0010
0000
0010
0000
0010
0010
0010
0010
,
0020
0000
0000
0000
0000
0000
0000
0000
0000
0000
0000
0000
0000
0000
0000
0030
0200
0000
0000
0000
0000
0000
0000
0000
0000
0000
0000
0000
0300
0000
0000
0000
,
0010
0000
0001
0000
0100
0000
0000
2002
0000
0000
0000
0000
0000
0000
3003
0000
,
0000
0000
0000
0000
0010
0001
0100
0000
,
0010
0000
0000
0000
0001
0000
0000
0000
0100
0000
0000
0000
0000
2002
0000
0000
0000
0000
0000
0000
0000
0000
0000
0000
0000
0000
0000
0000
3003
0000
0000
0000
,
0002
0000
0000
0003
0010
0001
0100
1000
,
0020
0030
0002
0003
0020
0030
0002
0003
,
0002
0000
0000
0000
0000
0000
0000
0003
0000
0000
0000
0000
0020
0000
0000
0000
0030
0000
0000
0000
0000
0000
0000
0000
0010
0000
0000
0000
0000
0000
0000
0000
,
0001
0000
0000
0100
0000
0000
0010
0000
,
0001
0000
0000
0100
0000
0000
0010
0000
,
1000
0100
0010
0001
,
0010
0100
2000
3000
,
2000
0000
0000
0000
0000
0000
0000
3000
0100
0000
0000
0000
0000
0000
0000
0000
0010
0000
0000
0000
0000
0000
0000
0000
0100
0000
0000
0000
0000
0000
0000
0000
,
0001
0010
0011
0110
,
1000
0100
1000
0000
0010
0100
0010
0000
,
0001
0100
0010
1000
,
0002
0000
0000
0000
0000
0000
0000
0000
0000
0000
0000
0003
0000
0000
0000
0000
0010
0000
0000
0000
0000
0000
0000
0000
0100
0000
0000
0000
0000
0000
0000
0000
,
2002
0000
0000
0000
0000
0000
0000
3003
,
0010
0000
0001
0000
0100
0000
0000
2002
0000
0000
0000
0000
0000
0000
0000
0000
,
0000
0000
0000
3003
0010
0001
0100
0100
,
0010
0000
0001
0000
0100
0000
0000
2002
0000
0000
0000
0000
0000
0000
3003
0000
,
0010
0000
0000
0000
0001
0000
0000
0000
0100
0000
0000
0000
0000
0000
0000
0000
0010
0000
0000
0001
0000
0000
0000
0000
0100
0000
0000
0000
0000
0000
0000
0000
,
2000
3000
0000
0010
0000
0000
2000
3000
,
0020
0000
0000
0000
0000
0000
0000
0030
0000
0000
0000
0000
0002
0000
0000
0000
0000
0000
0000
0000
0003
0000
0000
0000
0020
0000
0000
0000
0030
0000
0000
0000
,
0010
0000
0000
0001
0000
0000
0100
0000
,
0010
0001
0100
1001
,
2002
0000
0000
3003
2001
0001
3001
0000
,
0011
0010
0110
0010
,
1010
0110
1001
0110
,
0100
0001
0000
0000
0002
0003
0010
0000
,
0010
0100
0010
0000
0100
0000
0010
0100
,
1000
0100
0010
0001
,
2002
0000
0000
3003
,
2200
0000
0000
3300
,
0022
0000
0000
0033
0000
0000
0010
0000
,
0010
0001
0100
0000
0010
1000
0100
0000
,
0002
0000
0000
0000
0000
0000
0000
0003
0000
0000
0000
0000
0000
0000
0000
0000
0100
0000
0000
0000
0100
0000
0000
0000
0000
0000
0000
0000
0000
0000
0000
0000
,
0001
0100
0010
0001
,
0022
0000
0000
0033
0000
0000
0010
0000
,
0010
0001
0100
0000
0010
1000
0100
0000
,
2002
0000
0000
3003
0001
0000
1000
0000
,
0002
0000
0000
0000
0000
0000
0000
0000
0000
0000
0000
0000
0000
0000
0000
0003
2000
0000
0000
0000
0000
0000
0000
0000
0000
0000
0000
0000
0000
0000
0000
3000
,
0001
0000
0000
0000
0000
0000
0000
0000
0000
0000
0000
0000
0000
0001
0000
0000
0000
0000
0000
0000
0000
0000
0000
0000
1000
0000
0000
0000
0000
0000
0000
0000
,
0001
0000
1001
1001
,
0001
0000
0000
0001
0000
1000
0000
0000
,
0000
0000
1001
1001
,
0001
0000
0000
0001
0000
1000
0000
0000
,
0000
0000
1001
1001
,
0001
0010
0001
0000
0010
0001
0000
0000
,
0010
0001
0100
1000
,
0011
1001
1001
1010
,
1010
1001
1001
0011
,
0011
0001
1000
0001
,
0001
0001
0000
0010
0010
0010
0010
0010
,
0010
0000
0000
0001
0000
0010
0000
0100
,
0000
0000
0000
0010
0000
0000
0000
0000
0000
0000
0000
0000
0001
0000
0000
0000
0010
0000
0000
0000
0010
0000
0000
0000
1001
0000
0000
0000
0000
0000
0000
0000
,
0010
0000
1000
0001
0000
0000
0000
0000
;

//---------------dance-single - MANIAC----------------
#NOTES:
     dance-single:
     MANIAC:
     Hard:
     9:
     0.613,0.707,0.329,0.525,0.015,334.000,32.000,51.000,0.000,0.000:
0000
0000
0000
0000
,
0000
0000
0000
0000
,
0000
0000
0000
0000
,
0000
0000
0000
0000
,
0020
0001
0001
0001
,
0001
0000
0000
0000
0000
0000
0000
0000
0001
0000
0000
0000
0001
0000
0000
0000
0001
0000
0000
0000
0000
0000
0000
0030
0000
0000
0000
0000
0000
0000
0000
0000
,
0020
1000
1000
1000
,
1000
1000
1000
0030
,
2002
0000
0000
0000
3003
0000
0110
1001
,
0010
0001
0001
0001
0010
0001
0001
0001
,
0010
0001
0100
0000
0200
0000
0000
0300
,
0100
1000
0100
0000
0200
0000
0000
0300
,
0002
0003
2000
3000
0002
0003
2000
3000
,
0010
0000
0000
0000
0001
0000
0000
0000
0100
0000
0000
0000
0000
0000
0000
0000
0010
0000
0000
0000
0001
0000
0000
0000
0000
0100
0000
0000
0000
0000
0000
0000
,
0001
0000
0001
0100
0001
0000
0001
0100
,
0001
0100
0001
0000
0001
0100
1000
0000
,
1000
0000
1000
0100
1000
0000
1000
0100
,
1000
0000
1000
0100
1000
0000
1000
0100
,
2002
0000
0000
0000
0000
0000
0000
3003
,
0002
0000
0000
0000
0000
0000
0000
0000
0000
0000
0000
0000
0000
0000
0000
0000
1000
0000
0000
0000
1000
0000
0000
1003
0000
0000
0000
0000
0000
0000
0000
0000
,
1000
0100
0010
0001
1000
0100
0010
0001
,
2001
0000
0001
3001
,
0001
0000
0000
0000
0010
0000
0000
0000
0100
0000
0000
0000
0200
0000
0000
0000
0000
0000
0000
0000
0000
0000
0000
0000
0001
0000
0000
0000
0001
0000
0000
0300
,
0000
0000
0000
0000
0001
0010
0001
0100
,
0001
0000
0000
0000
0010
0000
0000
0000
0100
0000
0000
0000
0200
0000
0000
0000
0000
0000
0000
0000
0000
0000
0000
0000
0001
0000
0000
0000
0001
0000
0000
0300
,
0010
0001
0100
0000
0010
0001
0100
0100
,
0010
0000
0000
0000
0000
0000
0000
0000
0000
0000
0000
0000
0002
0000
0000
0000
0000
0000
0000
0003
0000
0000
0000
0000
0100
0000
0000
0000
0000
0000
0000
0000
,
0010
0000
0001
0100
1000
0000
0010
0000
,
0010
0001
0100
0000
0010
1000
0100
0000
,
0010
1000
0100
0000
0010
0001
0100
0000
,
0010
0000
0001
0001
0100
0000
1000
0000
,
0010
0001
0100
0000
0100
0001
0100
0000
,
0010
0001
0200
0300
0010
0001
0200
0300
,
0022
0000
0000
0000
0000
0000
0000
0000
0000
0000
0000
0033
0000
0000
0000
0000
2200
0000
0000
0000
0000
0000
0000
0000
0000
0000
0000
3300
0000
0000
0000
0000
,
0010
0001
0010
0001
0010
0001
0010
0001
,
0010
1000
0010
1000
0010
1000
0010
1000
,
1001
0010
1001
0010
,
2002
0000
0000
0000
0000
0000
0000
0000
0000
0000
0000
0000
0000
0000
0000
0000
0000
0000
0000
0000
0000
0000
0000
0000
0000
0000
0000
0000
0000
0000
0000
3003
,
0001
0000
0000
0000
0010
0000
0000
0000
0100
0000
0000
0000
0200
0000
0000
0000
0000
0000
0000
0000
0001
0000
0000
0000
0001
0000
0000
0000
0000
0000
0000
0300
,
0000
0000
0000
0000
0001
0010
0001
0100
,
0001
0000
0000
0000
0010
0000
0000
0000
0100
0000
0000
0000
0200
0000
0000
0000
0000
0000
0000
0000
0001
0000
0000
0000
0001
0000
0000
0000
0000
0000
0000
0300
,
0000
0000
0000
0000
0001
0010
0010
1000
,
0010
0000
0000
0000
0000
0000
0000
0000
0000
0000
0000
0000
0002
0000
0000
0000
0000
0000
0000
0003
0000
0000
0000
0000
0100
0000
0000
0000
0000
0000
0000
0000
,
2000
0000
0000
0000
0000
0000
0000
3000
0000
0000
0000
0000
0000
0000
0000
0000
0002
0000
0000
0000
0000
0000
0000
0000
1003
0000
0000
0000
0000
0000
0000
0000
,
0010
0001
0100
0000
0010
0001
0100
0000
,
1000
0100
0010
0001
1000
0100
0010
0001
,
0010
0001
0200
0301
,
0010
1000
0100
0000
0010
1000
0100
0100
,
0020
0000
0031
1001
,
2002
3003
0000
2200
3300
0000
2002
3003
,
0010
1000
0100
0010
1000
0100
0010
1000
,
1000
0100
0010
0010
0001
0000
1001
0000
,
0020
0000
0000
0000
0000
0000
0000
0000
0000
0000
0000
0000
0000
0000
0000
0030
0002
0000
0000
0000
0000
0000
0000
0000
0000
0000
0000
0000
0000
0000
0000
0003
,
0002
0000
0000
0000
0000
0000
0000
0000
0000
0000
0000
0000
0000
0000
0000
0003
0020
0000
0000
0000
0000
0000
0000
0000
0000
0000
0000
0000
0000
0000
0000
0030
,
0002
0000
0000
0003
1000
0100
0010
0000
,
0020
0000
0000
0000
0000
0000
0000
0030
0000
0000
0000
0000
0000
0000
0000
0000
0010
0000
0000
0000
0010
0000
0000
0000
0010
0000
0000
0000
0000
0000
0000
0000
,
0200
0000
0000
0000
0000
0000
0000
0300
0000
0000
0000
0000
0000
0000
0000
0000
0100
0000
0000
0000
0100
0000
0000
0000
0100
0000
0000
0000
0000
0000
0000
0000
,
0010
0001
0100
0000
0010
0001
0100
0000
,
0010
1000
0100
0000
0010
1000
0100
0000
,
0010
0000
0001
0000
0001
0000
0001
0001
,
2002
0000
0000
0000
0000
0000
0000
0000
0000
0000
0000
0000
0000
0000
0000
3003
0000
0000
0000
0000
0000
0000
0000
0000
1001
0000
0000
0000
0000
0000
0000
0000
,
2002
0000
0000
3003
0220
0000
0000
0330
,
0001
0000
0010
1000
,
0001
0000
1001
1001
,
0001
0000
0000
0100
0000
1000
0000
0000
,
0001
0000
1001
1001
,
0010
0000
0100
1000
,
0000
0000
1001
1001
,
0010
0010
0000
0000
1001
0000
0010
0010
,
1001
0000
0000
0000
0000
0000
0000
0000
0010
0000
0000
0000
0010
0000
0000
0010
0000
0000
0000
0000
0000
0000
0000
0000
1001
0000
0000
0000
0000
0000
0000
0000
,
1001
1001
1001
1001
,
0010
1000
0100
0000
0010
1000
0100
0000
,
0010
0001
0100
0000
0010
0001
0100
0000
,
0000
0000
0010
0010
0010
0010
0010
0010
,
0001
0000
0000
0001
0000
0000
0100
0000
,
0001
0000
0000
0001
0000
0100
0000
0000
,
0010
0010
0010
0010
0000
0000
0000
0000
;

//---------------dance-single - BEGINNER----------------
#NOTES:
     dance-single:
     BEGINNER:
     Beginner:
     2:
     0.121,0.196,0.093,0.000,0.000,73.000,9.000,0.000,0.000,0.000:
0000
0000
0000
0000
,
0000
0000
0000
0000
,
1001
0000
0000
0000
,
0010
0000
0000
0000
,
0010
0000
0000
0000
,
0100
0000
0000
0000
,
0100
0000
0000
0000
,
0010
0000
0000
0000
,
1001
0000
0000
0000
,
1000
0000
0000
0000
,
1000
0000
0000
0000
,
1001
0000
0000
0000
,
0010
0000
0000
0000
,
0001
0000
0000
0000
,
0001
0000
0000
0000
,
0001
0000
0000
0000
,
0001
0000
0000
0000
,
0010
0000
0000
0000
,
0010
0000
0000
0000
,
0001
0000
0000
0000
,
0001
0000
0000
0000
,
1001
0000
0000
0000
,
0000
0000
0000
0000
,
0010
0000
0000
0000
,
0001
0000
0000
0000
,
0001
0000
0000
0000
,
0001
0000
0000
0000
,
1000
0000
0000
0000
,
0001
0000
0000
0000
,
0001
0000
0000
0000
,
0010
0000
0000
0000
,
0001
0000
0000
0000
,
0011
0000
0000
0000
,
0001
0000
0000
0000
,
0001
0000
0000
0000
,
0001
0000
0000
0000
,
0011
0000
0000
0000
,
0001
0000
0000
0000
,
0000
0000
0000
0000
,
1001
0000
0000
0000
,
0010
0000
0000
0000
,
0001
0000
0000
0000
,
0010
0000
0000
0000
,
0010
0000
0000
0000
,
0001
0000
0000
0000
,
1000
0000
0000
0000
,
0010
0000
0000
0000
,
0100
0000
0000
0000
,
0100
0000
0000
0000
,
0001
0000
0000
0000
,
0010
0000
0000
0000
,
0010
0000
0000
0000
,
0010
0000
0000
0000
,
0001
0000
0000
0000
,
0001
0000
0000
0000
,
0001
0000
0000
0000
,
0001
0000
0000
0000
,
0001
0000
0000
0000
,
0001
0000
0000
0000
,
0010
0000
0000
0000
,
0001
0000
0000
0000
,
1000
0000
0000
0000
,
0001
0000
0000
0000
,
0001
0000
0000
0000
,
0001
0000
0000
0000
,
1000
0000
0000
0000
,
0010
0000
0000
0000
,
0010
0000
0000
0000
,
0010
0000
0000
0000
,
0010
0000
0000
0000
,
1001
0000
0000
0000
,
1001
0000
0000
0000
,
0010
0000
0000
0000
,
1000
0000
0000
0000
,
0001
0000
0000
0000
,
1000
0000
0000
0000
,
0010
0000
0000
0000
;
