#TITLE:Good Cop Bad Cop;
#SUBTITLE:A 70's Funk-fest;
#ARTIST:DGhost & Cpct0;
#TITLETRANSLIT:;
#SUBTITLETRANSLIT:;
#ARTISTTRANSLIT:;
#CREDIT:www.micheldonais.com;
#BANNER:Good cop Bad cop.png;
#BACKGROUND:Good cop Bad cop-BG.png;
#LYRICSPATH:;
#CDTITLE:;
#MUSIC:Good Cop Bad Cop.mp3;
#OFFSET:-8.080;
#SAMPLESTART:15.940;
#SAMPLELENGTH:8.000;
#SELECTABLE:YES;
#BPMS:0.000=120.000;
#STOPS:;
#BGCHANGES:;
// cache tags:
#FIRSTBEAT:0.000;
#LASTBEAT:176.000;
#SONGFILENAME:Songs/StepMix 1.0/Good Cop Bad Cop/Good Cop Bad Cop.sm;
#HASMUSIC:1;
#HASBANNER:1;
#MUSICLENGTH:108.068;
// end cache tags

//---------------dance-single - ----------------
#NOTES:
     dance-single:
     :
     Easy:
     2:
     0.132,0.143,0.083,0.000,0.000,91.000,9.000,0.000,0.000,0.000:
0001
0000
0000
0000
,
0100
0000
0000
0000
,
0010
0000
0000
0000
,
1000
0000
1000
1000
,
1000
0000
1000
0000
,
0001
0000
0001
0000
,
1000
0000
1000
0000
,
0001
0000
0001
0000
,
0100
0000
0100
0000
,
0010
0000
0010
0000
,
0100
0000
0100
0000
,
0100
0000
0000
0000
,
1001
0000
0000
0000
,
1000
1000
1000
0000
,
1001
0000
0000
0000
,
0100
0000
0000
0000
,
0110
0000
0000
0000
,
0010
0010
0010
0000
,
0110
0000
0000
0000
,
0100
0000
0100
0000
,
0001
0000
0001
0000
,
0100
0100
0100
0100
,
0100
0000
0010
0000
,
1000
1000
1000
1000
,
1000
0000
0001
0000
,
0010
0010
0010
0010
,
0010
0000
0010
0000
,
0100
0100
0100
0100
,
0100
0000
0010
0000
,
0100
0000
0010
0000
,
1000
0000
0001
0000
,
1000
0000
0001
0000
,
0100
0000
0010
0000
,
0100
0000
0010
0000
,
0001
0000
0100
0000
,
0010
0000
1000
0000
,
1001
0000
0000
0000
,
0100
0100
0100
0000
,
1001
0000
0000
0000
,
0010
0010
0010
0000
,
0110
0000
0000
0000
,
0001
0001
0001
0000
,
0110
0000
0000
0000
,
1000
1000
1000
0000
,
1001
0000
0000
0000
;

//---------------dance-single - ----------------
#NOTES:
     dance-single:
     :
     Beginner:
     1:
     0.095,0.102,0.093,0.000,0.000,62.000,10.000,0.000,0.000,0.000:
0100
0000
0000
0000
,
0010
0000
0000
0000
,
0001
0000
0000
0000
,
1000
0000
0000
0000
,
0100
0000
0100
0000
,
0100
0000
0100
0000
,
0010
0000
0010
0000
,
0010
0000
0010
0000
,
0001
0000
0001
0000
,
0001
0000
0001
0000
,
1000
0000
1000
0000
,
1000
0000
0000
0000
,
1001
0000
0000
0000
,
0100
0000
0000
0000
,
1001
0000
0000
0000
,
0010
0000
0000
0000
,
1001
0000
0000
0000
,
0001
0000
0000
0000
,
1001
0000
0000
0000
,
0010
0000
0000
0000
,
0010
0000
0010
0000
,
0010
0000
0010
0000
,
0100
0000
0100
0000
,
0100
0000
0100
0000
,
1000
0000
1000
0000
,
1000
0000
1000
0000
,
0001
0000
0001
0000
,
0001
0000
0000
0000
,
1001
0000
0000
0000
,
0010
0000
0010
0000
,
0001
0000
0000
0000
,
0100
0000
0100
0000
,
1000
0000
0000
0000
,
0001
0000
0001
0000
,
0100
0000
0000
0000
,
0010
0000
0000
0000
,
1001
0000
0000
0000
,
0010
0000
0000
0000
,
1001
0000
0000
0000
,
1000
0000
0000
0000
,
1001
0000
0000
0000
,
0100
0000
0000
0000
,
1001
0000
0000
0000
,
0010
0000
0000
0000
,
0110
0000
0000
0000
;

//---------------dance-double - ----------------
#NOTES:
     dance-double:
     :
     Beginner:
     1:
     0.090,0.102,0.074,0.000,0.000,60.000,8.000,0.000,0.000,0.000:
10000000
00000000
00000000
00000000
,
01000000
00000000
00000000
00000000
,
00100000
00000000
00000000
00000000
,
00010000
00000000
00000000
00000000
,
00001001
00000000
00000000
00000000
,
00000100
00000000
00000000
00000000
,
00000010
00000000
00000000
00000000
,
00000010
00000000
00000000
00000000
,
00011000
00000000
00000000
00000000
,
00100000
00000000
00000000
00000000
,
01000000
00000000
00000000
00000000
,
10000000
00000000
00000000
00000000
,
10010000
00000000
00000000
00000000
,
01000000
00000000
00000000
00000000
,
00100000
00000000
00000000
00000000
,
00010000
00000000
00000000
00000000
,
00011000
00000000
00000000
00000000
,
00010000
00000000
00000000
00000000
,
00001000
00000000
00000000
00000000
,
00000010
00000000
00000000
00000000
,
00000001
00000000
00000001
00000000
,
00000001
00000000
00000001
00000000
,
00000010
00000000
00000010
00000000
,
00000010
00000000
00000010
00000000
,
00000100
00000000
00000100
00000000
,
00000100
00000000
00000100
00000000
,
00001000
00000000
00001000
00000000
,
00001000
00000000
00001000
00000000
,
00010000
00000000
01000000
00000000
,
00010000
00000000
01000000
00000000
,
00100000
00000000
10000000
00000000
,
00100000
00000000
10000000
00000000
,
01000000
00000000
00010000
00000000
,
01000000
00000000
00010000
00000000
,
10000000
00000000
00100000
00000000
,
10000000
00000000
00000000
00000000
,
10010000
00000000
00000000
00000000
,
00100000
00000000
00000000
00000000
,
00011000
00000000
00000000
00000000
,
00000100
00000000
00000000
00000000
,
00001001
00000000
00000000
00000000
,
00000010
00000000
00000000
00000000
,
00100000
00000000
00000000
00000000
,
00000010
00000000
00000000
00000000
,
00011000
00000000
00000000
00000000
;

//---------------dance-couple - ----------------
#NOTES:
     dance-couple:
     :
     Beginner:
     1:
     0.173,0.224,0.379,0.000,0.000,70.000,41.000,0.000,0.000,10.000:
01000100
00000000
00000000
00000000
,
00100010
00000000
00000000
00000000
,
00010001
00000000
00000000
00000000
,
10001000
00000000
00000000
00000000
,
01000001
00000000
01000000
00000000
,
01000001
00000000
01000000
00000000
,
00101000
00000000
00100000
00000000
,
00101000
00000000
00100000
00000000
,
01000001
00000000
00000001
00000000
,
01000001
00000000
00000001
00000000
,
00011000
00000000
00001000
00000000
,
00011000
00000000
00000000
00000000
,
10011001
00000000
00000000
00000000
,
00000010
00000000
00000010
00000000
,
10011001
00000000
00000000
00000000
,
00100000
00000000
00100000
00000000
,
10011001
00000000
00000000
00000000
,
00000010
00000000
00000010
00000000
,
10011001
00000000
00000000
00000000
,
00000010
00000000
00000000
00000000
,
10000010
00000000
00000010
00000000
,
10000010
00000000
00000010
00000000
,
00010100
00000000
00000100
00000000
,
00010100
00000000
00000100
00000000
,
10000100
00000000
10000000
00000000
,
10000010
00000000
10000000
00000000
,
00010001
00000000
00010000
00000000
,
00011000
00000000
00000000
00000000
,
10011001
00000000
00000000
00000000
,
00100001
00000000
00100001
00000000
,
00010001
00000000
00000000
00000000
,
00010100
00000000
00010100
00000000
,
00011000
00000000
00000000
00000000
,
10000001
00000000
10000001
00000000
,
10000100
00000000
00000000
00000000
,
01000010
00000000
00000010
00000000
,
10011001
00000000
00000000
00000000
,
00100100
00000000
00100000
00000000
,
10011001
00000000
00000000
00000000
,
00000100
00000000
00000100
00000000
,
10011001
00000000
00000000
00000000
,
01000000
00000000
01000000
00000000
,
10011001
00000000
00000000
00000000
,
00000010
00000000
00000010
00000000
,
01100110
00000000
00000000
00000000
;

//---------------dance-single - ----------------
#NOTES:
     dance-single:
     :
     Medium:
     6:
     0.370,0.366,0.130,0.139,0.000,251.000,14.000,15.000,0.000,0.000:
0100
0000
0010
0000
0001
0000
0000
0001
,
0001
0000
0100
0000
1000
0000
0000
1000
,
1000
0000
0010
0000
0100
0000
0000
0100
,
0100
0000
0100
0000
0010
0100
0010
0100
,
0010
0000
1000
1000
0010
0000
0010
0010
,
0100
0000
0100
0100
0001
0000
0001
0001
,
1000
0101
0010
1000
,
1000
0100
0010
0001
0001
0010
0100
1000
,
1001
0000
0001
0001
0100
0000
0100
0100
,
0010
0000
0010
0010
1000
0000
1000
1000
,
0001
1010
0100
0001
,
0001
0010
0100
1000
1000
0100
0010
0001
,
0200
0000
0000
0300
0010
0000
0010
0100
,
0002
0000
0000
0003
1000
0000
0100
0010
,
0200
0000
0000
0300
0010
0000
0001
0010
,
0100
0001
1000
0001
0100
0001
1000
0001
,
0020
0000
0000
0030
0100
0000
0100
0010
,
2000
0000
0000
3000
0001
0000
0010
0100
,
0020
0000
0000
0030
0100
0000
1000
0100
,
0010
1000
0001
1000
0010
1000
0001
1000
,
0100
0010
0001
0010
,
0100
0010
1000
0010
0100
0010
1000
0010
,
0100
1000
0010
1000
,
0001
0100
0010
0100
0001
0100
0010
0100
,
0001
0100
0010
1000
,
0100
1000
0100
1000
0010
1000
0001
0100
,
0010
0100
1000
0001
,
0100
1000
0100
0010
0100
0001
0010
0100
,
0010
0000
1000
1000
0010
0000
0010
0010
,
0100
0000
0100
0100
0001
0000
0001
0001
,
1000
0101
0010
1000
,
1000
0100
0010
0001
0001
0010
0100
1000
,
1001
0000
0001
0001
0100
0000
0100
0100
,
0010
0000
0010
0010
1000
0000
1000
1000
,
0001
1010
0100
0001
,
0001
0010
0100
1000
1000
0100
0010
0001
,
0201
0000
0301
0000
0100
0010
1000
0010
,
2010
0000
3010
0000
1000
0001
0100
0001
,
0201
0000
0301
0000
0100
0010
1000
0100
,
2100
0000
3100
0000
1000
0010
0100
1000
,
1020
0000
1030
0000
0010
0100
0001
0100
,
0102
0000
0103
0000
0001
1000
0010
1000
,
1020
0000
1030
0000
0010
0100
0001
0010
,
0012
0000
0013
0000
0001
0100
0010
0200
,
0310
0000
0000
0000
;

//---------------dance-double - ----------------
#NOTES:
     dance-double:
     :
     Easy:
     3:
     0.128,0.204,0.148,0.000,0.000,81.000,16.000,0.000,0.000,0.000:
10000000
00000000
00010000
00000000
,
10000000
00000000
00010000
00000000
,
00001000
00000000
00010000
00000000
,
00001000
00000000
00010000
00000000
,
00001001
00000000
00000000
00000000
,
00001000
00000000
00001000
00000000
,
00001001
00000000
00000000
00000000
,
00001000
00000000
00010000
00000000
,
10010000
00000000
00000000
00000000
,
00010000
00000000
01000000
00000000
,
10010000
00000000
00000000
00000000
,
00100000
00010000
00001000
00000000
,
00001001
00000000
00000000
00000000
,
00011000
00000000
00000000
00000000
,
10010000
00000000
00000000
00000000
,
00010000
00001000
00010000
00001000
,
00011000
00000000
00000000
00000000
,
00001001
00000000
00000000
00000000
,
10010000
00000000
00000000
00000000
,
00010000
10000000
00010000
10000000
,
00011000
00000000
00000000
00000000
,
00100000
00000000
00100000
00000000
,
10010000
00000000
00000000
00000000
,
01000000
00000000
00100000
00000000
,
00011000
00000000
00000000
00000000
,
00000010
00000000
00000100
00000000
,
00001001
00000000
00000000
00000000
,
00001000
00000000
00001000
00001000
,
00001000
00000000
00000001
00000000
,
00001000
00000000
00001000
00000000
,
00010000
00010000
00010000
00010000
,
00010000
00010000
00010000
00010000
,
00011000
00000000
00000000
00000000
,
10000000
00000000
00000000
00000000
,
00100000
00000000
01000000
00000000
,
00100000
00100000
01000000
01000000
,
00100000
00000000
00000000
00000000
,
00100000
00000000
00010000
00000000
,
00001000
00000000
00000000
00000000
,
00000010
00000000
00000100
00000000
,
00000010
00000000
00000000
00000000
,
00000001
00000000
00000001
00000000
,
00001000
00000000
00000000
00000000
,
00010000
00000000
00001000
00000000
,
00011000
00000000
00000000
00000000
;

//---------------dance-double - ----------------
#NOTES:
     dance-double:
     :
     Medium:
     5:
     0.249,0.244,0.259,0.000,0.000,160.000,28.000,0.000,0.000,0.000:
10000000
01000000
00100000
00010000
,
00001000
00000100
00000010
00000001
,
00000001
00000010
00000100
00001000
,
00010000
00100000
01000000
10000000
,
00011000
00000000
00000010
00000100
,
00001001
00000000
00010000
00100000
,
10010000
01000000
00100000
01000000
,
00010000
00100000
00001000
00010000
,
00011000
00000000
00100000
01000000
,
10010000
00000000
00010000
00001000
,
00000100
00000001
00000100
00000010
,
00001000
00000100
00010000
00000000
,
00000110
00000000
00000100
00000010
,
00000110
00000000
00000010
00000100
,
00011000
00000000
00010000
00001000
,
00011000
00000000
00001000
00010000
,
01100000
00000000
00010000
10000000
,
01100000
00000000
10000000
00010000
,
00011000
00000000
00100000
00010000
,
00011000
00000000
00001000
00000010
,
00001001
00000010
00001000
00000100
,
00010000
00001000
00100000
00010000
,
00100000
01000000
00100000
01000000
,
10000000
01000000
10000000
01000000
,
10010000
01000000
00010000
00100000
,
00001000
00010000
00000100
00001000
,
00000010
00000100
00000010
00000100
,
00000010
00000001
00000010
00000001
,
00001001
00000000
00000001
00000001
,
00001001
00000000
00001000
00001000
,
00010000
00001000
00010000
00001000
,
00010000
00001000
00010000
00100000
,
10010000
00000000
10000000
10000000
,
10010000
00000000
00010000
00010000
,
00001000
00010000
00001000
00010000
,
00001000
00010000
00001000
00010000
,
00011000
00000001
00001000
00010000
,
10010000
10000000
00010000
00001000
,
00001001
00001000
00010000
10000000
,
10010000
00010000
00001000
00000010
,
00000110
00000100
00001000
00010000
,
01100000
00010000
00001000
00000100
,
00000110
00001000
00010000
00100000
,
01100000
10000000
00010000
01000000
,
10010000
00000000
00000000
00000000
;

//---------------dance-couple - ----------------
#NOTES:
     dance-couple:
     :
     Easy:
     4:
     0.408,0.407,0.935,0.037,0.000,184.000,101.000,4.000,0.000,17.000:
10000001
00000000
10000001
10000001
,
00011000
00000000
00011000
00011000
,
01000010
00000000
01000010
01000010
,
00100100
00000000
00100100
00010010
,
10010001
01000001
00100001
01000001
,
10010001
00100001
01000001
00100001
,
00010001
00000001
01000001
00000001
,
10000001
01000001
10000001
01000001
,
10001001
10000010
10000100
10000010
,
10001001
10000100
10000010
10000100
,
10001000
10000000
10000010
10000000
,
10000001
10000010
10000001
10000010
,
01101001
10000000
00010000
01001000
,
01100001
00010000
10000000
00100001
,
01001000
00100000
00010001
00010000
,
00100001
01000000
00100001
01000001
,
10010110
00000001
00001000
00010010
,
10000110
00001000
00000001
10000100
,
00010010
00000100
10001000
00001000
,
10000100
00000010
10000100
10000010
,
00000000
01000000
00100000
01000000
,
10010000
00000100
00001000
00000100
00001000
00000100
00001000
00000100
,
00000000
00000100
00000010
00000100
,
00001001
00010000
00100000
00010000
00100000
00010000
00100000
00010000
,
00000000
00000100
00000010
00000100
,
00001001
10000000
01000001
10000000
01000001
10000000
01000001
10000000
,
00000000
01000000
00100000
01000000
,
10010000
00000100
10001000
00000100
10001000
00000100
10001000
00000000
,
00011001
00010100
00010010
00010100
,
00011001
00010010
00010100
00010010
,
00010001
00010000
00010100
00010000
,
00011000
00010100
00011000
00010100
,
10011000
00101000
01001000
00101000
,
10011000
01001000
00101000
01001000
,
10001000
00001000
00101000
00001000
,
00011000
00101000
00011000
00101000
,
10011002
01000000
00100000
10000000
,
00010000
01000000
00100000
10000000
,
10012003
01000000
00100000
01000000
,
00010000
10000000
00100000
01000000
,
20013001
00000010
00000100
00000001
,
00001000
00000010
00000100
00000001
,
30021001
00000010
00000100
00000010
,
00001000
00000001
00000100
00000010
,
10031001
00000000
00000000
00000000
;

//---------------dance-single - ----------------
#NOTES:
     dance-single:
     :
     Hard:
     8:
     0.456,0.509,0.231,0.074,0.268,312.000,25.000,8.000,11.000,0.000:
1000
0100
1000
0100
1000
0010
1000
0000
,
0100
0001
0100
0001
0010
0001
0100
0000
,
0001
0100
0010
0100
0001
0100
0010
0000
,
2010
0000
0010
0000
0010
0000
3010
0100
,
0101
0000
0000
0000
0100
0001
0000
0001
0M00
0001
0000
0001
0100
0000
0000
0000
,
1010
0000
0000
0000
0100
0010
0000
0010
0M00
0010
0000
0010
0100
0000
0000
0000
,
1000
0010
0100
0001
0010
0100
0010
1000
,
0100
0000
0001
0000
0100
0000
0001
0000
0010
0000
1000
0000
0010
0000
0100
0010
,
0100
0000
0000
0000
0100
0001
0000
0001
0M00
0001
0000
0001
0010
0000
0000
0000
,
0010
0000
0000
0000
0010
1000
0000
1000
00M0
1000
0000
1000
0010
0000
0000
0000
,
0001
0100
0010
0001
1000
0010
0100
0001
,
0010
0000
1000
0000
0100
0000
0010
0000
0001
0000
0100
0000
0010
0000
0001
0010
,
0002
0000
0100
0013
,
0012
0000
0100
1003
,
1200
0000
0001
0300
,
1200
1000
1000
1300
,
0120
0000
1000
0130
,
0120
0000
1000
1030
,
1002
0000
0010
0003
,
0001
0100
0010
0001
1000
0010
0100
0001
,
0110
0000
0000
0000
1000
0100
0000
0100
M000
0100
0000
0100
1000
0000
0010
0000
,
0001
0000
0100
0000
0001
0000
0100
0000
0001
0000
0010
0001
0000
0000
0010
0000
,
0000
0000
0000
0000
0100
0001
0000
0001
0M00
0001
0000
0001
0100
0000
1000
0000
,
0010
0001
0010
0001
0010
1000
0010
1000
,
0000
0000
0000
0000
0100
0010
0000
0010
0M00
0010
0000
0010
0100
0000
0001
0000
,
1000
0000
0010
0000
1000
0000
0010
0000
1000
0000
0001
1000
0000
0000
0001
0000
,
1000
0010
0100
0001
0100
0001
0010
0001
,
1000
0100
0011
0100
0010
1000
0110
1000
,
0101
0000
0000
0000
0100
0001
0000
0001
0M00
0001
0000
0001
0100
0000
0000
0000
,
1010
0000
0000
0000
0100
0010
0000
0010
0M00
0010
0000
0010
0100
0000
0000
0000
,
1000
0010
0100
0001
0010
0100
0010
1000
,
0100
0000
0001
0000
0100
0000
0001
0000
0010
0000
1000
0000
0010
0000
0100
0010
,
0100
0000
0000
0000
0100
0001
0000
0001
0M00
0001
0000
0001
0010
0000
0000
0000
,
0010
0000
0000
0000
0010
1000
0000
1000
00M0
1000
0000
1000
0010
0000
0000
0000
,
0001
0100
0010
0001
1000
0010
0100
0001
,
0010
1000
0100
0010
0001
0100
0010
0000
,
1100
0000
0010
0000
0100
0000
0001
0000
0100
0000
0010
0100
0010
0000
1000
0000
,
0011
0000
0100
0000
1000
0000
0010
0000
0100
0000
1000
0100
1000
0000
0010
0000
,
0110
0000
0100
0000
1000
0000
0010
0000
0100
0000
0001
0010
0001
0000
0100
0000
,
1010
0100
0001
0010
0101
0010
1000
0100
,
0110
0000
0100
0000
1000
0000
0001
0000
0100
0000
0010
0001
0010
0000
0100
0000
,
1010
0000
0100
0000
0010
0000
0100
0000
0001
0000
1000
0100
1000
0000
0010
0000
,
0101
0000
0010
0000
0100
0000
0010
0000
1000
0000
0100
0010
0100
0000
0010
0000
,
0101
0000
0010
0000
1100
0000
0010
0000
0100
0010
0100
0010
0100
0010
0100
0000
,
0011
0000
0000
0000
;

//---------------dance-double - ----------------
#NOTES:
     dance-double:
     :
     Hard:
     9:
     0.445,0.468,0.231,0.074,0.227,304.000,25.000,8.000,11.000,0.000:
00001000
00100000
00010000
01000000
00001000
00100000
00010000
00000000
,
00000100
00010000
00001000
00100000
00010000
00001000
00100000
00000000
,
01000000
00010000
00100000
00010000
00001000
00000100
00001000
00000100
,
00001002
00000000
00000100
00000000
00000010
00000000
00000103
00001000
,
01001000
00000000
00000000
00000000
01000000
00010000
00000000
00010000
0M000000
00010000
00000000
00010000
01000000
00000000
00000000
00000000
,
00010100
00000000
00000000
00000000
00000010
00000100
00000000
00000100
000000M0
00000100
00000000
00000100
00000010
00000000
00000000
00000000
,
00001000
00010000
00000100
00001000
00100000
00010000
01000000
00100000
,
00010000
00000000
00001000
00000000
00100000
00000000
00010000
00000000
01000000
00000000
00100000
00000000
10000000
00000000
00100000
01000000
,
00100000
00000000
00000000
00000000
00001000
00010000
00000000
00010000
0000M000
00010000
00000000
00010000
00001000
00000000
00000000
00000000
,
00100000
00000000
00000000
00000000
00010000
00001000
00000000
00001000
000M0000
00001000
00000000
00001000
00010000
00000000
00000000
00000000
,
00000100
00001000
00000010
00000100
00000001
00001000
00000100
00001000
,
00100000
00000000
00010000
00000000
01000000
00000000
00100000
00000000
00010000
00000000
10000000
00000000
01000000
00000000
00010000
00100000
,
00020000
00000000
00000100
00031000
,
00021000
00000000
00000100
00030010
,
00002010
00000000
00000010
00003000
,
00002010
00000001
00000100
00003010
,
00020100
00000000
00100000
00130000
,
00120000
00000000
01000000
00130000
,
01002000
00000000
00100000
00003000
,
00001000
00000100
00100000
00010000
00100000
00001000
00010000
00100000
,
01000000
00000000
00000000
00000000
00100000
01000000
00000000
01000000
00M00000
01000000
00000000
01000000
00100000
00000000
00010000
00000000
,
00001000
00000000
00010000
00000000
00000100
00000000
00001000
00000000
00001000
00000000
00100000
00010000
00000000
00000000
00100000
00000000
,
00000000
00000000
00000000
00000000
00000010
00001000
00000000
00001000
000000M0
00001000
00000000
00001000
00000010
00000000
00000100
00000000
,
00001000
00000100
00000010
00000100
00000001
00000100
00001000
00000100
,
00000000
00000000
00000000
00000000
00001000
00010000
00000000
00010000
0000M000
00010000
00000000
00010000
00001000
00000000
00000100
00000000
,
00000010
00000000
00000001
00000000
00000100
00000000
00000010
00000000
00001000
00000000
00010000
00001000
00000000
00000000
00010000
00000000
,
01000000
00100000
01000000
00010000
00001000
00010000
00100000
00010000
,
10000000
01000000
00110000
00001000
00000100
00001000
00000110
00000001
,
00001010
00000000
00000000
00000000
00001000
00010000
00000000
00010000
0000M000
00010000
00000000
00010000
00001000
00000000
00000000
00000000
,
00110000
00000000
00000000
00000000
00100000
01000000
00000000
01000000
00M00000
01000000
00000000
01000000
00100000
00000000
00000000
00000000
,
00010000
00001000
00010000
00001000
00100000
00010000
00100000
10000000
,
01000000
00000000
00010000
00000000
01000000
00000000
00010000
00000000
00001000
00000000
00000100
00000000
00001000
00000000
00000100
00000010
,
00000100
00000000
00000000
00000000
00001000
00000001
00000000
00000001
0000M000
00000001
00000000
00000001
00001000
00000000
00000000
00000000
,
00010000
00000000
00000000
00000000
00100000
10000000
00000000
10000000
00M00000
10000000
00000000
10000000
00100000
00000000
00000000
00000000
,
01000000
00010000
00100000
00001000
00010000
00100000
00001000
00100000
,
00000100
00001000
00010000
00000100
00000010
00000100
00000001
00000000
,
00001100
00100000
00010000
01000000
00100000
10000000
00010000
00001000
,
00010100
00010000
00100000
00010000
01000000
10000000
00010000
00100000
,
01010000
00100000
00001000
00100000
00000010
00000100
00001000
00000010
,
00001010
00000010
00000001
00000100
00000010
00001000
00000100
00010000
,
10010000
01000000
00100000
01000000
00001000
00100000
00000100
00001000
,
00000110
00000001
00000010
00000100
00000010
00000100
00001000
00010000
,
00001100
00010000
00001000
00010000
01000000
00010000
00100000
00100000
,
00011000
00010000
00100000
01000000
01010000
00010000
00101000
01010000
,
10010000
00000000
00000000
00000000
;
