#TITLE:Thoughts of Red;
#SUBTITLE:;
#ARTIST:Kick Drum Government;
#TITLETRANSLIT:;
#SUBTITLETRANSLIT:;
#ARTISTTRANSLIT:;
#CREDIT:;
#BANNER:Thoughts of Red.png;
#BACKGROUND:Thoughts of Red- bg.png;
#LYRICSPATH:;
#CDTITLE:HS2logo.png;
#MUSIC:Thoughts of Red.ogg;
#OFFSET:0.000;
#SAMPLESTART:24.520;
#SAMPLELENGTH:11.200;
#SELECTABLE:YES;
#BPMS:0.000=157.000;
#STOPS:;
#BGCHANGES:;
// cache tags:
#FIRSTBEAT:16.000;
#LASTBEAT:280.000;
#SONGFILENAME:Songs/StepMix 1.0/Thoughts of Red/Thoughts of Red.sm;
#HASMUSIC:1;
#HASBANNER:1;
#MUSICLENGTH:108.892;
// end cache tags

//---------------dance-single - ----------------
#NOTES:
     dance-single:
     :
     Hard:
     9:
     0.724,0.835,0.643,0.193,0.225,461.000,70.000,21.000,0.000,2.000:
0000
0000
0000
0000
,
0000
0000
0000
0000
,
0000
0000
0000
0000
,
0000
0000
0000
0000
,
1000
1100
0001
0101
,
1000
1100
0001
0101
,
1000
0000
0001
0000
1000
0000
0001
0000
1000
0000
0001
0000
1000
0000
0001
0001
,
1000
0000
0100
0000
1000
0000
0100
0000
1000
0000
0100
0000
1000
0000
0100
1000
,
0001
0000
0100
0000
0001
0000
0100
0000
0001
0000
0100
0000
0001
0000
0100
0001
,
0100
0000
0010
0000
0100
0000
0010
0000
0100
0000
0010
0000
0100
0000
0010
0100
,
0020
0000
0032
0000
2003
0000
3002
0003
,
0001
1000
0100
0010
0001
1000
0100
0000
,
1000
0000
0001
0000
0010
0000
0000
0000
1000
0001
1000
0000
1001
0000
0000
0000
,
0001
0000
1000
0000
0100
0000
0000
0000
0001
1000
0001
0000
1001
0000
0000
0000
,
1000
0000
0100
0000
0001
0000
0000
0000
0001
0100
0001
0000
0101
0000
0000
0000
,
0001
0000
0100
0000
1000
0000
0000
0000
1000
0100
1000
0000
1100
0000
0000
0000
,
1000
0100
0001
0100
1000
0100
0001
0100
,
1000
0100
0001
0100
1000
0010
0001
0010
,
1000
0010
0001
0010
1000
0010
0001
0010
,
1000
0010
0001
0010
1000
0100
0001
0000
,
1000
0001
1001
0001
1000
1001
0001
1000
,
2002
0000
0000
3003
0001
0100
1000
0010
,
0001
0010
0001
0010
0001
1000
0001
1000
,
0001
0100
1000
0100
1000
0100
0001
0010
,
2000
3000
1100
0002
0003
1001
0220
0330
,
0000
2200
3300
0001
0220
0330
2002
3003
,
0001
0010
1000
0100
0001
0010
1000
0100
,
0002
0000
2000
0000
0203
0000
3020
0330
,
1000
0100
1000
0000
0001
0100
0001
0000
0001
0000
1000
0000
0001
0000
0000
0000
,
1000
0010
1000
0000
0001
0010
0001
0000
0001
0000
1000
0000
0001
0000
0000
0000
,
0001
1000
0001
0000
1000
0001
1000
0000
0001
0000
1000
0000
0100
0000
0000
0000
,
1000
0001
1000
0001
1000
0000
0000
0000
0001
1000
0001
1000
0001
0000
0000
0000
,
0001
0100
1000
0100
0001
0010
1000
0010
,
0001
0000
0100
0000
1000
0000
0000
0000
0001
1000
0001
1000
0001
0000
0000
0000
,
0001
1000
0001
1000
0010
1000
0100
1000
,
0001
0000
1000
0000
0100
0000
0001
0000
1000
0001
1000
0001
1000
0000
0000
0000
,
1000
0001
1100
0001
1000
0001
1001
0100
,
0001
0100
1100
0001
0100
0001
1001
0100
,
0001
1000
0011
1000
0001
1000
1001
0010
,
1000
0010
0011
1000
0010
1000
1001
0000
,
1000
0100
1000
0000
0001
0100
0001
0000
1000
0100
1000
0000
0001
0100
0001
0000
,
1000
0001
0101
0001
1000
0001
0101
0000
,
0001
0010
0001
0000
1000
0010
1000
0000
0001
0010
0001
0000
1000
0010
1000
0000
,
0001
1000
1010
1000
0001
1000
1010
0000
,
0001
0100
1000
0100
0001
0100
1000
0100
,
0001
0010
1000
0010
0001
0010
1000
0000
,
0110
0001
0110
1000
0110
0001
0110
0000
,
0001
0100
1000
0010
0001
0100
1000
0000
,
0001
1000
0100
0010
0001
1000
0100
0010
0001
1000
0100
0010
0000
0000
0000
0000
,
0011
1100
0011
1100
,
1000
0001
0100
0010
1000
0001
0100
0010
1000
0001
0100
0010
0000
0000
0000
0000
,
1100
0011
1100
0011
,
1000
0000
0001
0000
1000
0000
0001
0000
1000
0000
0001
0000
1000
0000
0001
1000
,
0002
0000
0000
0000
1000
0000
1000
0000
1000
0000
0000
0000
0003
0000
1000
0001
,
1000
0000
0001
0100
1000
0010
0001
0100
,
1000
0000
0010
0000
0001
0000
0100
0000
1000
0000
0010
0000
0000
0000
0001
1000
,
0001
0000
0000
0000
1001
0000
0000
0000
0110
0000
0000
0000
1001
0000
1000
0001
,
1000
0000
0000
0000
0011
0000
0000
0000
1100
0000
0000
0000
0011
0000
1000
0001
,
1000
0000
0011
0000
0011
0000
1000
1000
,
1001
0000
1100
0000
1100
0000
0001
0001
,
0101
0000
0110
0000
0011
0000
1000
1000
,
0101
0000
0110
0000
0110
0000
0100
0100
,
1001
0100
1000
0010
,
0001
0100
1000
0010
,
0001
0100
1000
0010
,
0001
1000
1100
0001
,
0101
1000
1100
0001
,
0101
0100
1000
0010
,
1010
1010
0101
0101
,
1001
0000
0000
0000
1001
0000
0000
0000
0110
0000
0000
0000
0001
1000
0100
0010
;

//---------------dance-single - ----------------
#NOTES:
     dance-single:
     :
     Challenge:
     9:
     0.777,0.867,0.689,0.193,0.354,496.000,75.000,21.000,0.000,2.000:
0000
0000
0000
0000
,
0000
0000
0000
0000
,
0000
0000
0000
0000
,
0000
0000
0000
0000
,
1000
0001
1100
0000
0001
1000
0101
0000
,
1000
0001
1100
0000
0001
1000
0101
0000
,
1000
0001
0100
0000
1000
0001
0100
0000
1000
0001
0100
0000
1000
0001
1000
0000
,
0001
1000
0100
0000
0001
1000
0100
0000
0001
1000
0100
0000
0001
1000
0001
0000
,
1000
0001
0100
0000
1000
0001
0100
0000
1000
0001
0100
0000
0100
0010
0100
0000
,
1000
0001
1000
0000
0001
1000
0001
0000
0100
0010
0100
0000
0010
0100
0010
0000
,
0020
0000
0032
0000
2003
0000
3002
0003
,
0001
1000
0100
0010
0001
1000
0100
0010
0001
1000
0100
0010
0000
0000
0000
0000
,
1000
0000
0001
0000
0110
0000
0000
0000
1000
0001
1000
0000
1001
0000
1001
0000
,
0001
0000
1000
0000
0100
0000
0000
0000
0001
1000
0001
0000
1001
0000
1001
0000
,
1000
0000
0100
0000
0001
0000
0000
0000
0001
0100
0001
0000
0101
0000
0101
0000
,
0001
0000
0100
0000
1000
0000
0000
0000
1000
0100
1000
0000
1100
0000
1100
0000
,
0001
1000
0100
0010
0001
1000
0100
0010
0001
1000
0001
0000
0001
1000
0100
0010
,
0001
1000
0100
0010
0001
1000
0001
0000
1000
0000
0010
0000
0001
0000
0010
0000
,
1000
0010
0001
0010
1000
0010
0001
0010
,
1000
0010
0001
0010
1000
0100
0001
0000
,
1000
0001
1001
0001
1000
1001
0001
1000
,
2002
0000
0000
3003
0001
0100
1000
0010
,
0001
0010
0001
0010
0001
1000
0001
1000
,
0001
0100
1000
0100
1000
0100
0001
0010
,
2000
3000
1100
0002
0003
1001
0220
0330
,
0000
2200
3300
0001
0220
0330
2002
3003
,
0001
0010
1000
0100
0001
0010
1000
0100
,
0002
0000
2000
0000
0203
0000
3020
0330
,
1000
0100
1000
0000
0001
0100
0001
0000
0001
0000
1000
0000
0001
0000
0000
0000
,
1000
0010
1000
0000
0001
0010
0001
0000
0001
0000
1000
0000
0001
0000
0000
0000
,
0001
1000
0001
0000
1000
0001
1000
0000
0001
0000
1000
0000
0100
0000
0000
0000
,
1000
0001
1000
0001
1000
0000
0000
0000
0001
1000
0001
1000
0001
0000
0000
0000
,
0001
0100
1000
0100
0001
0010
1000
0010
,
0001
0000
0100
0000
1000
0000
0000
0000
0001
1000
0001
1000
0001
0000
0000
0000
,
0001
1000
0001
1000
0010
1000
0100
1000
,
0001
0000
1000
0000
0100
0000
0001
0000
1000
0001
1000
0001
1000
0000
0000
0000
,
1000
0001
1100
0001
1000
0001
1001
0100
,
0001
0100
1100
0001
0100
0001
1001
0100
,
0001
1000
0011
1000
0001
1000
1001
0010
,
1000
0010
0011
1000
0010
1000
1001
0000
,
1000
0100
1000
0000
0001
0100
0001
0000
1000
0100
1000
0000
0001
0100
0001
0000
,
1000
0001
0101
0001
1000
0001
0101
0000
,
0001
0010
0001
0000
1000
0010
1000
0000
0001
0010
0001
0000
1000
0010
1000
0000
,
0001
1000
1010
1000
0001
1000
1010
0000
,
0001
0100
1000
0100
0001
0100
1000
0100
,
0001
0010
1000
0010
0001
0010
1000
0000
,
0110
0001
0110
1000
0110
0001
0110
0000
,
0001
0100
1000
0010
0001
0100
1000
0000
,
0001
1000
0100
0010
0001
1000
0100
0010
0001
1000
0100
0010
0000
0000
0000
0000
,
0011
1100
0011
1100
,
1000
0001
0100
0010
1000
0001
0100
0010
1000
0001
0100
0010
0000
0000
0000
0000
,
1100
0011
1100
0011
,
1000
0000
0001
0000
1000
0000
0001
0000
1000
0000
0001
0000
1000
0000
0001
1000
,
0002
0000
0000
0000
1000
0000
1000
0000
1000
0000
0000
0000
0003
0000
1000
0001
,
1000
0000
0001
0100
1000
0010
0001
0100
,
1000
0000
0010
0000
0001
0000
0100
0000
1000
0000
0010
0000
0000
0000
0001
1000
,
0001
0000
0000
0000
1001
0000
0000
0000
0110
0000
0000
0000
1001
0000
1000
0001
,
1000
0000
0000
0000
0011
0000
0000
0000
1100
0000
0000
0000
0011
0000
1000
0001
,
1000
0000
0011
0000
0011
0000
1000
1000
,
1001
0000
1100
0000
1100
0000
0001
0001
,
0101
0000
0110
0000
0011
0000
1000
1000
,
0101
0000
0110
0000
0110
0000
0100
0100
,
1001
0100
1000
0010
,
0001
0100
1000
0010
,
0001
0100
1000
0010
,
0001
1000
1100
0001
,
0101
1000
1100
0001
,
0101
0100
1000
0010
,
1010
1010
0101
0101
,
1001
0000
0000
0000
1001
0000
0000
0000
0110
0000
0000
0000
0001
1000
0100
0010
;

//---------------dance-single - ----------------
#NOTES:
     dance-single:
     :
     Easy:
     3:
     0.262,0.320,0.101,0.055,0.000,183.000,11.000,6.000,0.000,0.000:
0000
0000
0000
0000
,
0000
0000
0000
0000
,
0000
0000
0000
0000
,
0000
0000
0000
0000
,
1000
0001
1000
0001
,
0000
1001
0010
0000
,
1000
1000
0001
0000
,
0001
0000
1000
0001
,
0000
0010
1000
0000
,
0100
0000
0001
0000
,
1000
0000
0001
0000
,
0110
0000
0000
0000
,
0001
0000
1000
0000
,
0010
0000
0002
0003
,
0000
0001
0000
0100
,
0000
0001
2000
3000
,
0001
0001
0001
1000
,
1000
1000
0000
0001
,
0001
0001
0000
1000
,
1000
1000
0001
0100
,
1001
0000
0010
0000
,
1000
0000
0001
0000
,
1000
1000
0001
0001
,
1000
1000
0001
0001
,
1001
0000
0000
0000
,
0010
0000
0000
0000
,
0001
0000
0000
0000
,
1000
0000
0000
0000
,
0001
0000
1001
0000
,
1000
1000
0001
0001
,
0000
0000
1001
0000
,
1000
1000
1000
0001
,
0001
0001
0000
1000
,
1000
0000
0001
0001
,
0000
1000
1000
0001
,
0001
1000
1000
1000
,
1000
0001
1000
0001
,
0001
1000
0001
1000
,
0001
0001
0001
0001
,
1000
1000
1000
1000
,
0001
0100
0000
0010
,
0000
0100
0000
0010
,
1000
0001
1000
0001
,
1001
0000
0001
1000
,
0001
0001
1000
1000
,
0010
0010
1000
1000
,
0001
0001
0100
0100
,
0010
0010
1000
1000
,
0001
0001
1000
1000
,
0001
0001
0000
1000
,
0100
0000
1001
0000
,
1000
1000
0001
1001
,
1000
0001
0000
0001
,
0000
1001
0000
0010
,
0000
1000
0000
1000
,
1000
0000
1001
0000
,
0010
0010
0100
0100
,
1000
0000
0000
0001
,
0000
0001
0000
1000
,
0000
1000
0000
0010
,
0000
1000
0000
0010
,
0001
0001
1000
1000
,
0001
0001
1000
1000
,
0010
0010
0100
0100
,
0000
0001
0000
0010
,
0000
1000
0000
0010
,
0000
1000
0000
0001
,
0000
0010
0000
0100
,
2000
3000
0002
0003
,
2000
3000
0002
0003
;

//---------------dance-single - ----------------
#NOTES:
     dance-single:
     :
     Beginner:
     1:
     0.123,0.187,0.064,0.000,0.000,87.000,7.000,0.000,0.000,0.000:
0000
0000
0000
0000
,
0000
0000
0000
0000
,
0000
0000
0000
0000
,
0000
0000
0000
0000
,
0010
0000
0010
0000
,
0010
0000
0000
0000
,
0010
0000
0010
0000
,
0010
0000
0000
0000
,
0010
0000
0010
0000
,
0010
0000
0000
0000
,
0001
0001
0000
0000
,
1000
0000
0000
0000
,
0001
0001
0000
0000
,
1000
0000
0000
0000
,
0100
0000
0000
0000
,
1001
0000
0000
0000
,
0100
0000
0000
0000
,
0010
0000
0010
0000
,
0001
0000
0000
0000
,
0100
0000
0100
0000
,
1000
0000
0000
0000
,
0001
0000
0001
0000
,
1000
0000
0000
0000
,
0010
0000
0000
0000
,
0010
0000
0000
0000
,
0001
0000
0000
0000
,
1000
0000
0000
0000
,
0100
0000
0000
0000
,
0010
0010
0000
0000
,
0010
0010
0000
0000
,
0010
0010
0000
0000
,
0010
0001
0000
0000
,
1000
0000
0000
0000
,
1001
0000
0000
0000
,
0010
0000
0000
0000
,
0110
0000
0000
0000
,
0010
0000
0000
0000
,
1001
0000
0000
0000
,
0001
0000
0000
0000
,
1000
0000
0000
0000
,
0100
0000
0000
0000
,
0100
0000
0000
0000
,
0001
0000
0000
0000
,
1000
0000
0000
0000
,
0001
0000
0000
0000
,
1000
0000
0000
0000
,
0100
0000
0000
0000
,
0010
0000
0000
0000
,
0001
0000
0000
0000
,
0001
0000
0000
0000
,
0100
0000
0100
0000
,
0100
0000
0000
0000
,
0010
0000
1000
0000
,
0010
0000
0000
0000
,
0001
0000
0100
0000
,
0001
0000
0000
0000
,
1000
0000
0010
0000
,
0100
0000
0000
0000
,
0010
0000
0001
0000
,
0100
0000
0000
0000
,
1001
0000
0000
0000
,
1001
0000
0000
0000
,
1001
0000
0000
0000
,
0001
0000
1000
0000
,
0001
0000
1000
0000
,
0001
0000
1000
0000
,
0010
0000
0100
0000
,
0001
0000
1000
0000
,
0010
0000
0000
0000
;

//---------------dance-single - ----------------
#NOTES:
     dance-single:
     :
     Medium:
     6:
     0.400,0.450,0.193,0.202,0.000,262.000,21.000,22.000,0.000,0.000:
0000
0000
0000
0000
,
0000
0000
0000
0000
,
0000
0000
0000
0000
,
0000
0000
0000
0000
,
0001
0001
0001
0001
,
1000
1000
1000
1000
,
0001
1000
0001
0000
0001
0000
0001
0000
,
1000
0001
1000
0000
1000
0000
1000
0000
,
0001
1000
0001
0000
0001
0000
0001
0000
,
1000
0001
1000
0000
0001
0000
0001
0000
,
0010
0010
0010
0010
,
0010
0000
0000
0000
,
0001
0100
0001
0000
1000
0000
0000
0000
,
0010
0100
0010
0000
0101
0000
0000
0000
,
0010
1000
0010
0000
0100
0000
0000
0000
,
0010
0100
0010
0000
1001
0000
0000
0000
,
0001
1000
0010
0100
,
0001
1000
0010
0000
0100
0010
0100
0000
,
0001
1000
0010
0100
,
0001
0010
0100
0000
1000
0010
0100
0000
,
0002
2003
3010
0200
,
0301
1000
0001
0000
0100
0010
0100
0000
,
0002
0203
0310
1000
,
0010
0100
0010
0000
1000
0010
0100
0000
,
0001
1000
0001
1000
,
0001
1000
0001
1000
,
0001
0100
1000
0000
0010
0000
0010
0000
,
1000
0100
0001
0000
0010
0000
0010
0000
,
0110
1001
0000
0000
,
0110
1001
0000
0001
,
1000
0100
0001
0000
0000
0000
0010
0000
,
0001
0010
1000
0000
0000
0000
0010
0000
,
0010
1000
0100
0000
0010
0001
0100
0000
,
0010
1000
0010
0000
0100
0001
0100
0000
,
0010
0100
0010
0000
1000
0100
1000
0000
,
0010
1000
0010
0000
0001
0000
0010
0000
,
0100
0001
0100
0000
0010
1000
0010
0000
,
0100
0010
0100
0000
0010
0100
0001
0000
,
0010
0100
1000
0000
0010
0100
0001
0000
,
2000
3200
0320
0031
,
1000
1000
0010
0010
,
0100
0000
0100
0000
0001
0100
0001
0000
,
1000
1000
0010
0010
,
0100
0000
0100
0000
0001
0010
0001
0000
,
0200
0000
0000
0000
0000
0000
0000
2300
,
0000
0000
0000
0000
0000
0000
0000
3010
,
0200
0000
0000
0000
0000
0000
0000
0301
,
0020
0000
0000
0000
0000
0000
0000
0130
,
2000
0000
0000
0000
0000
0000
0000
3010
,
0200
0000
0000
0000
0000
0000
0000
0301
,
0020
0000
0000
0000
0000
0000
0030
0100
,
0020
0000
0000
0030
,
1001
1001
0010
0000
,
0010
1000
0100
0000
1001
0000
0000
0000
,
0010
0010
1001
0000
,
0010
0001
0100
0000
1010
0000
0000
0000
,
0001
0010
0001
0000
0000
0000
0000
0000
,
0001
0100
1000
0000
0000
0000
0000
0000
,
1000
0100
0001
0000
0000
0000
0000
0000
,
0001
0100
1000
0000
0000
0000
0010
0000
,
0100
0001
1000
0110
,
0001
1000
0010
0101
,
0010
1000
0100
0011
,
1100
0011
0010
0100
,
0002
0013
2000
3100
,
0020
0031
2000
3010
,
0110
1001
0010
0000
,
1000
0010
1000
0000
0001
0000
0000
0000
,
0110
1001
0000
0010
,
0000
0000
1001
0000
0020
0031
0200
0000
,
0300
0000
0000
0000
;
