#TITLE:Euphoria (Long Ver.);
#SUBTITLE:;
#ARTIST:KaW feat. ☺;
#TITLETRANSLIT:;
#SUBTITLETRANSLIT:;
#ARTISTTRANSLIT:;
#CREDIT:;
#BANNER:banner.png;
#BACKGROUND:bg.png;
#LYRICSPATH:;
#CDTITLE:;
#MUSIC:Euphoria (Long).ogg;
#OFFSET:-0.045;
#SAMPLESTART:6.900;
#SAMPLELENGTH:13.440;
#SELECTABLE:YES;
#BPMS:0.000=70.000,40.000=140.000,224.000=70.000,256.250=140.000;
#STOPS:256.125=1.173
;
#BGCHANGES:;
// cache tags:
#FIRSTBEAT:0.000;
#LASTBEAT:347.000;
#SONGFILENAME:Songs/StepMix 2/Euphoria (Long)/Euphoria.sm;
#HASMUSIC:1;
#HASBANNER:1;
#MUSICLENGTH:181.514;
// end cache tags

//---------------dance-single - ----------------
#NOTES:
     dance-single:
     :
     Hard:
     11:
     0.858,1.000,0.474,0.485,1.000,910.000,86.000,88.000,70.000,12.000:









0001
0010
0100
1000
0100
0010
0001
0010
1000
0010
0001
0100
1000
0100
0001
0100
,
0010
1000
0010
0100
0001
1000
0010
0100
0001
0010
0100
0010
0001
0100
1000
0100
,
0002
0000
0000
0000
0000
0000
0000
0000
0003
0000
0000
0000
1000
0100
1000
0100
1000
0000
0000
0000
0000
0000
0000
0000
0000
0000
0000
0000
1100
0000
0000
0000
0011
0000
0000
0000
0004
0400
0000
0000
0000
0000
0000
0000
0000
0000
0303
0000
0000
0000
0000
0000
0000
0000
0000
0000
0000
0000
0000
0000
0100
0000
0000
0000
,
1100
0000
0000
0000
0000
0000
0000
0000
0000
0000
0000
0000
0001
0100
0001
0100
0001
0000
0000
0000
0000
0000
0000
0000
0000
0000
0000
0000
0110
0000
0000
0000
0110
0000
0000
0000
4000
0040
0000
0000
0000
0000
0000
0000
0000
0000
0000
3030
0000
0000
0000
0000
0000
0000
0000
0000
0000
0000
0000
0000
0010
0000
0000
0000
,
0220
0000
0000
0000
0000
0000
0000
0000
1000
0000
0000
0000
0000
0000
0000
0000
1001
0330
0000
0000
0000
0000
0000
0000
0000
0000
0000
0000
2200
0000
0000
0000
,
0010
0000
0000
0000
0000
0000
0000
0000
0000
0300
0000
0000
0000
0000
0000
0000
0000
0000
0000
3000
0002
0000
0000
0000
0203
0000
0000
0000
2300
0000
0000
3000
,
0100
0001
0010
0000
0010
0100
1000
0000
0001
0010
0001
0000
0001
0100
0001
0000
1000
0010
1000
0000
0010
0100
0010
0000
0001
0010
0001
0000
0001
0010
1000
0000
,
1000
0010
0001
0000
0010
0100
0001
0000
0001
0100
1000
0000
1000
0100
0001
0000
0001
1000
0100
0000
1000
0001
0100
0000
1000
0100
1000
0000
0001
1000
0001
0000
,
0010
0100
0010
0000
0010
0001
0010
0000
0100
0010
0100
0000
0100
1000
0100
0000
1000
0100
0010
0000
0001
0010
0100
0000
0100
0010
0001
0000
0001
0010
1000
0000
,
0002
0000
0000
0003
0000
0000
0000
0000
2020
0000
0000
0000
0030
0000
0000
3000
0220
0300
0000
0030
0202
0000
0003
0300
0022
0000
0030
0000
0000
0000
0000
0003
,
1000
0010
0000
0001
1000
0001
0100
0000
0010
0100
0000
0001
0100
0001
0010
0000
,
0100
1000
0000
0001
0100
0010
0100
0000
0002
0000
0003
0100
0010
0000
1000
0000
,
1000
0100
0000
1000
0100
0010
0001
0000
0010
0001
0000
0001
0010
0100
1000
0000
,
0001
1000
0000
1000
0001
1000
0100
0000
0001
0100
0010
0000
0010
0100
0001
0000
,
0100
0010
0000
0010
0100
0010
0100
0000
0001
1000
0000
1000
0001
1000
0001
0000
,
0001
0100
0000
0010
1000
0100
1000
0000
0002
0000
0003
1000
0100
0000
1001
0000
,
0100
0001
0000
0001
0100
1000
0100
0000
0100
1000
0000
1000
0100
0001
0100
0000
,
0010
0001
0000
0010
0100
1000
0100
0000
0010
0001
0010
0000
0010
1000
0001
0000
,
1001
1000
0000
0100
0010
0000
0001
0000
0100
0000
MM2M
0000
0000
0030
0001
0000
,
0010
0000
0000
0001
0100
0000
0010
0000
1000
0000
0020
MM0M
0000
0030
1000
0000
,
1010
0000
0000
0001
1000
0000
0001
0000
1000
0000
0002
MMM0
0000
0003
0010
0000
,
0100
0000
0000
0100
1000
0000
0001
0000
1000
0100
0010
0000
0010
0100
1000
0000
,
0110
0000
0000
0100
0010
0000
0100
0000
1000
0000
0200
M0MM
0000
0300
0011
0000
,
1100
0000
0000
1000
0100
0000
0010
0000
0001
0100
0000
1000
0100
0000
0001
0000
,
0110
0100
0000
1000
0001
0100
0010
0000
0100
0001
0000
0001
0100
0000
1001
0000
,
1100
0000
MMMM
0000
MMMM
0000
0101
0000
2010
0000
0000
3000
1001
0000
0000
0000
,
1000
0100
0000
0100
0010
0000
0010
0001
0000
0001
0010
0100
1000
0100
0010
0001
,
0010
0100
0000
1000
0001
0000
0100
0001
0000
1000
0001
0100
0001
1000
0001
0000
,
1000
0010
1000
0100
1000
0000
0001
1000
0100
1000
0001
0010
0001
0000
2000
0000
,
3100
0010
0100
0010
0100
0000
0001
0010
0100
1000
0000
1000
0010
0100
0001
0000
,
0001
0010
0000
0010
0100
0000
0100
1000
0000
1000
0001
0000
0001
0100
0001
0100
,
0001
0100
0000
0001
0100
0000
0010
1000
0000
1000
0400
0010
0000
0001
0000
0010
,
0300
1000
0000
0001
0100
0000
0100
0000
0001
0100
0001
0100
0001
0000
1000
0000
,
0100
0010
0000
0001
0100
0000
1000
0100
0000
0010
0001
0000
0001
0010
0100
0000
,
0010
0001
0000
0001
0010
0000
0010
0000
0010
0100
0000
0100
0010
0000
1000
0100
,
0010
1000
0000
1000
0010
0100
0000
0000
0200
0000
0300
1000
0100
0000
0010
0000
,
1000
0010
0000
0001
0010
0000
0100
0000
0010
0100
0000
1000
0100
0000
0010
0000
,
0001
1000
0000
1000
0001
0100
0000
0010
0100
0010
0000
1000
0100
0000
1000
0000
,
0012
0000
0000
0003
MMMM
0000
0000
0000
2001
0000
0000
3000
MMMM
0000
0000
0000
,
0011
0000
1010
1010
0000
0101
0101
0000
,
1000
0010
2000
0100
0000
3001
0000
1000
0100
0010
0200
1000
0300
1001
0000
0100
,
0001
0100
0001
0100
0000
0100
0000
0010
0100
1000
0100
0000
0010
0001
0010
0000
,
0010
0100
0010
0100
0000
0201
0000
0301
1000
0010
1000
0010
0000
2100
0000
3010
,
0001
0000
0010
0000
0100
0000
1000
0000
0100
0000
0010
0000
0004
0400
0000
0000
0303
0000
0000
0000
0040
4000
0000
0000
3030
0000
0000
0000
1100
0000
0000
0000
,
0001
0100
0001
0100
0000
1002
0000
1003
0010
1000
0010
1000
0000
0001
1000
0100
,
0010
0001
0010
0100
0000
1100
0000
0001
0100
0001
0100
0000
1000
0100
1000
0000
,
2002
0MM0
0000
3003
M1MM
0000
0000
0000
0202
M0M0
0000
0303
MM1M
0000
0000
0000
,
0011
0000
0000
0000
0110
0000
0000
0000
0000
0000
0000
0000
2001
0000
0000
0000
0000
0000
3000
0000
0001
0000
0000
0000
1000
0000
0000
MMMM
0000
0000
0000
0000
,
0002
0203
2300
3200
0320
0032
0000
2003
,
0000
0000
3200
0000
0000
0000
0301
0000
0001
1000
0001
0010
0100
0000
0000
0000
,
0011
0001
1000
0100
2000
0200
0000
001M
,
0000
0000
00M1
0000
0000
0000
0010
0000
0011
3300
0000
0000
1100
0000
0000
0000
,
0002
0023
2030
3020
0032
0203
2300
3200
,
0300
0000
0002
0000
0003
0000
1000
0000
0001
0100
0010
1000
0100
0000
MMMM
0000
,
1010
0110
1001
1001
0002
2000
0000
0010
,
0000
0000
0000
0000
0000
0000
0010
0000
0000
0000
0000
0000
0000
0000
0000
3003
0000
0000
0000
0000
0000
0000
0000
0000
1000
0000
0000
0000
0010
0000
0000
0000
0100
0000
0000
0000
0001
0000
0000
0000
0000
0000
0000
0000
0000
0000
0000
0000
,
2000
0000
0000
0000
0000
0000
0000
0000
0002
0000
0000
0000
0000
0000
0000
0000
0020
0000
0000
3033
0000
0000
0000
0000
0000
0000
0000
0000
0002
0000
0103
0000
,
2000
0000
3002
0000
0023
0000
0000
1000
0130
0000
0000
0000
0001
0100
0010
2000
,
0000
0000
0000
0000
0200
0000
0000
0000
3311
0000
0000
0000
0000
0000
1000
0010
,
0001
0010
1000
0100
0001
0000
0001
0200
0000
0000
0000
0300
0MM0
0000
M00M
1MM1
,
0100
0000
0000
0000
0000
0000
0000
0000
0000
0000
0000
0000
0001
0000
0000
0000
0000
0000
0010
0000
0000
0000
0000
0000
0100
0000
0000
0000
0000
0000
1000
0000
0000
0000
0000
0000
0100
0000
0000
0000
0000
0000
0000
0000
0000
0000
0000
0000
2000
0000
0000
0000
0000
0000
0000
0000
0000
0000
0000
0000
0200
0000
0000
0000
0000
0000
00M0
0000
000M
0000
0000
0000
3300
0000
0000
0000
0000
0000
0000
0000
0000
0000
0000
0000
1001
0000
0000
0000
0000
0000
0000
0000
0000
0000
0000
0000
0100
0000
0000
0000
0000
0000
0000
0000
0000
0000
0000
0000
0010
0000
0000
0000
0000
0000
0100
0000
0000
0000
0000
0000
0001
0000
0000
0000
0000
0000
1000
0000
0000
0000
0000
0000
0010
0000
0000
0000
0000
0000
0000
0000
0000
0000
0000
0000
2000
0000
0000
0000
0000
0000
0000
0000
0000
0000
0000
0000
0020
0000
0000
0000
0000
0000
0M0M
0000
0000
0000
0000
0000
3030
0000
0000
0000
0000
0000
0000
0000
0000
0000
0000
0000
0101
0000
0000
0000
0000
0000
0000
0000
0000
0000
0000
0000
,
1010
0000
1000
0001
0010
0001
0100
0000
0020
0000
0200
0000
M33M
0000
0010
0000
0101
0000
0001
0010
0100
0010
0001
0000
0020
0000
0230
0000
2300
0000
3001
0000
,
0101
0000
1000
0100
1000
0001
1000
0000
0002
0000
0020
MM00
0033
0000
0110
0000
1001
0000
1000
0010
0100
0001
1000
0000
0002
0000
2000
0MM0
3003
0000
1001
0000
,
1001
0000
0010
0001
0010
0100
1000
0000
0011
0000
1100
0000
MMMM
0000
1001
0000
1010
0000
0101
0000
0000
0000
0002
0000
0100
0000
0100
0000
0100
0000
0000
0000
,
2000
0000
0000
0000
0000
0000
0000
3003
0000
0000
0000
0000
0000
0000
0000
0000
0000
0000
0000
0000
0000
0000
0000
0000
0000
0000
0000
0000
0000
0000
0000
0000
0000
0000
0000
0000
0000
0000
0000
0000
0000
0000
0000
0000
0000
0000
0000
0000
1001
0000
0000
0000
0000
0000
0000
0000
0000
0000
0000
0000
0000
0000
0000
0000
1000
0000
0000
0000
0000
0000
0000
0000
0000
0000
0000
0000
0000
0000
0000
0000
0010
0000
0000
0000
0000
0000
0000
0000
0000
0000
0000
0000
0000
0000
0000
0000
0001
0000
0000
0000
0000
0000
0000
0000
0000
0000
0000
0000
0000
0000
0000
0000
0010
0000
0000
0000
0000
0000
0000
0000
0000
0000
0000
0000
0000
0000
0000
0000
1000
0000
0000
0000
0000
0000
0000
0000
0000
0000
0000
0000
0000
0000
0000
0000
0100
0000
0000
0000
0000
0000
0000
0000
0000
0000
0000
0000
0001
0000
0000
0000
0000
0000
0000
0000
0000
0000
0000
0000
0000
0000
0000
0000
0000
0000
0000
0000
0000
0000
0000
0000
0100
0000
0000
0000
0000
0000
0000
0000
0000
0000
0000
0000
,
1000
0000
1000
0100
0000
0100
0010
0100
0010
0100
1000
0000
0001
0010
0000
0010
,
0100
0000
0100
1000
0000
0001
4000
010M
0000
0M01
3000
0000
0001
1000
0000
0001
,
0100
0000
0101
0000
0001
1000
0100
0010
0001
0000
1100
0000
0010
1000
0100
1000
,
0001
0000
0010
0001
0010
0001
0000
1000
0100
1000
0100
0000
0100
0010
0000
0010
,
0001
0000
0010
0001
0000
1000
0010
0100
0001
0100
0010
0000
1000
0010
0000
1000
,
0100
0000
0010
0001
0000
0001
0100
0010
1000
0100
0010
0000
0001
0010
0000
0010
,
0100
0000
1001
0000
1000
0100
0010
0001
0010
0000
0110
0000
0001
1000
0001
1000
,
0001
0000
0100
0010
1000
0001
0000
0001
1000
0100
0010
0000
0001
0010
0000
0010
,
0001
0000
1000
0100
0000
0100
1000
0100
0001
0100
1000
0000
0010
0100
0000
0010
,
0001
0000
0001
0010
0000
0010
1000
0010
0001
0010
1000
0000
1000
0100
0000
0010
,
0001
0000
1100
0000
0001
0100
0010
1000
0100
1000
0001
0000
1000
0001
0100
0001
,
0010
0000
0001
0100
0000
0010
0000
1000
0001
1000
0001
0000
0010
0100
0000
1000
,
0100
0000
0001
1000
0000
0001
0010
0100
1000
0010
0100
0000
0001
0100
0000
0001
,
0100
0000
0100
0001
0000
1000
0010
0001
0010
0100
0010
0000
0010
1000
0000
0100
,
0010
0000
0011
0000
1000
0001
0010
1000
0010
0000
0101
0000
1000
0100
0001
0100
,
1000
0000
0001
1000
0000
0010
0000
1000
0100
1000
0010
0000
1000
0100
0000
0100
,
0010
0000
0001
0000
0001
1000
0000
1000
0001
0000
0010
0001
0100
0010
0000
1000
,
0001
0100
0000
0000
2002
0000
0000
3103
0010
0000
1001
0000
0010
1000
0000
0001
,
0100
0000
0010
0000
1000
0100
0000
0001
0100
0000
0110
0000
0100
1000
0000
0010
,
0001
0010
0000
1000
0100
0010
0001
0000
0001
0010
0100
0000
2002
0000
3003
0010
,
1000
0100
0000
0000
0110
0000
0000
0010
0001
0000
1000
0000
0010
1000
0000
0001
,
0100
1001
0000
1001
0110
0000
1001
0000
;

//---------------lights-cabinet - ----------------
#NOTES:
     lights-cabinet:
     :
     Easy:
     1:
     0.943,1.000,1.000,0.281,0.364,533.000,272.000,51.000,0.000,249.000:

00000000
11110000
00000000
11110000
00000000
11110000
00000000
11110000
,
00000000
11110000
00000000
11110000
00000000
11110000
00000000
11110000
,
00000000
11110000
00000000
11110000
00000000
11110000
00000000
11110000
,
11110000
11110000
11110000
11110000
,
22220022
00000000
33330033
00000000
00000000
00000000
00000000
00000011
,
22220022
33330033
00000000
00000000
,
22220022
00000000
33330033
00000000
00000000
00000000
00000000
11110011
,
11110011
00000000
00000000
11110011
11110011
00000000
22220022
33330033
,
10000011
01000000
00100011
00010000
10000011
01000000
00100011
00010000
,
10000011
01000000
00100011
00010000
10000011
01000000
00100011
00010000
,
00010011
00100000
01000011
10000000
00010011
00100000
01000011
10000000
,
00010011
00100000
01000011
10000000
00010011
00100000
01000011
10000000
,
10000011
01000000
00100011
00010000
10000011
01000000
00100011
00010000
,
10000011
01000000
00100011
00010000
10000011
01000000
00100011
00010000
,
00010011
00100000
01000011
10000000
00010011
00100000
01000011
10000000
,
00010011
00100000
01000011
10000000
00010011
00100000
01000011
10000000
,
00110011
11000000
00000011
01010000
10100011
00000000
11000011
01010000
,
10100011
00110000
00000011
11000000
10010011
00110000
11000011
00000000
,
01010011
10100000
00000011
11000000
01010011
10100000
00110011
00000000
,
11000011
10010000
01010011
10100000
01010011
01100000
10010011
01100000
,
11110011
00000000
11110011
00000000
,
10100011
00000000
01010011
10100011
00000000
11110011
11110011
00000000
,
10000011
01000000
00100000
00010000
10000011
00000000
01100000
00000000
00010011
00000000
01100000
00000000
10010011
00000000
00000000
00000000
,
10000011
01000000
00100000
00010000
10000011
00000000
01100000
00000000
00010011
00000000
01100000
00000000
10010011
00000000
00000000
00000000
,
00010011
00100000
01000000
10000000
00010011
00000000
01100000
00000000
10000011
00000000
01100000
00000000
10010011
00000000
00000000
00000000
,
00010011
00100000
01000000
00000000
10010011
00000000
00000000
00000000
10000011
01000000
00100011
00000000
10010011
00000000
00000000
00000000
,
10000011
01000000
00100000
00010000
10000011
00000000
01100000
00000000
00010011
00000000
01100000
00000000
10010011
00000000
00000000
00000000
,
10000011
01000000
00100000
00010000
10000011
00000000
01100000
00000000
00010011
00000000
01100000
00000000
10010011
00000000
00000000
00000000
,
00010011
00100000
01000000
10000000
00010011
00000000
01100000
00000000
10000011
00000000
01100000
00000000
10010011
00000000
00000000
00000000
,
11000011
00110011
00000000
11000011
00000000
10010011
11110011
00000000
,
10000011
00100000
01000000
00010000
10000011
00100000
01000000
00010000
10000011
00100000
01000000
00010000
10000011
00100000
01000000
00010000
,
10000011
00100000
01000000
00010000
10000011
00100000
01000000
00010000
10000011
00100000
01000000
00010000
10000011
00000000
00000000
00000000
,
00010011
01000000
00100000
10000000
00010011
01000000
00100000
10000000
00010011
01000000
00100000
10000000
00010011
01000000
00100000
10000000
,
00010011
01000000
00100000
10000000
00010011
01000000
00100000
10000000
00010011
00000000
01100011
00000000
11110011
00000000
00000000
00000000
,
10000011
01000000
00100000
00010000
10000011
01000000
00100000
00010000
10000011
01000000
00100000
00010000
10000011
01000000
00100000
00010000
,
10000011
01000000
00100000
00010000
10000011
01000000
00100000
00010000
10000011
01000000
00100000
00010000
20000011
00000000
00000011
30000000
,
00010011
00100000
01000000
10000000
00010011
00100000
01000000
10000000
00010011
00100000
01000000
10000000
00010011
00100000
01000000
10000000
,
00010011
00000000
00000000
00100000
00000000
00000000
01000000
00000000
00000000
10000000
00000000
00000000
00010011
00000000
00000000
00100000
00000000
00000000
01000000
00000000
00000000
10000000
00000000
00000000
10010010
00000000
00000000
00000000
01100001
00000000
00000000
00000000
10010010
00000000
00000000
00000000
11110001
00000000
00000000
00000000
00000000
00000000
00000000
00000000
00000000
00000000
00000000
00000000
,
10000022
01000000
00100000
00010000
10000033
01000000
00100000
00010000
10000000
01000000
00100000
00010000
10000000
01000000
00100000
00010000
,
10000000
01000000
00100000
00010000
10000000
01000000
00100000
00010000
10000000
01000000
00100000
00010000
10000000
00000000
01100000
00000000
,
10000000
01000000
00100000
00010000
10000000
01000000
00100000
00010000
10000000
01000000
00100000
00010000
10000000
01000000
00100000
00010000
,
10000000
01000000
00100000
00010000
10000000
01000000
00100000
00010000
10000000
01000000
00100000
00010000
10000000
00000000
01100000
00000000
,
10000022
00000000
00000000
01000000
10000033
00000000
00010000
00000000
01000000
00000000
00100000
00000000
00000000
00000000
10000011
00000000
01000022
00000000
00000000
00100000
00010033
00000000
00100000
00000000
10000000
00000000
00010000
00000000
00000000
00000000
10000000
00000000
,
00010022
00000000
00000000
00100000
00010033
00000000
10000000
00000000
00100000
00000000
01000000
00000000
00000000
00000000
00010011
00000000
00100022
00000000
00000000
01000000
10000033
00000000
01000000
00000000
00010011
00000000
10000011
00000000
00100011
00000000
01000000
00000000
,
00010022
00000000
00000000
00100000
00010033
00000000
10000000
00000000
00100000
00000000
01000000
00000000
00000000
00000000
00010011
00000000
00100022
00000000
00000000
01000000
10000033
00000000
01000000
00000000
00010000
00000000
10000000
00000000
00000011
00000000
00010011
00000000
,
10000022
00000000
00000000
01000000
10000033
00000000
00010000
00000000
01000022
00000000
00100000
00000000
00000033
00000000
10000011
00000000
01000022
00000000
00000000
00100000
00010033
00000000
00100011
00000000
10000011
00000000
00010011
00000000
01000011
00000000
00100000
00000000
,
20000022
00000000
00000000
00000000
00000033
00000000
00000000
00000000
00000000
00000000
00000000
00000000
00020010
00000000
00000000
00000000
00000001
00000000
00000000
00000000
00000010
00000000
00000000
00000000
02200001
00000000
00000000
00000000
00000010
00000000
00000000
00000000
00000001
33330000
00000000
00000000
10000011
00000000
00000000
00000000
00000000
00000000
01000000
00000000
00000000
00000000
00000000
00000000
,
00100011
00010000
10000011
01000000
00100011
00010000
10000011
01000000
,
00100011
00010000
10000011
01000000
00100011
00010000
00010011
00100000
,
01000011
10000000
00010011
00100000
01000011
10000000
00010011
00100000
,
01000011
10000000
00010011
00100000
01000011
10000000
10000011
01000000
,
00100011
00010000
10000011
01000000
00100011
00010000
10000011
01000000
,
00100011
00010000
10000011
01000000
00100011
00010000
00010011
00100000
,
01000011
10000000
00010011
00100000
01000011
10000000
00010011
00100000
,
01000011
10000000
00010011
00100000
01000011
10000000
00110011
11000000
,
00000011
01010000
10100011
00000000
11000011
01010000
10100011
00110000
,
00000011
11000000
10010011
00110000
11000011
00000000
01010011
10100000
,
00000011
11000000
01010011
10100000
00110011
00000000
11000011
10010000
,
01010011
10100000
01010011
01100000
10010011
01100000
11110011
00000000
,
00000000
11110011
00000000
10100011
,
01010011
10100011
00000000
11110011
11110011
00000000
11110011
00000000
;

//---------------dance-single - ----------------
#NOTES:
     dance-single:
     :
     Medium:
     6:
     0.389,0.550,0.209,0.259,0.000,409.000,38.000,47.000,0.000,0.000:



0000
0000
0000
0000
,
0100
0010
0001
0000
0100
0010
1000
0000
,
2002
0003
0020
0030
0002
0000
0003
0100
,
0002
0003
0020
0030
0001
0100
0010
3001
,
2002
3000
0200
0300
0020
0000
0030
0100
,
0020
0000
0000
0000
0030
0100
0100
0103
,
2010
0010
0010
0010
0010
0010
0010
3010
,
0102
0100
0100
0100
0100
0100
0100
0103
,
2200
3300
0202
0303
0022
0000
0033
0100
,
2200
3000
0002
0003
1000
0001
2000
3000
,
0001
0000
0000
0000
,
1000
1000
1000
1000
,
0310
0001
0010
0000
0001
0010
0001
0000
,
1000
0100
1000
0000
0010
1000
0010
1000
,
0100
0000
0010
0000
0001
1000
0001
0000
,
0100
0000
0010
0000
1000
0001
1000
0000
,
0100
0000
0010
0000
0100
0010
0100
0000
,
0001
0100
0001
0000
1000
0010
1000
0000
,
1100
0000
0000
0000
,
0010
0001
0100
1000
,
0011
0000
0000
0000
,
0100
0100
0010
0001
,
1001
0000
0000
0000
0000
0000
0000
0100
,
0100
0000
0000
0000
,
1010
0000
0000
0000
0000
0000
0000
0001
,
0001
0000
0101
0101
,
1001
0100
0010
0001
,
1000
0100
0010
0001
,
0100
0010
1000
0001
,
0100
0010
0100
0001
,
0010
0100
0010
0001
,
1000
0100
1000
0001
,
0100
0010
1000
0001
,
1000
0010
1000
0001
,
0100
0100
0010
0010
,
0100
0001
0001
1000
,
0100
0100
0010
0010
,
0100
1000
0001
0001
,
2002
3003
0220
0330
,
1001
0000
0001
1001
0000
1000
1001
0000
,
0100
0010
0100
0000
0001
0010
0001
0000
,
0100
0010
1000
0000
0100
1000
0100
0000
,
1000
0001
0100
0000
0001
1000
0100
0000
,
0010
0001
0100
0000
0020
0000
1000
1030
,
1000
0100
0010
0000
0001
0100
0010
0000
,
1000
0010
1000
0000
0001
0010
0001
0000
,
0101
0010
1100
0010
,
0101
0000
0010
0010
0000
0100
0100
0000
,
1000
0001
1000
0001
1000
0001
0000
0001
,
1000
0000
0100
0000
0010
0001
0010
0000
,
0100
1000
0100
1000
0100
1000
0000
1000
,
0100
0010
0001
0100
,
0010
1000
0010
1000
0010
1000
0000
1000
,
0010
0100
0001
0010
,
1000
0100
0010
0001
1000
0100
0010
0001
,
1000
0110
1001
0101
,
1200
0000
0320
0000
0032
0000
0000
0010
,
0200
0003
0000
0000
0320
0000
0000
0000
2030
0000
0000
0000
0100
0000
3100
0000
,
0200
0000
0320
0000
0032
0000
0000
0010
,
0203
0320
0230
0302
2000
0000
0000
3003
,
1100
0001
0010
0001
,
0100
0010
1000
0010
,
0100
0001
0010
0100
,
1000
0100
0020
0032
,
2000
3003
0000
0000
1001
0000
0000
0000
0100
0000
0000
0000
1001
0000
0000
0000
,
0000
0000
0000
0100
,
0010
0000
0001
0000
1000
0000
0010
0100
,
0001
0000
0010
0100
1000
0000
0010
0100
,
0001
0000
0010
0100
1000
0000
0001
0000
,
0100
0000
0010
1000
0001
0000
1000
0000
,
0100
0000
0010
0001
0010
0000
1100
0000
,
0001
0000
0010
0001
0010
0000
0101
0000
,
0010
0000
1000
0010
1000
0000
0001
0100
,
0001
0100
0001
0100
0001
0000
1000
0010
,
1000
0010
1000
0010
1000
0000
0001
0010
,
0001
0010
0001
0010
0001
0000
1000
0100
,
1000
0100
1000
0100
1000
0000
0012
0000
,
0100
0000
0010
0010
0010
0000
1000
0000
,
0100
0000
0010
0010
0013
0000
2100
0000
,
0001
0000
0010
0010
0010
0000
0100
0000
,
0001
0100
3001
1001
,
0100
0001
0100
0010
0100
0000
1000
0000
,
0100
0010
0001
0010
0100
0000
0001
0000
,
0100
0010
1000
0010
0100
0000
0010
0000
,
1000
0001
0100
0001
0010
0000
1100
0000
,
0001
0000
0110
0000
1000
0000
0100
0010
,
0001
0100
0001
0010
0100
0000
1001
0000
;

//---------------dance-single - ----------------
#NOTES:
     dance-single:
     :
     Easy:
     4:
     0.307,0.358,0.220,0.220,0.000,310.000,40.000,40.000,0.000,9.000:





0000
0000
0000
0000
,
1000
1000
1000
0000
0001
0001
0001
0000
,
2000
3002
0023
0030
,
0002
2003
3020
0230
,
0302
0023
0230
0300
,
2002
0000
0000
3003
,
0100
0100
0001
0001
,
0010
0100
1000
0100
,
0001
0010
1000
0001
,
0200
0000
0320
0000
0130
0100
0200
0000
,
0301
0001
0001
0001
,
1000
1000
1000
1000
,
0001
0001
0100
0100
,
1000
1000
0010
0010
,
1000
0100
0010
0001
,
1000
0100
0010
0001
,
0100
0010
1000
0001
,
0100
0010
1000
0001
,
1100
0001
0001
0010
,
0001
0001
0100
0100
,
0011
1000
1000
0100
,
1000
1000
0010
0010
,
1001
0100
0100
0100
,
1001
0100
0100
0100
,
1001
0010
0010
0010
,
1001
0010
1001
1001
,
0100
1000
0100
1000
,
0001
0010
0001
0010
,
0001
0100
0001
0100
,
1000
0010
1000
0010
,
0100
0001
0010
0001
,
0100
0010
1000
0100
,
1000
0001
0100
0010
,
0100
0001
0101
0000
,
1000
1000
0100
0100
,
0001
0001
0010
0010
,
0001
0001
0100
0100
,
1000
1000
0010
0010
,
1001
0100
0100
0100
,
1001
0100
1001
1001
,
1100
0000
0011
0000
,
1100
0000
0022
0033
,
1010
0000
0101
0000
,
1010
0000
0102
1003
,
1001
0000
0110
0000
,
1001
0000
0220
0330
,
1100
0000
0011
0000
,
1010
0000
0102
1003
,
1100
0001
0010
0010
,
0001
0001
0100
0010
,
1000
0100
0010
0010
,
0001
1000
0100
0100
,
0010
0001
0100
0100
,
0010
1000
0100
0100
,
0001
1000
0100
0010
,
0001
0100
0100
0000
,
2000
3200
0320
0030
,
0002
0203
0320
0030
,
2000
3200
0320
0030
,
0002
0000
0200
0303
0202
0000
0000
0000
,
1000
1000
1000
0000
,
0010
0010
0010
0303
,
2000
3001
2002
0000
,
0010
0010
0010
0003
,
0002
3003
0000
0000
0000
0000
0000
0000
0000
0000
0000
0000
1000
0000
0000
0000
,
1000
1000
1000
0001
,
0001
0001
0001
1000
,
1000
0001
0001
0100
,
0100
0010
0010
0001
,
0100
0001
0100
0010
,
1000
0010
0100
0001
,
0010
0100
1000
0001
,
0010
0100
1000
1001
,
0100
0001
0100
0001
,
0100
0010
1000
1001
,
0100
1000
0100
1000
,
0100
1000
0010
0001
,
0100
0010
1000
0100
,
1000
0010
0100
0001
,
0010
0100
1000
0010
,
1000
0100
0000
0010
,
0010
0001
0001
0100
,
0100
0020
0000
1030
,
1000
0100
0100
0010
,
0020
0001
0030
0011
,
0000
1100
0000
0011
,
0000
1100
1100
0001
;

//---------------dance-single - ----------------
#NOTES:
     dance-single:
     :
     Beginner:
     2:
     0.125,0.167,0.077,0.000,0.000,145.000,14.000,0.000,0.000,0.000:

0000
0000
0000
0000
,
0100
0000
0000
0000
,
1000
0000
0001
0000
,
0100
0000
0010
0000
,
1000
0000
0100
0000
,
0010
0000
0001
0000
,
1000
0000
0001
0000
,
0100
0000
0010
0000
,
1000
0000
0100
0000
,
0010
0000
0001
0000
,
1000
0000
1000
0000
,
1000
0000
1000
0000
,
0001
0000
0001
0000
,
0001
0000
0001
0000
,
1000
0000
1000
0000
,
1000
0000
1000
0000
,
0001
0000
0001
0000
,
0001
0000
0001
0000
,
1001
0000
0000
0000
,
0000
0000
0000
0000
,
0110
0000
0000
0000
,
0000
0000
0000
0000
,
1001
0000
0000
0000
,
0110
0000
0000
0000
,
1001
0000
0000
0000
,
0110
0000
0010
0010
,
0010
0000
0000
0000
,
1000
0000
0000
0000
,
0001
0000
0000
0000
,
0100
0000
0000
0000
,
0010
0000
0000
0000
,
1000
0000
0000
0000
,
0001
0000
0000
0000
,
0100
0000
0000
0000
,
1000
0000
1000
0000
,
1000
0000
0000
0000
,
0001
0000
0001
0000
,
0001
0000
0000
0000
,
0100
0000
0100
0000
,
0100
0000
0000
0000
,
0001
0000
0100
0000
,
0001
0000
0000
0000
,
0001
0000
0100
0000
,
0001
0000
0000
0000
,
1000
0000
0010
0000
,
1000
0000
0000
0000
,
1000
0000
0010
0000
,
1000
0000
0000
0000
,
1001
0000
0000
0000
,
0100
0000
0100
0000
,
1001
0000
0000
0000
,
0010
0000
0010
0000
,
1001
0000
0000
0000
,
0001
0000
0001
0000
,
1001
0000
0000
0000
,
1000
0000
1000
0000
,
1001
0000
0000
0000
,
0100
0000
0100
0000
,
0001
0000
0010
0000
,
0100
0000
1000
0000
,
1001
0000
0100
0000
,
0010
0000
0100
0000
,
1000
0000
0001
0000
,
1000
0000
0010
0000
,
0100
0001
0000
0001
,
0000
0100
0000
0010
,
0000
1000
0000
0001
,
0000
0100
0000
0010
,
0000
1000
0000
0001
,
0000
0010
0000
0100
,
0000
1000
0000
0001
,
0000
0010
0000
0100
,
0000
1000
0000
0100
,
0000
0100
0000
0010
,
0000
0010
0000
0001
,
0000
0001
0000
1000
,
0000
1000
0000
0100
,
0000
0010
0000
0100
,
0000
0010
0000
0001
,
0000
1000
0000
0001
,
0000
1000
0000
0100
,
0000
0010
0000
0001
,
0000
1000
0000
0100
,
0000
0010
0000
0001
,
0000
0001
0000
1001
,
0000
0100
0000
1001
,
0000
0100
0100
0001
;
