#TITLE:Maze The Mega Burst Space;
#SUBTITLE:- Junk Boy;
#ARTIST:Kaoro II Luv;
#TITLETRANSLIT:;
#SUBTITLETRANSLIT:;
#ARTISTTRANSLIT:;
#CREDIT:Anime Toshokan;
#BANNER:Maze The Mega Burst Space - Junk Boy.png;
#BACKGROUND:Maze The Mega Burst Space - Junk Boy bg.png;
#LYRICSPATH:;
#CDTITLE:dejiko.png;
#MUSIC:Maze The Mega Burst Space - Junk Boy.mp3;
#OFFSET:1.245;
#SAMPLESTART:40.510;
#SAMPLELENGTH:14.700;
#SELECTABLE:YES;
#DISPLAYBPM:132.000;
#BPMS:0.000=131.710,52.000=131.350,68.000=131.690,140.000=132.020,164.000=131.570;
#STOPS:91.000=0.456
;
#BGCHANGES:;
// cache tags:
#FIRSTBEAT:12.000;
#LASTBEAT:250.000;
#SONGFILENAME:Songs/DDR Anime 4th Mix/Maze The Mega Burst Space - Junk Boy/Maze The Mega Burst Space - Junk Boy.sm;
#HASMUSIC:1;
#HASBANNER:1;
#MUSICLENGTH:115.005;
// end cache tags

//---------------dance-single - BASIC----------------
#NOTES:
     dance-single:
     BASIC:
     Easy:
     3:
     0.263,0.272,0.104,0.087,0.000,190.000,12.000,10.000,0.000,0.000:
0000
0000
0000
0000
,
0000
0000
0000
0000
,
0000
0000
0000
0000
,
0010
0010
1000
1000
,
0100
0100
0001
0001
,
0100
0100
1000
1000
,
0001
0000
1000
0000
0000
0002
0000
0003
,
0100
1000
0100
0010
,
1000
0100
0110
0000
,
0001
0001
0001
0100
,
0100
0000
0000
1001
,
0001
1000
0100
0010
,
0001
1000
0001
0000
,
0010
1000
0100
0100
,
0010
0001
0100
0000
,
0100
0001
1000
0010
,
0010
0010
0010
0000
,
1100
0000
0110
0000
,
0101
0001
0010
1000
,
0010
0010
1000
1000
,
0100
0100
0001
0000
,
0020
0000
0000
0030
,
0001
0001
1001
0000
,
0010
1000
0001
0010
,
0010
0001
1000
0010
,
1000
0020
0030
0010
,
0001
1000
1001
0100
,
0100
0001
1000
0100
,
0100
1000
0001
0010
,
0010
0100
0100
0001
,
1000
0001
1001
0001
,
0001
0010
0100
1000
,
1000
0100
0010
0020
,
0000
0000
0000
0030
0000
0020
0000
0030
,
0001
1000
0110
0001
,
0010
0100
0001
1000
,
0010
0100
1000
0010
,
0100
0100
1000
0001
,
1000
1001
0000
0100
,
0010
1000
0001
0010
,
0100
0001
1000
0100
,
0100
0100
0000
0010
,
0100
0001
1000
1000
,
1000
0100
1000
0001
,
0001
0100
0001
0010
,
1000
0010
1000
0001
,
0010
0001
0000
0010
,
0010
1000
1000
0010
,
0010
0001
0001
1000
,
0010
0000
0101
0000
0000
0020
0000
0030
,
1000
0001
1000
0001
,
0001
1000
0001
1000
,
1000
0001
1000
0010
,
0010
0100
0100
0001
,
0010
1000
0001
0200
,
0000
0000
0000
0000
,
0000
0000
0000
0302
,
0000
0000
0000
0000
,
0000
0000
0000
2003
,
0000
0000
0000
0000
,
0000
0000
0000
3020
,
0000
0000
0000
0000
,
0000
0030
1001
0000
;

//---------------dance-single - ANOTHER----------------
#NOTES:
     dance-single:
     ANOTHER:
     Medium:
     6:
     0.393,0.462,0.522,0.148,0.000,239.000,60.000,17.000,0.000,0.000:
0000
0000
0000
0000
,
0000
0000
0000
0000
,
0000
0000
0000
0000
,
1010
0000
0110
0000
1000
0001
0100
0000
,
0011
0000
0110
0000
1000
0001
0100
0000
,
1001
0000
0110
0000
1000
0001
0010
0000
,
1000
0100
1000
0100
1000
2000
0000
3000
,
0010
0000
0001
0000
0100
0100
0000
0000
,
1000
0000
0010
0010
0000
0000
0000
0000
,
0001
0000
0110
0000
1000
0000
0100
0010
,
0001
0000
1000
0100
0010
0000
0001
0000
,
1000
0000
1000
0000
0001
0001
0000
0000
,
0100
0000
1000
1000
0000
0000
0000
0000
,
0010
0000
1000
1000
0100
1000
0000
0010
,
0001
0010
0001
0010
0010
0000
0000
0000
,
1100
0000
0010
1000
0010
0100
0000
0000
,
0001
1000
0001
1000
0000
0000
0000
0000
,
0110
0101
1100
0110
,
1001
0000
1000
0001
0010
0000
1000
0001
,
0010
0000
0010
0100
1000
0100
0000
0000
,
0100
0001
0100
0001
0000
0000
0000
0000
,
2000
0000
3200
0000
0301
0001
0000
1000
,
0001
1000
0001
1000
0001
0000
0100
0000
,
1001
0010
1001
0110
,
0110
1000
1001
0010
,
1000
0002
0003
0010
,
0100
1000
0100
0010
0001
0000
1100
0000
,
1001
0010
1001
0110
,
0110
0001
0101
1100
,
1100
0101
0101
1001
,
0110
1001
0010
0110
,
1000
0010
0101
0010
,
0010
0101
1100
0020
,
0000
0030
2200
0000
3300
0002
0000
0003
,
0001
0001
1000
0100
1000
0000
0001
0000
,
0010
0000
0100
0000
0110
0000
0001
0001
,
0001
0001
0001
0001
0001
0000
0001
0000
,
0100
0100
1000
0001
,
0001
0110
0010
1001
,
0110
1000
0010
0110
,
0110
0001
1000
1100
,
0101
0000
1100
0000
0000
1000
0010
0000
,
0100
0001
0000
0100
0010
0000
0001
0000
,
0001
0110
1001
1000
,
1000
0000
0110
0000
1001
0000
0010
1000
,
0010
0000
0010
0001
0010
0000
0100
0010
,
0100
0010
0101
0100
,
0100
1100
1001
0001
,
0001
0011
0101
0110
,
1100
0000
2000
0000
3000
0020
0000
0030
,
1000
0010
0001
0100
1000
0000
0001
0000
,
0001
0001
0101
1000
,
1000
1000
1100
0001
,
0010
1000
0100
0001
,
0010
1000
0110
0200
,
0000
0000
0000
0320
,
0000
0000
0000
0230
,
0000
0000
0000
0320
,
0000
0000
0000
2030
,
0000
0000
0000
3002
,
0000
0000
0000
2003
,
0000
0000
0000
3000
,
0000
0000
1001
0000
;

//---------------dance-single - MANIAC----------------
#NOTES:
     dance-single:
     MANIAC:
     Hard:
     7:
     0.432,0.462,0.252,0.183,0.122,298.000,29.000,21.000,0.000,2.000:
0000
0000
0000
0000
,
0000
0000
0000
0000
,
0000
0000
0000
0000
,
0010
0100
0010
0001
1000
0001
0100
0000
,
0100
0010
0100
0001
1000
0100
0100
0000
,
0010
0100
0100
0001
1000
0010
0010
0000
,
1000
0100
0000
0100
0010
0002
0000
0003
,
0100
0000
0001
0000
0010
0100
0000
0000
,
1000
0000
0100
0010
0000
0000
0110
0000
,
0001
0000
0110
0000
1000
0000
0100
0010
,
0001
0100
0100
0100
,
0001
0000
1000
0000
0100
0010
0000
0000
,
0001
0000
1000
1000
0000
0000
0100
0000
,
0010
0000
0000
0000
1000
0000
0000
1000
0100
0000
1000
0000
0000
0000
0010
0000
,
0010
0100
0100
0001
1000
0000
0010
0000
,
0100
0000
0000
0000
0010
0000
0000
0001
0010
0000
0001
0000
0000
0000
0100
0000
,
0010
0000
0100
0000
0010
0000
0100
0000
0000
0000
0000
0000
0000
0000
0000
0001
,
0100
0000
0000
1000
0100
0000
0000
0100
0010
0000
0000
0000
0100
0000
0000
0000
,
0101
0000
1000
0100
0010
0001
1000
0000
,
0010
0000
0000
0000
0010
0000
0000
0001
1000
0000
0100
0000
0000
0000
0010
0000
,
0100
0010
0100
1001
0000
0000
0100
0000
,
0020
0000
0230
0000
0301
0001
0000
1000
,
0001
1000
0001
1000
0110
0000
0010
0000
,
0101
0000
0000
0000
1000
0000
0001
1000
0000
0000
0000
0000
0110
0000
0000
0000
,
0110
0000
0000
0000
1000
0000
0001
1000
0000
0000
0000
0000
0010
0000
0001
0000
,
1000
0100
0020
0000
0030
0000
0010
0001
,
0100
0000
1000
0000
1000
0000
0010
0001
0000
0000
0000
0000
1100
0000
0000
0000
,
1100
0000
0000
0000
0010
0000
0100
0001
0000
0000
0000
0000
0010
0000
0100
0000
,
1000
0000
0100
0000
0010
0000
0001
0001
0000
0000
0000
0000
1100
0000
0000
0000
,
1100
0110
0101
0011
,
1010
1001
0001
0110
,
1000
0000
0000
0000
0010
0000
0100
0100
0000
0000
0000
0000
0010
0000
0100
0000
,
0010
0000
0100
0000
0001
0000
0100
0100
0000
0000
0000
0000
0020
0000
0030
0000
,
0200
0300
2002
3003
0000
0020
0000
0030
,
0001
0000
0001
0000
1000
0000
0100
1000
0000
0000
0000
0000
0001
0000
0000
0000
,
0010
0000
0000
0000
0100
0000
0010
0100
0000
0000
0000
0000
0001
0000
0001
0000
,
0001
0000
0001
0000
1000
0000
0100
0100
0000
0000
0000
0000
0001
0000
0010
0000
,
0100
1000
0100
0100
1000
0010
0001
1000
,
0001
1000
0200
0000
0300
0000
1001
0000
,
0110
0000
0000
0000
1000
0000
0100
0001
0000
0000
0000
0000
0010
0000
0010
0000
,
0100
0000
0100
0000
0001
0000
0010
0001
0000
0000
0000
0000
1100
0000
0000
0000
,
0110
0000
0101
0000
0000
1000
0010
0010
,
0100
0000
0100
0000
0001
0000
0100
0010
0000
0000
0000
0000
1000
0000
0000
0000
,
0001
0000
0000
0000
0100
0000
0010
0100
0000
0000
0000
0000
0010
0000
0100
0000
,
0010
0000
0100
0000
0001
0000
1000
0010
0000
0000
0000
0000
0010
0000
0100
0000
,
1000
0100
0010
0001
0100
1000
0100
0010
,
0100
0001
0010
0000
0001
0000
0100
0000
,
0010
0000
0000
0000
0100
0000
1000
1000
0000
0000
0000
0000
0001
0000
0100
0000
,
0001
0000
0100
0000
0010
0000
0001
0001
0000
0000
0010
0000
0110
0000
0000
0000
,
1100
0000
0202
0303
0000
0020
0000
0030
,
1000
0000
0010
0000
0001
0000
0100
0010
0000
0000
0000
0000
0001
0000
0000
0000
,
0001
0000
0000
0000
0001
0000
0001
0001
0000
0000
0000
0000
1000
0000
0100
0000
,
1000
0000
0100
0000
1000
0000
1000
1000
0000
0000
0000
0000
0001
0000
0000
0000
,
0010
0000
0000
0000
0010
0000
0100
1000
0000
0000
0000
0000
0010
0000
0100
0000
,
0010
0000
0100
0000
1000
0000
0100
0010
0000
0000
0000
0000
0200
0000
0000
0000
,
0000
0000
0000
0320
,
0000
0000
0000
0032
,
0000
0000
0000
0223
,
0000
0000
0000
2330
,
0000
0000
0000
3002
,
0000
0000
0000
0023
,
0000
0000
0000
0030
,
0000
0000
1001
0000
;

//---------------dance-single - BEGINNER----------------
#NOTES:
     dance-single:
     BEGINNER:
     Beginner:
     2:
     0.158,0.217,0.122,0.009,0.000,112.000,14.000,1.000,0.000,0.000:
0000
0000
0000
0000
,
0000
0000
0000
0000
,
0000
0000
0000
0000
,
0010
0000
1000
0000
,
0100
0000
0001
0000
,
0100
0000
1000
0000
,
0001
0000
0000
0000
,
0100
0000
0100
0000
,
1000
0000
0110
0000
,
0001
0000
0001
0000
,
0100
0000
0000
0000
,
1001
0000
0100
0000
,
0001
0000
0001
0000
,
0010
0000
0100
0000
,
0010
0000
0100
0000
,
0100
0000
1000
0000
,
0010
0000
0010
0000
,
1100
0000
0110
0000
,
0101
0000
0010
0000
,
0010
0000
1000
0000
,
0100
0000
0001
0000
,
0020
0000
0030
0000
,
0001
0000
1001
0000
,
0000
0001
0000
0010
,
0000
1000
0000
1000
,
0000
0000
0010
0001
,
0000
1001
0000
0100
,
0000
1000
0000
0100
,
0000
0001
0000
0010
,
0000
0100
0000
1000
,
0000
1001
0000
0001
,
0000
0100
0000
1000
,
0000
0010
0000
0000
,
1000
0100
0000
0001
,
0000
0110
0000
0010
,
0000
0001
0000
0010
,
0000
1000
0000
0100
,
0000
1000
0000
1000
,
0000
0000
0100
0010
,
0000
0001
0000
0100
,
0000
1000
0000
0100
,
0000
0000
0010
0100
,
0000
1000
0000
1000
,
0000
1000
0000
0001
,
0000
0001
0000
1000
,
0000
1000
0000
0010
,
0000
0000
0010
0010
,
0000
1000
0000
0010
,
0000
0001
0000
0010
,
0000
0000
0001
1000
,
0000
1000
0000
0001
,
0000
0001
0000
1000
,
0000
1000
0000
0010
,
0000
0100
0000
0010
,
0000
0001
0000
1001
,
0000
0000
0000
0110
,
0000
0000
0000
1100
,
0000
0000
0000
0011
,
0000
0000
0000
1000
,
0000
1000
0000
0001
,
0000
0001
0000
0100
,
0000
0100
0000
0010
,
0000
1001
0000
0000
;
