#TITLE:No One Knows My Plan;
#SUBTITLE:;
#ARTIST:They Might Be Giants;
#TITLETRANSLIT:;
#SUBTITLETRANSLIT:;
#ARTISTTRANSLIT:;
#CREDIT:Plaguefox (gamecast.org/plaguemix);
#BANNER:nooneknows-bn.png;
#BACKGROUND:nooneknows-bg.png;
#LYRICSPATH:;
#CDTITLE:pm2cd.png;
#MUSIC:nooneknows.ogg;
#OFFSET:0.000;
#SAMPLESTART:21.185;
#SAMPLELENGTH:16.964;
#SELECTABLE:YES;
#BPMS:0.000=113.180;
#STOPS:;
#BGCHANGES:;
// cache tags:
#FIRSTBEAT:8.000;
#LASTBEAT:181.500;
#SONGFILENAME:Songs/Plaguemix Series/No One Knows My Plan/nooneknows.sm;
#HASMUSIC:1;
#HASBANNER:1;
#MUSICLENGTH:97.543;
// end cache tags

//---------------dance-single - LIGHT----------------
#NOTES:
     dance-single:
     LIGHT:
     Easy:
     2:
     0.214,0.255,0.062,0.082,0.000,132.000,6.000,8.000,0.000,0.000:
0000
0000
0000
0000
,
0000
0000
0000
0000
,
1000
0000
1000
0000
,
0010
0000
0010
0000
,
0001
0000
0001
0000
,
0100
0000
0100
0000
,
1000
0000
1000
0000
,
0100
0000
0100
0000
,
0001
0000
0001
0000
,
0010
0010
0010
0000
,
0100
0100
0100
0100
,
0020
0000
0000
0030
,
0001
0001
0001
0001
,
0100
0000
0100
0000
,
0010
0010
0010
0010
,
2000
0000
0000
3000
,
0100
0100
0100
0100
,
0010
0000
0010
0000
,
1000
1000
1000
1000
,
0010
0010
0010
0010
,
0001
0001
0001
0001
,
0100
0100
0100
0100
,
1000
1000
0100
0100
,
0001
0001
0010
0010
,
0220
0000
0000
0000
0000
0330
0000
0000
,
1001
0110
1001
0000
,
1000
0000
1000
0000
,
0001
0100
1000
0100
,
0001
0000
0001
0000
,
2000
0000
0000
3000
,
0100
0010
1000
0001
,
0200
0000
0000
0300
,
0100
0010
0001
1000
,
0220
0000
0000
0330
,
1000
0001
1000
0001
,
1000
0100
0001
0100
,
0001
1000
0001
1000
,
0001
0010
1000
0010
,
0010
0100
0010
0100
,
0010
1000
0001
0100
,
0100
0010
0100
0010
,
0110
0001
1000
0001
,
1000
0100
0001
0100
,
0001
1000
0001
1000
,
0001
0010
1000
0010
,
0010
0100
0000
0000
;

//---------------dance-single - STANDARD----------------
#NOTES:
     dance-single:
     STANDARD:
     Medium:
     4:
     0.308,0.302,0.000,0.215,0.154,189.000,0.000,21.000,0.000,0.000:








0000
0000
0000
0000
,
0000
0000
0000
0000
,
1000
0000
0000
0001
0000
0000
0001
0100
,
0020
0000
0000
1030
0000
0000
0000
0000
,
0001
0000
0000
1000
0000
0000
1000
0100
,
0020
0000
0000
0031
0000
0000
0000
0000
,
2000
0000
0000
3020
0000
0000
0130
0001
,
2000
0000
0000
3200
0000
0000
0310
0001
,
2000
0000
0000
3020
0000
0000
0130
0001
,
1000
0000
0000
0100
0000
0000
0010
0000
0000
0100
0000
0000
1000
0000
0000
0000
,
0001
0000
0001
0000
0001
0000
0001
0100
,
1000
0000
0000
1000
0000
0000
1000
0000
0000
0000
0000
0000
0001
0000
0000
0000
,
1000
0000
1000
0000
1000
0000
1000
0100
,
0001
0000
0000
0001
0000
0000
0001
0000
0000
0100
0000
0000
1000
0000
0010
0000
,
0100
0000
0100
0000
0100
0000
0100
0001
,
1000
0000
0000
1000
0000
0000
1000
0000
0000
1000
0000
0000
1000
0000
0100
0000
,
0010
0000
0010
0000
0010
0000
0010
0100
,
0001
0000
0000
0001
0000
0000
0010
0000
0000
0010
0000
0000
1000
0000
0000
0000
,
2000
0100
3002
0100
,
2003
0000
0000
0000
0100
0000
0000
0000
3010
0000
0000
0100
0000
0000
0001
0000
,
0020
0001
0230
1000
,
0310
0001
1000
1000
,
0002
0010
2003
0010
,
3002
0000
0000
0000
0010
0000
0000
0000
0103
0000
0000
0010
0000
0000
1000
0000
,
0200
0000
0000
0000
,
1300
0100
0001
0100
,
1000
0000
0000
0001
0000
0000
0010
0000
0000
0100
0000
0000
0000
0000
2000
0000
,
0000
0000
3000
0000
,
0001
0000
0000
1000
0000
0000
0010
0000
0000
0100
0000
0000
0000
0000
0002
0000
,
0000
0000
0003
0000
,
1000
0000
0000
0100
0000
0000
0010
0000
0000
0001
0000
0000
0100
0000
0010
0000
,
1000
0000
0000
0010
0000
0000
0100
0000
0000
0001
0000
0000
0010
0000
0100
0000
,
1000
0000
0000
0010
0000
0000
0100
0000
0000
0001
0000
0000
0010
0000
0100
0000
,
1000
0000
0000
0100
0000
0000
0010
0000
0000
0001
0000
0000
0100
0000
0000
0000
,
1000
0000
1000
0000
1000
0000
1000
0010
,
0001
0000
0000
0001
0000
0000
0001
0000
0000
0000
0000
0000
1000
0000
0000
0000
,
0001
0000
0001
0000
0001
0000
0001
0010
,
1000
0000
0000
1000
0000
0000
1000
0000
0000
0010
0000
0000
0001
0000
0100
0000
,
0010
0000
0010
0000
0010
0000
0010
1000
,
0001
0000
0000
0001
0000
0000
0001
0000
0000
0001
0000
0000
0001
0000
0010
0000
,
0100
0000
0100
0000
0100
0000
0100
0010
,
1000
0000
0000
1000
0000
0000
0100
0000
0000
0100
0000
0000
0001
0000
0000
0000
,
1000
0001
0000
0010
0000
0100
0000
2000
,
0000
0000
0000
3000
0000
0000
0000
0000
,
0001
1000
0000
0010
0000
0100
0000
0002
,
1000
1000
1000
1003
0000
0000
0000
0000;

//---------------dance-single - HEAVY----------------
#NOTES:
     dance-single:
     HEAVY:
     Hard:
     7:
     0.394,0.395,0.103,0.144,0.405,245.000,10.000,14.000,0.000,0.000:
0000
0000
0000
0000
,
0000
0000
0000
0000
,
0001
0000
0000
0100
0000
0000
0001
0000
0000
1000
0000
0000
0010
0000
1000
0000
,
0010
0000
0000
0100
0000
0000
0002
0000
0000
0000
0000
0000
0000
0003
0000
0000
,
1000
0000
0000
0100
0000
0000
1000
0000
0000
0001
0000
0000
0010
0000
0001
0000
,
0010
0000
0000
0100
0000
0000
1000
0000
0000
0010
0000
0000
0100
0000
0001
0000
,
1000
0000
0000
0100
0000
0000
0010
0000
0000
0001
0000
0000
0010
0000
0100
0000
,
1000
0000
0000
0010
0000
0000
0100
0000
0000
0001
0000
0000
0100
0000
0010
0000
,
1000
0000
0000
0100
0000
0000
0010
0000
0000
0100
0000
0000
1000
0000
0100
0000
,
0010
0000
0000
0001
0000
0000
0100
0000
0000
0010
0000
0000
1000
0000
0000
0000
,
0001
0000
0000
0010
0000
0000
0001
0000
0000
0010
0000
0000
0100
0000
0010
0000
,
0100
0000
0000
1000
0000
0000
0200
0000
0000
0000
0000
0000
0000
0300
0000
0000
,
1000
0000
0000
0010
0000
0000
1000
0000
0000
0010
0000
0000
0100
0000
0010
0000
,
0100
0000
0000
0001
0000
0000
0200
0000
0000
0000
0000
0000
0000
0300
0000
0000
,
1001
0000
0000
0100
0000
0000
0010
0000
0000
0100
0000
0000
0001
0000
0100
0000
,
0101
0000
0000
0001
0000
0000
0100
0000
0000
0010
0000
0000
1000
0000
0010
0000
,
1010
0000
0000
0100
0000
0000
0001
0000
0000
1000
0000
0000
0100
0000
1000
0000
,
1100
0000
0000
1000
0000
0000
0001
0000
0000
0100
0000
0000
0010
0000
0000
0000
,
0020
0100
0230
0001
,
0302
0000
0000
0000
1000
0000
0000
0000
1003
0000
0000
0100
0000
0000
1000
0000
,
0002
1000
2003
0100
,
3001
0000
0100
0000
1000
0000
0000
0100
0000
0001
0000
0100
1000
0000
0100
0000
,
0002
1000
2003
0010
,
3020
0000
0000
0000
0100
0000
0000
0000
0130
0000
0000
0001
0000
0000
0010
0000
,
0100
0000
0000
1000
0001
0000
0000
0000
0100
0000
0000
1000
0001
0000
1000
0000
,
0100
0000
1000
0000
0001
0000
0100
0001
0000
1000
0000
0100
1000
0000
0001
0000
,
0100
0000
0000
1000
0000
0000
0100
0000
0000
1000
0000
0000
0000
0000
0200
0000
,
0000
0000
0300
0000
,
0100
0000
0000
0001
0000
0000
0100
0000
0000
0001
0000
0000
0000
0000
0200
0000
,
0000
0000
0300
0000
,
1000
0000
0001
0000
0100
0000
0000
0010
0000
1000
0000
0001
0010
0000
0100
0000
,
1000
0000
0010
0000
0100
0000
0000
0001
0000
1000
0000
0100
0010
0000
0001
0000
,
1000
0000
0001
0000
0100
0000
0000
0010
0000
1000
0000
0001
0010
0000
0100
0000
,
1000
0000
0010
0000
0100
0000
0000
0001
0000
1000
0000
0100
0010
0000
0001
0000
,
1000
0000
0000
0001
0000
0000
1000
0000
0000
0010
0000
0000
0100
0000
0010
0000
,
1000
0000
0000
0001
0000
0000
2000
0000
0000
0000
0000
0000
0000
0000
3000
0000
,
0001
0000
0000
1000
0000
0000
0001
0000
0000
0100
0000
0000
0010
0000
0100
0000
,
0001
0000
0000
1000
0000
0000
0001
0000
0000
0100
0000
0000
0010
0000
0100
0000
,
1001
0000
0000
0010
0000
0000
0100
0000
0000
0010
0000
0000
1000
0000
0010
0000
,
1010
0000
0000
1000
0000
0000
0010
0000
0000
0100
0000
0000
0001
0000
0100
0000
,
0101
0000
0000
0010
0000
0000
1000
0000
0000
0001
0000
0000
0010
0000
0001
0000
,
0011
0000
0000
0001
0000
0000
1000
0000
0000
0010
0000
0000
0100
0000
0000
0000
,
1000
0000
0001
0000
0100
0000
0000
0010
0000
1000
0000
0001
0010
0000
0100
0000
,
1000
0000
0010
0000
0100
0000
0000
0001
0000
1000
0000
0100
0010
0000
0001
0000
,
1000
0000
0001
0000
0100
0000
0000
0010
0000
1000
0000
0001
0010
0000
0100
0000
,
1001
0100
0010
1001
0000
0000
0000
0000
;
