#TITLE:502 Raver;
#SUBTITLE:;
#ARTIST:Kita Keru;
#TITLETRANSLIT:;
#SUBTITLETRANSLIT:;
#ARTISTTRANSLIT:;
#CREDIT:Kita Keru;
#BANNER:502 Raver bn.png;
#BACKGROUND:502 Raver bg.png;
#LYRICSPATH:;
#CDTITLE:;
#MUSIC:502 Raver.mp3;
#OFFSET:-1.500;
#SAMPLESTART:85.500;
#SAMPLELENGTH:12.000;
#SELECTABLE:YES;
#BPMS:0.000=160.000,30.000=160.000,96.000=80.000,112.000=160.000,176.000=80.000,192.000=160.000;
#STOPS:;
#BGCHANGES:;
// cache tags:
#FIRSTBEAT:16.000;
#LASTBEAT:280.000;
#SONGFILENAME:Songs/StepMix 2/502 Raver/502 Raver.sm;
#HASMUSIC:1;
#HASBANNER:1;
#MUSICLENGTH:118.569;
// end cache tags

//---------------dance-single - ----------------
#NOTES:
     dance-single:
     :
     Hard:
     9:
     0.643,1.000,0.599,0.228,0.223,436.000,71.000,27.000,0.000,0.000:
0000
0000
0000
0000
,
0000
0000
0000
0000
,
0000
0000
0000
0000
,
0000
0000
0000
0000
,
2002
0000
0000
0000
,
0000
0000
0000
0000
,
0000
0000
0000
0000
,
0000
0000
0000
0000
0000
0000
0000
3003
,
0001
0010
0001
1100
0000
0110
0000
0001
,
1000
0100
1000
0011
0000
0110
0000
0001
,
0010
0100
0010
1100
0000
0110
0000
0001
,
0102
0000
0100
0000
0100
0000
1000
1003
,
1000
0100
1000
0011
0000
0110
0000
1000
,
0001
0010
0001
1100
0000
0110
0000
1000
,
0100
0010
0100
0011
0000
0110
0000
1000
,
2010
0000
0010
0000
0010
0000
0001
3001
,
0010
1000
0010
0101
0000
1001
0000
0010
,
0100
0001
0100
1010
0000
1001
0000
0010
,
1000
0001
1000
0101
0000
1001
0000
0010
,
0021
0000
0001
0000
0001
0000
0100
0130
,
0100
0001
0100
1010
0000
1001
0000
0100
,
0010
1000
0010
0101
0000
1001
0000
0100
,
0001
1000
0001
1010
0000
1001
0000
0100
,
1200
0000
1000
0000
1000
0000
0010
0310
,
0002
0000
0013
0010
0000
0010
0000
0000
2000
0000
3100
0100
0000
0100
0000
0000
,
0020
0000
0031
0001
0000
0001
0000
1001
1002
0000
0100
0000
0010
0000
0100
1003
,
2000
0000
3100
0100
0000
0100
0000
0000
0002
0000
0013
0010
0000
0010
0000
0000
,
0200
0000
0000
0000
1300
0000
1000
0000
0000
0000
1000
0000
0000
0000
1001
0000
1001
0000
0000
0000
0110
0000
0000
0000
1000
0001
1000
0001
1000
0000
0110
0000
,
0001
0000
0010
0000
0001
0000
0010
0000
0100
0000
0001
0000
1000
0100
0010
0000
,
0100
0010
1000
0001
0100
0010
1000
0100
,
0001
0100
0010
0001
0100
0010
1000
0100
,
0001
0010
0001
1000
0100
0001
1000
0100
,
0001
0000
0100
0000
0001
0000
0100
0000
1000
0000
0001
0000
0010
1000
0100
0000
,
1000
0100
0010
0001
1000
0100
0010
1000
,
0001
1000
0100
0001
1000
0100
0010
1000
,
0001
0100
0001
0010
1000
0001
0010
1000
,
0001
0010
0001
1100
0000
0110
0000
0001
,
1000
0100
1000
0011
0000
0110
0000
0001
,
0010
0100
0010
1100
0000
0110
0000
0001
,
0102
0000
0100
0000
0100
0000
1000
1003
,
1000
0100
1000
0011
0000
0110
0000
1000
,
0001
0010
0001
1100
0000
0110
0000
1000
,
0100
0010
0100
0011
0000
0110
0000
1000
,
2010
0000
0010
0000
0010
0000
0001
3001
,
0021
0000
0001
0000
0001
0001
0001
0031
2100
0000
0100
0000
0100
0100
0100
3100
,
0210
0000
0010
0000
0010
0010
0010
0310
0120
0000
0100
0000
0100
0100
0100
0130
,
1200
0000
1000
0000
1000
1000
1000
1300
0012
0000
0010
0000
0010
0010
0010
0013
,
0120
0000
0000
0000
0100
0000
0000
0000
0100
0000
0100
0000
0100
0000
0130
0000
0210
0000
0000
0000
0010
0000
0300
0000
0001
0010
0001
0010
0001
0000
0010
0000
,
1001
0000
0100
0000
0010
0000
0001
0000
0100
0000
1000
0000
0010
0100
1000
0000
,
0010
0000
0100
0000
0001
0000
0100
0000
0010
0000
1000
0000
0001
0010
1000
0000
,
0100
0000
0001
0000
0010
0000
0001
0000
0100
0000
0010
0000
1000
0001
0100
0000
,
1100
0100
0100
0100
0011
0010
0010
0010
,
1001
0000
0010
0000
0100
0000
1000
0000
0010
0000
0001
0000
0100
0010
0001
0000
,
0100
0000
0010
0000
1000
0000
0010
0000
0100
0000
0001
0000
1000
0100
0001
0000
,
0010
0000
1000
0000
0100
0000
1000
0000
0010
0000
0100
0000
0001
1000
0010
0000
,
0011
0010
0010
0010
1100
0100
0100
0100
,
1000
0100
1000
0000
1000
0000
0001
0010
0001
0000
0010
0000
1001
0000
0000
0000
,
0001
0010
0001
0000
0001
0000
1000
0100
1000
0000
0100
0000
1001
0000
0000
0000
,
0100
0001
0100
0000
0100
0000
0010
1000
0010
0000
1000
0000
0110
0000
0000
0000
,
0010
1000
0010
0000
0010
0000
0100
0001
0100
0000
0001
0000
0110
0000
0000
0000
,
1000
0100
1000
0100
0001
0010
0001
0010
,
0100
0010
0100
0010
1000
0001
1000
0001
,
0010
0100
0010
0100
0001
1000
0001
1000
,
0001
0100
0001
0100
1000
0010
1010
0101
,
2002
0000
0000
0000
,
0000
0000
0000
0000
,
0000
0000
0000
0000
,
0000
0000
0000
0000
0000
0003
0001
3001
,
0220
0000
0000
0000
,
0000
0000
0330
0000
;

//---------------dance-single - ----------------
#NOTES:
     dance-single:
     :
     Challenge:
     12:
     0.770,0.792,0.506,0.329,0.611,539.000,60.000,39.000,373.000,39.000:
0000
0000
0000
0000
,
0000
0000
0000
0000
,
0000
0000
0000
0000
,
0000
0000
0000
0000
,
2MM2
01M0
01M0
01M0
0MM0
01M0
01M0
01M0
,
0MM0
01M0
01M0
01M0
0MM0
01M0
01M0
01M0
,
0MM0
01M0
01M0
01M0
0MM0
01M0
01M0
01M0
,
0MM0
01M0
01M0
01M0
0MM0
01M0
01M0
31M3
,
0010
0100
0000
0010
0100
0000
0010
0100
0000
0010
0100
0000
1MM1
0000
M11M
0000
,
1000
0001
0000
1000
0001
0000
1000
0001
0000
1000
0001
0000
M11M
0000
1MM1
0000
,
0001
0100
0000
0001
0100
0000
0001
0100
0000
0001
0100
0000
MM11
0000
11MM
0000
,
1000
0100
0000
1000
0100
0000
1000
0100
0000
1000
0100
0000
M1M1
0000
11MM
0000
,
0100
0010
0000
0100
0010
0000
0100
0010
0000
0100
0010
0000
1MM1
0000
M11M
0000
,
0001
1000
0000
0001
1000
0000
0001
1000
0000
0001
1000
0000
M11M
0000
1MM1
0000
,
1000
0010
0000
1000
0010
0000
1000
0010
0000
1000
0010
0000
11MM
0000
MM11
0000
,
0001
0010
0000
0001
0010
0000
0001
0010
1000
0100
1000
0100
1MM1
0000
M11M
0000
,
1000
0001
0000
1000
0001
0000
1000
0001
0000
1000
0001
0000
M11M
0000
1MM1
0000
,
0100
0010
0000
0100
0010
0000
0100
0010
0000
0100
0010
0000
1MM1
0000
M11M
0000
,
0010
0001
0000
0010
0001
0000
0010
0001
0000
0010
0001
0000
1M1M
0000
M1M1
0000
,
0100
0001
0000
0100
0001
0000
0100
0001
0000
0100
0001
0000
MM11
0000
M1M1
0000
,
0001
1000
0000
0001
1000
0000
0001
1000
0000
0001
1000
0000
M11M
0000
1MM1
0000
,
0010
0100
0000
0010
0100
0000
0010
0100
0000
0010
0100
0000
1MM1
0000
M11M
0000
,
0100
1000
0000
0100
1000
0000
0100
1000
0000
0100
1000
0000
M1M1
0000
1M1M
0000
,
0010
1000
0000
0010
1000
0000
0010
1000
0001
0010
0001
0010
1MM1
0000
M11M
0000
,
0001
0010
MM11
0100
1000
0100
11MM
0010
,
0001
0010
11MM
0010
1000
0100
MM11
0100
,
1000
0100
11MM
0010
0001
0010
MM11
0100
,
1000
0100
MM11
0100
0001
0010
11MM
0010
,
2000
3100
0020
0130
0002
0013
2000
3100
,
0020
0031
0020
0130
2000
3001
0020
0031
,
2000
3001
0020
0031
0020
0130
2000
3001
,
0020
0130
2000
3001
0020
0031
0200
0310
,
2000
3001
0020
0130
2000
3001
0200
0310
,
0002
0013
0200
0310
0002
1003
0200
0310
,
2000
3100
2000
3001
0020
0130
0002
0013
,
0200
0310
0002
0013
0002
0103
0020
0130
,
0100
0010
0000
0100
0010
0000
0100
0010
0000
0100
0010
0000
1MM1
0000
M11M
0000
,
0001
1000
0000
0001
1000
0000
0001
1000
0000
0001
1000
0000
M11M
0000
1MM1
0000
,
1000
0010
0000
1000
0010
0000
1000
0010
0000
1000
0010
0000
11MM
0000
MM11
0000
,
0001
0010
0000
0001
0010
0000
0001
0010
0000
0001
0010
0000
1M1M
0000
MM11
0000
,
0010
0100
0000
0010
0100
0000
0010
0100
0000
0010
0100
0000
1MM1
0000
M11M
0000
,
1000
0001
0000
1000
0001
0000
1000
0001
0000
1000
0001
0000
M11M
0000
1MM1
0000
,
0001
0100
0000
0001
0100
0000
0001
0100
0000
0001
0100
0000
MM11
0000
11MM
0000
,
1000
0100
0000
1000
0100
0000
1000
0100
0001
0010
0001
0010
1MM1
0000
M11M
0000
,
1000
1000
1MMM
MMMM
MMM1
MMM1
MMM1
MMMM
,
M1MM
M1MM
M1MM
MMMM
MM1M
MM1M
MM1M
MM1M
,
M12M
M10M
M10M
MM0M
MM01
MM01
MM01
MM0M
,
1M0M
1M0M
1M0M
MM0M
MM01
MM01
MM31
MMMM
,
1000
0000
0001
0000
0100
0000
0010
0000
0001
0000
0100
0000
0001
0010
0001
0000
,
0100
0001
0100
1000
0001
0010
0001
0100
,
1000
0001
0100
0010
0001
0100
0001
0010
,
0001
1000
0100
0001
0100
0010
0001
0010
,
0001
0000
1000
0000
0010
0000
0100
0000
1000
0000
0010
0000
1000
0100
1000
0000
,
0010
1000
0010
0001
1000
0100
1000
0010
,
0001
1000
0010
0100
1000
0010
1000
0100
,
1000
0001
0010
1000
0010
0100
1000
0100
,
0100
0000
0010
0000
0001
0000
1000
0000
0010
0000
0001
0000
0010
1000
0010
0000
,
0001
0010
0001
0100
0010
1000
0010
0001
,
0100
0010
0001
1000
0010
0001
0010
1000
,
0010
0100
0001
0010
0001
1000
0010
1000
,
0010
0000
0100
0000
1000
0000
0001
0000
0100
0000
1000
0000
0100
0001
0100
0000
,
1000
0100
1000
0010
0100
0001
0100
1000
,
0010
0100
1000
0001
0100
1000
0100
0001
,
0100
0010
1000
0100
1000
0001
0100
0001
,
21M2
00M0
0MM0
00M0
01M0
00M0
01M0
00M0
0MM0
00M0
01M0
00M0
0MM0
00M0
0MM0
00M0
,
01M0
00M0
0MM0
00M0
01M0
00M0
01M0
00M0
0MM0
00M0
01M0
00M0
0MM0
00M0
0MM0
00M0
,
01M0
00M0
0MM0
00M0
01M0
00M0
01M0
00M0
0MM0
00M0
01M0
00M0
0MM0
00M0
0MM0
00M0
,
02M0
00M0
00M0
00M0
00M0
00M0
00M0
00M0
00M0
00M0
00M0
00M0
00M0
00M0
0000
0000
,
3323
0000
MM0M
MM0M
MM0M
MM0M
MM0M
MM0M
MM0M
MM0M
MM0M
MM0M
MM0M
MM0M
MM0M
MM0M
,
MM0M
MM0M
MM0M
MM0M
MM0M
MM0M
0000
0000
M131
MMMM
0000
0000
0000
0000
0000
0000
;

//---------------dance-single - ----------------
#NOTES:
     dance-single:
     :
     Medium:
     7:
     0.495,0.472,0.076,0.084,0.000,392.000,9.000,10.000,0.000,0.000:
0000
0000
0000
0000
,
0000
0000
0000
0000
,
0000
0000
0000
0000
,
0000
0000
0000
0000
,
2000
0000
0000
0000
,
0001
0000
0000
0000
,
0001
0000
0000
0000
,
0001
0000
0000
0000
,
3001
0010
0001
0000
1000
0100
1000
0000
,
0001
0010
0100
0001
0010
0100
1000
0000
,
1000
0100
1000
0000
0001
0010
0001
0000
,
1000
0100
0010
1000
0100
0010
0001
0000
,
0100
0001
0100
0000
0010
1000
0010
0000
,
0100
0001
1000
0100
0001
1000
0010
0000
,
0010
1000
0010
0000
0100
0001
0100
0000
,
0010
1000
0001
0010
1000
0001
0100
0000
,
0010
1000
0001
0010
1000
0001
0100
0000
,
0100
0001
0100
0000
0010
1000
0010
0000
,
0100
0001
1000
0100
0001
1000
0010
0000
,
1000
0100
1000
0000
0001
0010
0001
0000
,
1000
0100
0010
1000
0100
0010
0001
0000
,
0001
0010
0001
0000
1000
0100
1000
0000
,
0001
0010
0100
0001
0010
0100
1000
0000
,
0010
1000
0010
0000
0100
0001
0100
0000
,
0001
1001
1000
1001
,
0010
0010
1001
0100
0100
0100
1001
0000
,
1000
1001
0001
1001
,
0100
0100
1001
0010
0010
0010
1001
0000
,
1000
0100
1000
0100
1000
0100
0010
0000
,
0001
0010
0001
0010
0001
0010
0100
0000
,
1000
0001
0100
0001
0100
0010
0100
0000
,
0001
1000
0001
0100
0010
1000
0100
0000
,
0001
0010
0001
0010
0001
0010
0100
0000
,
1000
0100
1000
0100
1000
0100
0010
0000
,
0001
1000
0010
1000
0010
0100
0010
0000
,
1000
0001
1000
0010
0100
0001
0010
0000
,
0001
0010
0001
0000
1000
0100
1000
0000
,
0001
0010
0100
0001
0010
0100
1000
0000
,
1000
0100
1000
0000
0001
0010
0001
0000
,
1000
0100
0010
1000
0100
0010
0001
0000
,
0100
0001
0100
0000
0010
1000
0010
0000
,
0100
0001
1000
0100
0001
1000
0010
0000
,
0010
1000
0010
0000
0100
0001
0100
0000
,
0010
1000
0001
0010
1000
0001
0100
0000
,
0002
1003
2000
3001
,
0020
0000
0130
0000
0200
0000
0310
0010
,
0002
1003
2000
3001
,
0020
0130
0200
0310
,
0001
0100
0001
0010
0001
0100
0001
0000
,
0001
0100
0001
0010
0001
0100
0001
0000
,
1000
0010
1000
0100
1000
0010
1000
0000
,
1000
0010
1000
0100
1000
0010
1000
0000
,
0010
0001
0010
1000
0010
0001
0010
0000
,
0010
0001
0010
1000
0010
0001
0010
0000
,
0100
1000
0100
0001
0100
1000
0100
0000
,
0100
1000
0100
0001
0100
1000
0100
0000
,
0100
1000
0100
0001
0100
1000
0100
0000
,
0100
1000
0100
0001
0100
1000
0100
0000
,
0010
0001
0010
1000
0010
0001
0010
0000
,
0010
0001
0010
1000
0010
0001
0010
0000
,
0001
1000
0001
0100
0001
1000
0001
0000
,
0001
1000
0001
0100
0001
1000
0001
0000
,
0010
0100
0010
1000
0010
0100
0010
0000
,
0010
0100
0010
1000
0010
0100
0010
0000
,
1002
1000
1000
1000
,
1000
1000
1000
1000
,
0100
0100
0100
0100
,
0100
0100
0100
0100
,
0010
0010
0010
0010
,
0010
0010
0010
0010
,
1003
0000
0000
0000
;

//---------------dance-single - ----------------
#NOTES:
     dance-single:
     :
     Easy:
     4:
     0.360,0.469,0.455,0.034,0.000,241.000,54.000,4.000,0.000,0.000:
0000
0000
0000
0000
,
0000
0000
0000
0000
,
0000
0000
0000
0000
,
0000
0000
0000
0000
,
2002
0000
0000
0000
,
3003
0000
0000
0000
,
0000
0000
0000
0000
,
0000
0000
0000
0000
,
0001
0100
0010
1001
,
1000
0010
0100
1001
,
1000
0010
0100
1001
,
0001
0100
0010
1001
,
0010
0001
1000
0110
,
0100
1000
0001
0110
,
0100
1000
0001
0110
,
0010
0001
1000
0110
,
1000
0010
0100
1001
,
0001
0100
0010
1001
,
0001
0100
0010
1001
,
1000
0010
0100
1001
,
0100
1000
0001
0110
,
0010
0001
1000
0110
,
0010
0001
1000
0110
,
0100
1000
0001
0110
,
1000
0100
1000
0000
0001
0010
0001
0000
,
0010
0100
0010
0100
0010
0000
0000
0000
,
0001
0010
0001
0000
1000
0100
1000
0000
,
0100
0010
0100
0010
0100
0000
0110
0000
,
1000
0001
0010
0011
,
0001
1000
0100
1100
,
0100
0010
1000
1010
,
0010
0100
0001
0101
,
0001
1000
0100
1100
,
1000
0001
0010
0011
,
0010
0100
0001
0101
,
0100
0010
1000
1010
,
0001
0100
0010
1001
,
1000
0010
0100
1001
,
1000
0010
0100
1001
,
0001
0100
0010
1001
,
0010
0001
1000
0110
,
0100
1000
0001
0110
,
0100
1000
0001
0110
,
0010
0001
1000
0110
,
1000
0100
1000
0100
1000
0100
1000
0000
,
0001
0010
0001
0010
0001
0010
0001
0000
,
0010
0100
0010
0100
0010
0100
0010
0000
,
1001
0110
1001
0110
,
0001
1000
0100
0011
,
0010
0100
1000
0011
,
0010
0100
1000
0011
,
0001
1000
0100
0011
,
0100
0001
0010
1100
,
1000
0010
0001
1100
,
1000
0010
0001
1100
,
0100
0001
0010
1100
,
0100
0010
1000
0101
,
0001
1000
0010
0101
,
0001
1000
0010
0101
,
0100
0010
1000
0101
,
1000
0100
0001
1010
,
0010
0001
0100
1010
,
0010
0001
0100
1010
,
1000
0100
0000
0010
,
2002
0000
0000
0000
,
0000
0000
0000
0000
,
0000
0000
0000
0000
,
0000
0000
0000
0000
,
0000
0000
0000
0000
,
0000
0000
3003
0000
;

//---------------dance-single - ----------------
#NOTES:
     dance-single:
     :
     Beginner:
     2:
     0.186,0.293,0.160,0.017,0.000,133.000,19.000,2.000,0.000,0.000:
0000
0000
0000
0000
,
0000
0000
0000
0000
,
0000
0000
0000
0000
,
0000
0000
0000
0000
,
1001
0000
0000
0000
,
0000
0000
0000
0000
,
1001
0000
0000
0000
,
0000
0000
0000
0000
,
1000
0000
0000
0000
,
0001
0000
0000
0000
,
1000
0000
0100
0000
,
0010
0000
0001
0000
,
0001
0000
0000
0000
,
1000
0000
0000
0000
,
0001
0000
0010
0000
,
0100
0000
1000
0000
,
0100
0000
0000
0000
,
0010
0000
0000
0000
,
0100
0000
0001
0000
,
1000
0000
0010
0000
,
0010
0000
0000
0000
,
0100
0000
0000
0000
,
0010
0000
1000
0000
,
0001
0000
0100
0000
,
1001
0000
1001
0000
,
1001
0000
1001
0000
,
0110
0000
0110
0000
,
0110
0000
0110
0000
,
1000
0001
1000
0000
,
0001
1000
0001
0000
,
1000
0100
0010
0001
,
0010
0100
1000
0000
,
0001
1000
0001
0000
,
1000
0001
1000
0000
,
0001
0010
0100
1000
,
0100
0010
0001
0000
,
1000
0000
0000
0000
,
0001
0000
0000
0000
,
1000
0000
0100
0000
,
0010
0000
0001
0000
,
0001
0000
0000
0000
,
1000
0000
0000
0000
,
0001
0000
0010
0000
,
0100
0000
1000
0000
,
1001
0000
0110
0000
,
1001
0000
0110
0000
,
1001
0000
0110
0000
,
1001
0000
0110
0000
,
1000
0001
1000
0000
,
0001
1000
0001
0000
,
1000
0100
0010
0001
,
0010
0100
1000
0000
,
0001
1000
0001
0000
,
1000
0001
1000
0000
,
0001
0010
0100
1000
,
0100
0010
0001
0000
,
0001
1000
0001
0000
,
1000
0001
1000
0000
,
0001
0010
0100
1000
,
0100
0010
0001
0000
,
1000
0001
1000
0000
,
0001
1000
0001
0000
,
1000
0100
0010
0001
,
0010
0100
1000
0000
,
2002
0000
0000
0000
,
0000
0000
0000
0000
,
0000
0000
0000
0000
,
0000
0000
0000
0000
,
0000
0000
0000
0000
,
0000
0000
3003
0000
;
