#TITLE:Digi Charat;
#SUBTITLE:- Welcome 2000;
#ARTIST:Yuusuke Sakamoto;
#TITLETRANSLIT:;
#SUBTITLETRANSLIT:;
#ARTISTTRANSLIT:;
#CREDIT:Anime Toshokan;
#BANNER:Digi Charat - Welcome 2000.png;
#BACKGROUND:Digi Charat - Welcome 2000 bg.png;
#LYRICSPATH:;
#CDTITLE:dejiko.png;
#MUSIC:Digi Charat - Welcome 2000.mp3;
#OFFSET:1.714;
#SAMPLESTART:69.400;
#SAMPLELENGTH:16.400;
#SELECTABLE:YES;
#BPMS:0.000=118.000;
#STOPS:;
#BGCHANGES:;
// cache tags:
#FIRSTBEAT:20.000;
#LASTBEAT:176.000;
#SONGFILENAME:Songs/Anime Mix 2/Digi Charat - Welcome 2000/Digi Charat - Welcome 2000.sm;
#HASMUSIC:1;
#HASBANNER:1;
#MUSICLENGTH:91.039;
// end cache tags

//---------------dance-single - BASIC----------------
#NOTES:
     dance-single:
     BASIC:
     Easy:
     4:
     0.281,0.387,0.450,0.000,0.000,138.000,41.000,0.000,0.000,0.000:
0000
0000
0000
0000
,
0000
0000
0000
0000
,
0000
0000
0000
0000
,
0000
0000
0000
0000
,
0000
0000
0000
0000
,
1001
0110
0000
0000
,
1001
0110
0000
0000
,
1000
1000
0001
0000
,
0001
0001
1000
0000
,
0001
1000
0001
0100
,
0010
0010
0010
0010
,
0000
0110
0110
1001
,
0100
0100
0100
0100
,
1001
0110
1001
0001
,
1100
0010
0100
0010
,
1000
0100
0010
0001
,
0010
0100
1000
1000
,
0100
0010
0001
0001
,
0010
0100
1000
0000
,
1001
0000
1001
0000
,
0110
0010
0110
0010
,
0100
0000
0010
0000
,
0101
0000
0011
0000
,
1100
0000
1010
0000
,
0010
0001
0010
0001
,
1000
0010
0010
0100
,
0100
0001
0010
0000
,
1001
0110
0010
0010
,
0010
0010
0010
0010
,
0101
1100
0010
0010
,
1000
0100
0010
0001
,
0010
0100
1000
0100
,
0010
0001
0010
0000
,
0001
0100
1000
1000
,
0100
0010
0100
0110
,
0010
0001
0100
0001
,
1000
0010
1000
0000
,
1001
0110
0010
1001
,
0110
0110
0110
0110
,
0010
0100
0110
1000
,
0001
0101
0010
0100
,
1000
0001
0101
0001
,
1001
0101
0011
0001
,
1001
1100
1000
1100
,
1001
0000
0000
0000
;

//---------------dance-single - ANOTHER----------------
#NOTES:
     dance-single:
     ANOTHER:
     Medium:
     6:
     0.372,0.459,0.659,0.000,0.000,177.000,60.000,0.000,0.000,0.000:
0000
0000
0000
0000
,
0000
0000
0000
0000
,
0000
0000
0000
0000
,
0000
0000
0000
0000
,
0000
0000
0000
0000
,
0010
0010
0001
0000
0000
0000
0000
0000
,
0100
0100
1000
0000
0000
0000
0000
0000
,
1000
0100
1000
0000
0001
0000
0001
0000
,
0100
0000
0100
0000
1001
0000
0000
0001
,
0000
1000
0011
0100
,
1010
0010
0011
1010
,
0010
0110
0110
1001
,
0100
0010
0100
1000
0100
0001
0100
0000
,
0010
0001
0100
0100
1000
0000
0010
0010
,
1100
0011
0100
0010
,
1000
0010
0010
0000
0001
0000
0100
0100
,
0010
0000
0010
0001
0100
0000
0100
0010
,
0100
0010
0010
0000
0011
0010
0001
0000
,
0010
0110
1010
0000
,
0010
0010
1001
0010
,
0110
0010
0110
0011
,
1100
0011
0100
1010
,
0101
0010
0011
1010
,
1100
0000
0100
0000
1010
0000
0000
0100
,
0010
0001
0010
0001
,
1000
0010
0010
0100
,
0100
0001
0010
0000
,
1001
0110
0010
0010
,
0010
0010
0010
0010
,
0101
1100
0110
1010
,
1001
0100
0010
0001
,
0010
0100
1000
0100
,
0010
0010
0001
0000
0010
0010
1000
0000
,
0001
0110
1100
1010
,
0101
1010
0100
0110
,
0010
0010
0011
0000
0100
0100
0001
0000
,
1000
0010
0010
0000
1000
1000
0100
0000
,
1001
0110
0010
1001
,
0110
0110
0110
0110
,
0110
0110
0110
1000
,
0001
0010
0101
0000
0010
0010
0100
0000
,
1000
1000
1001
0000
0101
0000
0101
0000
,
1010
0000
0101
0000
0011
0100
0011
0000
,
1001
0000
0110
0010
0010
0010
0100
0000
,
0101
0000
0000
0000
;

//---------------dance-single - MANIAC----------------
#NOTES:
     dance-single:
     MANIAC:
     Hard:
     7:
     0.455,0.458,0.703,0.000,0.000,226.000,64.000,0.000,0.000,0.000:
0000
0000
0000
0000
,
0000
0000
0000
0000
,
0000
0000
0000
0000
,
0000
0000
0000
0000
,
0000
0000
0000
0000
,
0010
0010
0011
0000
0010
0010
0011
0000
,
0100
0100
1100
0000
0100
0100
1100
0000
,
1000
0100
1000
0000
0001
0010
0001
0000
,
0110
1100
0110
0011
,
1010
1010
0011
0011
,
1010
0010
0011
1100
,
0100
0000
0101
0000
0010
0001
1000
0001
,
0100
0010
0100
1000
0100
0001
1000
0000
,
0010
0010
0100
0100
1000
1000
0001
0001
,
0100
0100
0010
0010
0001
0001
0010
0010
,
1000
1000
0100
0100
0001
0001
0100
0100
,
0010
0010
1000
1000
1000
0001
0001
0001
,
0100
0010
0010
0000
0011
0010
0001
0000
,
0001
0010
0010
0000
1010
0010
1000
0000
,
0010
0010
0010
0000
1001
0010
0010
0000
,
0001
0001
0001
0000
0110
0100
0100
0000
,
1000
0100
0100
0000
0100
0001
0001
0000
,
0001
0010
0010
0000
0010
1000
1000
0000
,
1100
0100
1100
0000
0011
0010
0011
0000
,
0010
0001
0100
0010
1000
0001
0100
0001
,
1000
0010
0010
0100
,
0101
1001
0011
1001
,
1010
1001
1100
1001
,
0010
0010
0010
0000
0010
0010
0010
0000
,
1001
1000
1001
0000
1001
0001
1001
0000
,
0110
0010
0110
0000
0110
0100
0110
0000
,
0010
0000
0100
0000
1000
0000
0100
0010
,
0001
0000
0010
0000
0100
0000
1000
0100
,
0000
0001
0000
0010
0000
0100
1000
0000
,
0101
1010
0101
1100
,
0010
0010
0011
0000
0100
0100
1100
0000
,
1000
0010
0010
0000
0010
0010
0001
0000
,
0011
0100
0010
1010
,
0110
0100
0110
0100
0110
0100
0110
0000
,
0010
0100
0010
0000
1000
0100
1010
0000
,
0001
0010
0101
0000
0110
0010
0110
0000
,
1000
1000
1001
0000
0001
0001
0101
0000
,
1010
0000
0101
0000
0011
0100
0011
0000
,
1100
0010
1100
0000
0100
0100
0100
0100
;

//---------------dance-single - BEGINNER----------------
#NOTES:
     dance-single:
     BEGINNER:
     Beginner:
     2:
     0.162,0.217,0.286,0.000,0.000,77.000,26.000,0.000,0.000,0.000:
0000
0000
0000
0000
,
0000
0000
0000
0000
,
0000
0000
0000
0000
,
0000
0000
0000
0000
,
0000
0000
0000
0000
,
1001
0000
0000
0000
,
1001
0000
0000
0000
,
1000
0000
0001
0000
,
0001
0000
1000
0000
,
0001
0000
0001
0000
,
0010
0000
0010
0000
,
0000
0110
0110
0000
,
0100
0000
0100
0000
,
1001
0000
1001
0000
,
1100
0000
0100
0000
,
1000
0000
0010
0000
,
0010
0000
1000
0000
,
0100
0000
0001
0000
,
0010
0000
1000
0000
,
1001
0000
1001
0000
,
0110
0000
0110
0000
,
0100
0000
0010
0000
,
0101
0000
0011
0000
,
1100
0000
1010
0000
,
0010
0000
0010
0000
,
1000
0000
0010
0000
,
0100
0000
0010
0000
,
1001
0000
0010
0000
,
0010
0000
0010
0000
,
0101
0000
0010
0000
,
1000
0000
0010
0000
,
0010
0000
1000
0000
,
0010
0000
0010
0000
,
0001
0000
1000
0000
,
0100
0000
0100
0000
,
0010
0000
0100
0000
,
1000
0000
1000
0000
,
1001
0000
0010
0000
,
0110
0000
0110
0000
,
0010
0000
0110
0000
,
0001
0000
0010
0000
,
1000
0000
0101
0000
,
1001
0000
0011
0000
,
1001
0000
1000
0000
,
1001
0000
0000
0000
;
