#TITLE:Love Hina;
#SUBTITLE:- Love & Joy;
#ARTIST:林原めぐみ;
#TITLETRANSLIT:;
#SUBTITLETRANSLIT:;
#ARTISTTRANSLIT:Megumi Hayashibara;
#CREDIT:Anime Toshokan;
#BANNER:Love Hina - Love & Joy.png;
#BACKGROUND:Love Hina - Love & Joy bg.png;
#LYRICSPATH:;
#CDTITLE:dejiko.png;
#MUSIC:Love Hina - Love & Joy.mp3;
#OFFSET:0.942;
#SAMPLESTART:23.900;
#SAMPLELENGTH:11.200;
#SELECTABLE:YES;
#BPMS:0.000=86.500,36.000=173.000;
#STOPS:;
#BGCHANGES:;
// cache tags:
#FIRSTBEAT:4.000;
#LASTBEAT:247.500;
#SONGFILENAME:Songs/DDR Anime 2nd Mix/Love Hina - Love & Joy/Love Hina - Love & Joy.sm;
#HASMUSIC:1;
#HASBANNER:1;
#MUSICLENGTH:102.873;
// end cache tags

//---------------dance-single - BASIC----------------
#NOTES:
     dance-single:
     BASIC:
     Easy:
     4:
     0.339,0.331,0.087,0.058,0.000,229.000,9.000,6.000,0.000,0.000:
0000
0000
0000
0000
,
0010
0010
1000
1000
,
0010
0010
0100
0100
,
0001
0001
1000
1000
,
0001
0000
0001
0000
0100
0000
0100
0001
,
0010
0010
0001
0001
,
0010
0010
0100
0100
,
1000
1000
0001
0001
,
1000
0000
1000
0000
0100
0000
2002
3003
,
1000
0100
0010
0000
,
0001
1000
0010
0000
,
0100
0001
1000
0100
,
1000
0001
0010
0000
,
0001
0100
0010
0001
,
0100
1000
0001
1000
,
0010
0001
0100
0010
,
0001
0000
0100
0000
2000
0000
0000
3000
,
1000
0100
0010
0000
,
0100
1000
0010
0000
,
0100
0001
1000
0010
,
0100
0001
0010
0000
,
1000
0100
0010
1000
,
0100
0001
1000
0001
,
0010
1000
0100
0001
,
1000
0100
0010
0000
,
0001
0000
0000
0100
0000
0000
0001
0000
,
1000
0000
0000
0100
0000
1000
0000
1000
,
0000
0001
0000
0001
0000
1000
0000
1000
,
0000
0010
0000
0010
0000
0000
0100
0000
,
0010
0000
0000
1000
0000
0000
0100
0000
,
0010
0000
0000
0001
0000
1000
0000
1000
,
0000
0100
0000
0100
0000
0010
0000
0010
,
0000
0001
0000
0010
0000
0000
1000
0000
,
1000
0010
0100
1000
,
0001
0100
0010
0001
,
0001
0010
0100
0001
,
1000
0100
0010
1000
,
1000
0010
0100
1000
,
0001
0100
0010
0001
,
0010
1000
0100
0001
,
0010
1000
0001
0000
,
1000
1001
0001
0000
,
0001
1001
1000
0000
,
1000
1001
0001
1001
,
0010
0100
0001
0010
,
0100
0000
1000
0000
0020
0000
0000
0030
,
0010
1000
0100
0010
,
1000
0001
0010
0110
,
0001
1000
0100
0001
,
0100
1000
0010
0110
,
0010
0001
1000
0010
,
0001
0100
0010
0100
,
1000
0010
0001
1000
,
0010
0000
0001
0000
0200
0000
0000
0300
,
1000
0100
0010
0001
,
0010
1000
0100
0110
,
0010
0001
1000
0010
,
1000
0001
0100
0110
,
0100
1000
0001
0100
,
1000
0010
0100
0010
,
0001
0100
1000
0001
,
0100
0000
1000
0000
0020
0100
0100
0030
;

//---------------dance-single - ANOTHER----------------
#NOTES:
     dance-single:
     ANOTHER:
     Medium:
     7:
     0.428,0.450,0.087,0.000,0.029,299.000,9.000,0.000,0.000,0.000:
0000
0000
0000
0000
,
1000
0000
0010
0000
0001
0100
1000
0000
,
0010
0000
0100
0000
0001
1000
0100
0000
,
0001
0000
0010
0000
1000
0100
0001
0000
,
0010
0000
0100
0000
1000
0001
0100
0000
,
1000
0001
0010
0000
1000
0010
1000
0000
,
0001
1000
0010
0000
0001
0010
0001
0000
,
1000
0001
0100
0000
1000
0100
1000
0000
,
1000
0000
0010
0000
0100
0000
0000
0000
1001
0000
0010
0000
1000
0100
0100
0100
,
0001
0000
0010
0000
0100
0000
0010
1000
,
0000
0001
0000
1000
0010
0000
0101
0000
,
1000
0000
0100
0000
0010
0000
0100
0001
,
0000
1000
0000
0001
0100
0000
1010
0000
,
1000
0100
0010
0100
,
1000
0001
0010
0001
,
1000
0010
0100
0001
,
1000
0000
0010
0000
0100
0001
0001
0001
,
1000
0000
0001
0000
1000
0000
0001
0010
,
0000
1000
0000
0010
0001
0000
1001
0000
,
0001
0000
1000
0000
0001
0000
1000
0010
,
0000
0001
0000
0010
1000
0000
0110
0000
,
0001
0100
0010
0100
,
0001
1000
0010
1000
,
0001
0010
0100
1000
,
0001
0000
0000
0000
0010
0000
0000
0001
1000
0000
0001
0000
1000
0000
0000
0000
,
0100
0001
0000
0010
0000
0000
0100
0000
,
1000
0100
0000
0010
0000
0001
1000
0010
,
0000
0100
0000
0001
0000
1000
0001
0010
,
0000
0100
0000
1000
0000
0001
0100
0000
,
0010
1000
0000
0001
0000
0000
0100
0000
,
0010
1000
0000
0100
0000
0010
0001
0100
,
0000
0010
0000
0001
0000
0010
1000
0100
,
0000
0010
0000
1000
0000
0001
0100
0000
,
0010
0001
0100
0001
0010
0000
0100
1000
,
0000
1000
0100
0000
0000
0000
0000
0000
,
0010
1000
0100
1000
0010
0000
0100
0001
,
0000
0001
0000
0100
0000
1000
0100
0000
,
0010
0001
0100
0010
0100
0000
1000
0001
,
0000
1000
0100
0000
0000
0000
0000
0000
,
0001
0100
1000
0100
0001
0000
1000
0100
,
0000
0010
0000
0001
0100
0000
0000
1000
,
0100
1000
0100
0010
0001
0000
0000
0010
,
0001
0010
0001
1000
0010
0000
0000
1000
,
0010
1000
0010
0100
0001
0100
0001
1000
,
1000
0000
0000
1000
0000
0000
1000
0000
0001
0000
0000
0001
0000
0000
0001
0000
,
1000
0000
0000
0000
0000
0100
0100
0100
,
1000
0000
0001
0000
0010
0000
0100
1000
,
0000
0010
0000
1000
0100
0000
0110
0000
,
0010
0000
0001
0000
0100
0000
0010
1000
,
0000
0001
0000
1000
0010
0000
0101
0000
,
1000
0010
0100
0010
,
0001
0100
0010
0100
,
1000
0010
0100
0001
,
0010
0000
0100
0000
1000
0100
0100
0100
,
0010
0000
1000
0000
0100
0000
0001
0100
,
0000
1000
0000
0100
0001
0000
1100
0000
,
1000
0000
0100
0000
0001
0000
0010
1000
,
0000
0100
0000
1000
0010
0000
1100
0000
,
0001
0100
0010
1000
,
0100
0010
0010
0100
,
1000
0010
0100
0001
,
0010
0000
0000
0000
0100
0000
0000
0001
1000
0000
0001
0000
1000
0000
0000
0000
;

//---------------dance-single - MANIAC----------------
#NOTES:
     dance-single:
     MANIAC:
     Hard:
     9:
     0.640,0.600,0.146,0.039,0.019,442.000,15.000,4.000,0.000,0.000:
0000
0000
0000
0000
,
1001
0100
0010
1000
0001
0100
0010
1000
,
1001
0100
0010
0001
1000
0100
0010
0001
,
0110
0010
0100
1000
0001
0100
0010
1000
,
0110
0010
0100
0001
1000
0100
0010
0001
,
0101
0100
0010
1000
0001
0010
0001
1000
,
1100
0100
0010
0001
1000
0010
1000
0001
,
1010
0010
0100
0001
1000
0010
1000
0100
,
0010
0000
0001
0000
0010
0000
0100
0000
1000
0000
0010
0000
1000
0100
0100
0100
,
0010
0000
0001
0000
0100
0000
0010
0001
,
0100
0010
1000
0100
0010
0001
1001
0000
,
1000
0100
1000
0010
0100
0001
0010
0001
,
1000
0100
0010
0001
0010
1000
1010
0000
,
1000
0010
0100
1000
0001
0100
0010
0001
,
0001
0010
0100
0001
1000
0100
0010
1000
,
1000
0010
0100
1000
0001
0100
0010
0001
,
0001
0010
0100
0001
1000
0100
0100
0100
,
0010
0001
1000
0010
0100
0001
1000
0100
,
0010
0001
1000
0010
0100
0001
1001
0000
,
1000
0100
0010
0001
1000
0010
0001
0010
,
1000
0100
0010
0001
1000
0010
0011
0000
,
0001
0010
0100
0001
1000
0100
0010
1000
,
1000
0010
0100
1000
0001
0100
0010
0001
,
0001
0010
0100
0001
1000
0100
0010
1000
,
1000
0010
0100
1000
0010
0000
0000
0000
,
0010
0100
0000
0001
0000
1000
0100
0010
,
0100
0010
0000
0001
0000
1000
0100
0001
,
0000
0100
0000
0010
0000
0001
0100
1000
,
0000
0010
0000
0100
0000
1000
0100
0010
,
0001
0100
0000
1000
0000
0010
1000
0100
,
0001
0100
0000
0010
0000
0001
0100
1000
,
0000
0100
0000
0010
0000
1000
0001
0100
,
0000
0010
0000
0001
0000
0001
1000
0100
,
1000
0100
0010
0001
1000
0100
0001
0100
,
1000
0100
0010
0001
1000
0100
0001
0000
,
0010
0001
0100
1000
0100
0001
0010
1000
,
0010
0001
0100
1000
0100
0001
0010
0000
,
1000
0010
1000
0100
0010
1000
0001
0100
,
1000
0010
1000
0100
0010
1000
0001
0000
,
0010
0001
1000
0100
0001
0100
0010
1000
,
0010
0001
1000
0100
0010
0000
0000
1000
,
0100
0010
0001
0200
0020
0000
0330
0100
,
0010
1000
0001
0020
0200
0000
0330
0010
,
0001
1000
0001
0010
0100
1000
0100
0010
,
0001
0000
0000
0100
0000
0000
0010
0000
1000
0000
0000
0001
0000
0000
0010
0000
,
0100
0000
0001
0000
0001
0010
0010
0010
,
0100
1000
0010
0100
0001
0010
0001
1000
,
0100
1000
0010
0100
0001
0010
0110
0000
,
0100
1000
0001
0010
0100
0010
1000
0010
,
0100
1000
0001
0010
0100
0010
1010
0000
,
1000
0010
0100
1000
0001
0100
0010
0001
,
0001
0010
0100
0001
1000
0100
0010
1000
,
1000
0010
0100
1000
0001
0100
0010
0001
,
0001
0010
0100
0001
1000
0010
0010
0010
,
0100
0001
0010
0100
1000
0010
1000
0010
,
0100
0001
0010
0100
1000
0010
0101
0000
,
1000
0100
0010
0001
0100
0010
0100
0010
,
1000
0100
0010
0001
0100
0010
1100
0000
,
1000
0001
0010
0100
0001
1000
0100
0010
,
1000
0001
0100
0010
0001
1000
0100
0010
,
1000
0010
0100
1000
0001
0100
0010
0001
,
0010
1000
0100
0001
1000
0010
0001
0000
;

//---------------dance-single - SMANIAC----------------
#NOTES:
     dance-single:
     SMANIAC:
     Challenge:
     10:
     0.744,0.840,0.107,0.185,0.680,506.000,11.000,19.000,0.000,0.000:
0000
0000
0000
0000
,
0002
1000
0100
1000
0023
0100
0001
0100
,
2030
3020
0032
0203
0320
1000
0100
0001
,
2030
0001
0100
0001
3020
0100
1000
0100
,
0032
0000
2003
0000
3000
0000
0002
0203
0010
0000
1000
0000
0010
0000
0001
0000
,
0302
0010
0100
1000
0023
0001
0100
1000
,
0032
0100
0010
1000
0203
1000
0010
0001
,
1000
0300
0010
0001
1000
0100
0010
0001
1000
0200
0010
0001
0010
2300
0010
0100
,
3001
1000
0010
0100
0001
1000
0010
1000
0100
0010
0001
0100
0010
1000
1000
1000
,
0001
0100
0000
0000
0010
1000
0000
0000
0100
0010
0000
0000
0001
0100
0001
0000
,
0000
0000
0010
0000
0000
0000
0100
1000
0100
0000
0000
0000
1001
0000
0001
0000
,
1000
0100
0000
0000
0010
0001
0000
0000
0100
0010
0000
0000
1000
0010
1000
0000
,
0000
0000
0001
0000
0000
0000
1000
0100
1000
0000
0000
0000
0110
0000
0010
0000
,
0001
0010
0001
0010
0100
1000
0010
1000
,
0001
0100
0001
0100
1000
0100
0010
1000
,
0010
0001
0010
0001
0010
1000
0100
0001
,
0100
1000
0010
1000
0010
0100
0100
0100
,
0001
0100
0000
0000
0010
1000
0000
0000
0100
0010
0000
0000
0001
1000
0001
0000
,
0000
0000
0100
0000
0000
0000
0010
1000
0010
0000
0000
0000
1001
0000
0100
0000
,
0010
1000
0000
0000
0001
0010
0000
0000
0100
1000
0000
0000
0010
0100
0010
0000
,
0000
0000
1000
0000
0000
0000
0100
0010
0100
0000
0000
0000
1010
0000
0010
0000
,
0001
0100
0001
0100
0001
0010
0100
0001
,
0100
1000
0010
0100
1000
0100
1000
0100
,
0010
0000
0000
1000
0000
0000
0100
0000
0010
0000
0000
1000
0000
0000
0010
0000
,
1000
0000
0000
0010
0000
0000
0000
0100
0001
0000
0010
0000
0001
0000
0000
0000
,
1000
0001
1000
0000
0001
1000
0001
0000
0100
0001
0100
0000
0001
0100
0001
0000
,
1000
0001
1000
0000
0001
1000
0001
0000
1000
0010
1000
0000
0010
1000
0010
0000
,
1000
0100
1000
0000
0001
0010
0001
0000
1000
0100
1000
0000
0001
0010
0001
0000
,
1000
0010
1000
0000
0001
0100
0001
0000
1000
0010
1000
0000
0001
0100
0001
0000
,
1000
0010
1000
0000
0001
0010
0001
0000
1000
0010
1000
0000
0001
0010
0001
0000
,
1000
0100
1000
0000
0001
0100
0001
0000
1000
0100
1000
0000
0001
0100
0001
0000
,
1000
0100
0001
0000
0001
0100
1000
0000
0100
1000
0010
0000
0010
1000
0100
0000
,
0100
1000
0001
0000
0100
0001
1000
0000
0010
1000
0100
0000
0010
0001
0100
0000
,
1000
0000
0001
0000
0010
0000
0100
0000
1000
0000
0001
0000
,
0100
0000
0001
0000
1000
0000
0100
0000
0010
0000
0001
0000
,
1000
0000
0010
0000
0100
0000
0001
0000
0010
0000
0100
0000
,
1000
0000
0010
0000
0100
0000
0001
0000
0010
0000
0000
0100
,
1000
0000
0001
0000
0100
0000
0010
0000
1000
0000
0001
0000
,
0010
0000
0001
0000
1000
0000
0100
0000
1000
0000
0001
0000
,
0010
0000
0100
0000
1000
0000
0010
0000
0001
0000
0010
0000
,
0100
0000
0001
0000
1000
0000
0100
0000
0010
0000
0001
0000
,
1001
0000
0000
0000
1000
0000
0000
0000
0001
0000
0000
1000
0000
0000
0001
0000
0100
0000
0001
0000
0010
0100
0000
0000
,
1000
0000
0000
0000
0001
0000
0000
0000
0010
0000
0000
0100
0000
0000
0001
0000
1000
0000
0100
0000
0010
0001
0000
0000
,
0100
0000
0000
0000
0010
0000
0000
0000
1000
0000
0000
0100
0000
0000
0010
0000
0001
0000
1000
0000
0010
0100
0000
0000
,
1000
0000
0000
0000
0001
0000
0000
0000
1001
0000
0000
1001
0000
0000
0000
0000
0100
0000
0000
0000
0010
0000
0000
0000
,
0100
0000
0001
0000
0010
0100
0100
0100
,
1000
0100
0000
0000
0010
0001
0000
0000
1000
0010
0000
0000
0100
0000
0001
0000
,
0010
0001
1000
0100
1000
0010
0110
0100
,
0010
1000
0000
0000
0100
0010
0000
0000
0001
1000
0000
0000
0100
0000
0010
0000
,
0001
0010
0100
1000
0010
0100
0110
0100
,
0001
1000
0100
0001
0100
1000
0001
0100
,
1000
0100
0010
1000
0100
0001
0100
0001
,
0100
0100
0010
0001
0100
1000
0100
1000
,
0100
0010
1000
0001
0010
0001
0001
0001
,
0010
0100
0000
0000
1000
0001
0000
0000
0100
0010
0000
0000
1000
0000
0001
0000
,
0100
0001
0010
0100
1000
0010
0101
0100
,
0010
1000
0100
0001
0100
1000
0010
0100
,
0010
1000
0001
0010
0100
1000
0011
0001
,
1000
0010
0001
1000
0100
0001
1000
0100
,
0001
1000
0010
0001
0100
0010
1000
0100
,
0010
0000
0000
0001
0000
0000
1000
0000
0010
0000
0000
0100
0000
0000
0001
0000
,
0010
0000
0000
0100
0000
0000
0000
0010
1000
0000
0001
0000
0100
0000
0000
0000
;

//---------------dance-single - BEGINNER----------------
#NOTES:
     dance-single:
     BEGINNER:
     Beginner:
     3:
     0.176,0.180,0.019,0.039,0.000,121.000,2.000,4.000,0.000,0.000:
0000
0000
0000
0000
,
0010
0000
1000
0000
,
0010
0000
0100
0000
,
0001
0000
1000
0000
,
0001
0000
0100
0000
,
0010
0000
0001
0000
,
0010
0000
0100
0000
,
1000
0000
0001
0000
,
1000
0000
0100
0000
,
1000
0000
0010
0000
,
0001
0000
0010
0000
,
0100
0000
1000
0000
,
1000
0000
0010
0000
,
0001
0000
0010
0000
,
0100
0000
0001
0000
,
0010
0000
0100
0000
,
0001
0000
0000
0000
2000
0000
0000
3000
,
1000
0000
0010
0000
,
0100
0000
0010
0000
,
0100
0000
1000
0000
,
0100
0000
0010
0000
,
1000
0000
0010
0000
,
0100
0000
1000
0000
,
0010
0000
0100
0000
,
1000
0000
0010
0000
,
0001
0000
0000
0001
,
1000
0000
0000
0000
,
0110
0000
0000
0000
,
1001
0000
0000
0100
,
0010
0000
0000
0100
,
0010
0000
0000
1000
,
0001
0000
0000
1000
,
0001
0000
0000
1000
,
1000
0000
0100
0000
,
0001
0000
0010
0000
,
0001
0000
0100
0000
,
1000
0000
0010
0000
,
1000
0000
0100
0000
,
0001
0000
0010
0000
,
0010
0000
0100
0000
,
0010
0000
0001
0000
,
1000
0000
0001
0000
,
0001
0000
1000
0000
,
1000
0000
0001
0000
,
0010
0000
0001
0000
,
0100
0000
0000
0000
0020
0000
0000
0030
,
0010
0000
0100
0000
,
1000
0000
0010
0000
,
0001
0000
0100
0000
,
0100
0000
0010
0000
,
0010
0000
1000
0000
,
0001
0000
0010
0000
,
1000
0000
0001
0000
,
0010
0000
0000
0000
0200
0000
0000
0300
,
1000
0000
0010
0000
,
0010
0000
0100
0000
,
0010
0000
1000
0000
,
1000
0000
0100
0000
,
0100
0000
0001
0000
,
1000
0000
0100
0000
,
0001
0000
1000
0000
,
0100
0000
0000
0000
0020
0000
0100
0030
;
