#TITLE:Dance Factory Megamix;
#SUBTITLE:;
#ARTIST:Dj Louie Devito;
#TITLETRANSLIT:;
#SUBTITLETRANSLIT:;
#ARTISTTRANSLIT:;
#CREDIT:;
#BANNER:turnbn.png;
#BACKGROUND:turnbg.png;
#LYRICSPATH:;
#CDTITLE:;
#MUSIC:Louie DeVito - Dance Factory Super Megamix.mp3;
#OFFSET:0.030;
#SAMPLESTART:42.397;
#SAMPLELENGTH:12.000;
#SELECTABLE:YES;
#BPMS:0.000=141.520,142.125=90.000,145.000=140.520;
#STOPS:;
#BGCHANGES:0.000=Decks_Flames.jpg=1.000=0=0=1,
99999=-nosongbg-=1.000=0=0=0 // don't automatically add -songbackground-
;
// cache tags:
#FIRSTBEAT:0.000;
#LASTBEAT:180.000;
#SONGFILENAME:Songs/StepMix 2/Dance Factory Super Megamix/Louie DeVito - Dance Factory Super Megamix.sm;
#HASMUSIC:1;
#HASBANNER:1;
#MUSICLENGTH:76.800;
// end cache tags

//---------------dance-single - ----------------
#NOTES:
     dance-single:
     :
     Hard:
     8:
     0.400,0.614,0.169,0.195,0.599,185.000,13.000,15.000,0.000,1.000:
2222
0000
3333
1000
,
0000
0000
0000
0000
,
0000
0000
0000
0000
,
0000
0000
0000
0000
,
0000
0000
0000
0000
0000
1000
0000
0000
,
0000
0000
0001
0100
0010
0001
0001
1000
,
0000
0000
0000
0000
1000
0002
0000
0000
,
0000
0000
0000
0003
0000
0000
0000
0000
,
0000
0000
0000
0000
0000
1000
0000
0000
,
0000
0000
0001
0010
0001
1000
0200
0000
,
0000
0300
0000
0000
1000
0001
0000
0000
,
0000
0000
0000
0000
0000
0001
1000
0000
,
0001
0000
1000
0000
0000
0000
1000
0001
1000
0001
1001
0000
0000
0000
1000
0000
,
0100
0000
0000
0002
0000
0000
0000
0000
0000
0000
0000
0000
0000
0003
0000
0000
,
0000
0000
1000
0000
0000
1000
0000
0000
1000
0000
0000
1000
,
0000
0000
1000
0000
0000
1000
0000
0000
1000
0000
0000
1001
,
0000
0000
0001
0000
0000
0001
0000
0000
0001
0000
0000
0011
,
0000
0000
0010
0000
0000
0010
0000
0000
0010
0000
0000
0110
,
0000
0000
0100
0000
0000
0100
0000
0000
0100
0000
0000
0100
,
0000
0000
0100
0000
0000
0100
0000
0000
0110
0000
0000
0010
,
0000
0000
0000
0000
1100
0000
0000
0000
0000
0000
0000
1000
0001
1000
0001
1001
0000
0000
0000
0000
0000
0000
0000
0000
,
1000
0100
0001
0001
0000
0200
0000
0000
,
0300
0000
0000
1000
0100
0010
0001
0001
,
0100
0000
0001
0000
2000
0000
0000
0000
0002
0000
3000
0200
0003
0000
0000
0300
,
0000
0000
0000
0000
0000
1000
0100
0010
,
1000
0000
0000
0010
0000
0000
0100
0000
0000
1000
0000
0000
0000
0000
2000
0000
0000
0000
0000
0000
0000
0000
3000
0000
,
0000
0000
0000
1000
0001
1000
2000
0000
,
0000
0000
0000
3000
0000
0000
0000
0000
0000
0000
0001
0000
0000
0000
0000
0000
1000
0000
0000
0000
0000
0000
0001
0000
,
0000
0000
1000
0000
0000
0001
0000
0000
0100
0000
0000
0010
,
0000
0000
0100
0000
0000
0010
0000
0000
1000
0000
0000
0100
,
0000
0000
1000
0000
0000
0100
0000
0000
0001
0000
0000
0010
,
0000
0000
0001
0000
0000
0010
0000
0000
1000
0000
0000
0100
,
0000
0000
0010
0000
0000
0001
0000
0000
0001
0000
0000
0010
,
0000
0000
0100
0000
0000
1000
0000
0000
1000
0000
0000
0100
,
0000
0000
0010
0000
0000
0001
0000
0000
0010
0000
0000
1000
,
0000
0000
0000
0000
0000
0000
0000
0000
1000
0000
0000
0000
0000
0000
0000
0000
0000
0000
0000
0000
0000
0000
0000
0000
0010
0000
0000
0000
0000
0000
1000
0000
0000
0000
0000
0000
0010
0000
0000
0001
0000
0000
0010
0000
0000
0001
0000
0000
,
0000
0000
0000
0000
1000
0001
0000
0000
1000
0001
0000
0000
1000
0001
0000
0000
,
0001
1000
0000
0000
0001
1000
0000
0000
0100
0010
0000
0000
0100
0010
0000
0000
,
1000
0100
0000
0000
0010
0001
0000
0000
1000
0100
0000
0000
0100
1000
0000
0000
,
0001
0010
0000
0000
0100
0010
0000
0000
0110
0110
0000
0000
1100
1100
0000
0000
,
0001
0010
0000
0000
1000
0100
0000
0000
0010
0001
0000
0000
0001
0010
0000
0000
,
0100
1000
0000
0000
0100
1000
0000
0001
0010
0000
0000
0000
0010
0100
0000
0000
,
1000
0100
0000
0000
0010
0001
0000
0000
1000
0000
1000
0000
1000
0000
0000
0000
,
0000
0000
0000
1000
1000
1000
0000
0000
,
1000
0001
2002
0000
0000
0000
0000
3003
;

//---------------dance-single - ----------------
#NOTES:
     dance-single:
     :
     Beginner:
     2:
     0.208,0.263,0.065,0.052,0.078,103.000,5.000,4.000,0.000,0.000:
0100
0000
0000
1000
,
0000
0000
0000
1000
,
0000
0000
0000
1000
,
0000
0000
0000
1000
,
0000
0000
0000
0000
0000
1000
0000
0000
,
0000
0001
0001
0001
,
0000
0000
0100
0010
,
0000
0000
1000
1000
,
1000
0000
0000
1000
,
0000
1000
1000
1000
,
0000
0000
0000
0000
,
1001
0000
0000
1000
,
1000
1000
0000
0000
,
0001
0000
0000
0010
0000
0000
0000
0000
0000
0000
0000
1000
,
0000
0000
0000
0000
0000
0000
0000
0000
0000
0000
0000
1000
,
0000
0000
0000
0000
0000
0000
0000
0000
0000
0000
0000
1000
,
0000
0000
0000
0000
0000
0000
0000
0000
0000
0000
0000
0001
,
0000
0000
0000
0000
0000
0000
0000
0000
0000
0000
0000
0001
,
0000
0000
0000
0000
0000
0000
0000
0000
0000
0000
0000
1000
,
0000
0000
1000
0000
0000
1000
0000
0000
0000
0000
0000
0001
,
0000
0000
0000
0000
0000
0000
0000
0000
0001
0000
0000
0000
0000
0000
0000
0000
0000
0000
0000
0000
0001
0000
0000
0000
0000
0000
0000
0000
0000
0000
0000
0000
0000
1001
0000
0000
0000
0000
0000
0000
0000
0000
0000
0000
0000
0000
0000
0000
,
0000
0000
0000
0000
0000
1000
0000
0000
,
0000
0000
0000
0000
,
1000
0000
0000
1000
0000
1000
0000
1000
,
0000
0001
0000
0001
0000
0001
0000
0000
,
0000
0000
0000
0000
0000
0100
0000
0000
,
0000
0000
2000
3002
,
0003
0000
0000
0000
0000
1001
0000
0000
,
0000
1001
0000
0000
0000
0100
0000
0000
,
0000
0100
0000
0000
0000
0100
0000
0000
,
0000
0001
0000
0001
0000
0001
0000
0000
,
0000
0000
0000
1000
0000
1000
0000
1000
,
0000
0000
1000
1000
0000
0000
0000
0000
,
0001
0001
0000
0000
1000
1000
0000
0000
,
0010
0010
0000
0000
0000
1000
0000
1000
,
0000
1000
0000
0000
1000
0000
1000
0000
,
1000
0000
1000
0000
0001
1000
0000
0000
,
0000
0000
0001
1000
0000
0000
0000
0000
,
1000
0001
0000
0000
1000
0001
0000
0000
,
1000
0001
0000
0000
1000
0001
0000
0000
,
0100
0010
0000
0000
0010
0100
0000
0000
,
0100
1000
0000
0000
0010
0001
0000
0000
,
0100
1000
0000
0000
0010
0001
0000
0000
,
1000
0100
0000
0000
0100
0000
0100
0000
,
0100
0000
2002
0000
0000
0000
0000
3003
;

//---------------dance-single - ----------------
#NOTES:
     dance-single:
     :
     Easy:
     4:
     0.257,0.293,0.130,0.104,0.104,120.000,10.000,8.000,0.000,0.000:
0200
0000
0000
0000
0000
0300
1000
0000
,
0000
0000
0000
0000
,
1000
0001
1000
0001
0000
0000
0000
0000
,
0000
0000
1000
0001
1000
0001
0000
0000
,
0000
0000
0000
0000
0000
1001
0000
0000
,
0000
0000
1000
0100
,
1000
0000
0000
0000
1000
2000
0000
3000
,
0000
0000
0000
0000
,
0000
0000
0000
0000
0000
1001
0000
0000
,
0000
1000
1000
1000
,
0000
0000
0000
0000
0000
0100
0200
0000
0000
0300
0000
0000
,
0000
0000
0000
1001
,
0000
0000
1000
0001
1000
0000
1001
0000
,
1001
0000
0000
1001
0000
0000
0000
0000
0100
0000
0000
0000
,
0000
0000
0100
0000
0000
0000
0000
0000
0100
0000
0000
0000
,
0000
0000
0100
0000
0000
0000
0000
0000
0100
0000
0000
0000
,
0000
0000
0001
0000
0000
0000
0000
0000
0001
0000
0000
0000
,
0000
0000
0001
0000
0000
0000
0000
0000
1000
0000
0000
0000
,
0000
0000
1000
0000
0000
0000
0000
0000
1000
0000
0000
0000
,
0000
0000
1000
0000
0000
0000
0000
0000
1000
0000
0000
0000
,
0000
0000
0110
0000
0000
0000
0000
0000
1100
0000
0000
0000
,
1000
1000
1000
1000
,
0000
0000
1000
0001
,
0010
0000
1000
0000
0100
0010
0002
0000
,
0000
0003
0000
1000
,
0001
1000
0000
0000
,
0000
0000
0010
0100
0220
0000
0000
0000
,
0330
0000
1000
1000
,
1000
0001
0001
0001
,
0100
0100
0010
0010
,
0010
1000
1000
1000
,
0010
0010
0010
0001
,
0001
0001
1000
0001
,
1000
0001
1000
0001
,
1000
0100
1000
0001
,
0010
0001
1000
1000
,
1000
1000
1000
0100
,
0000
0001
0010
0000
,
1000
0100
0000
0010
,
0100
0000
0001
0010
,
0000
1000
0100
0000
,
0001
0010
0000
1000
,
0100
0000
0100
0010
,
0000
1000
1000
0001
,
1000
2002
0000
0000
,
3003
0000
0000
0000
;

//---------------dance-single - ----------------
#NOTES:
     dance-single:
     :
     Medium:
     6:
     0.316,0.351,0.065,0.130,0.124,155.000,5.000,10.000,0.000,0.000:
2002
0000
3003
1000
,
0000
1000
1000
1000
0000
0000
0000
0001
,
0001
0001
0000
0000
0000
0100
0100
0100
,
0000
0000
0000
0010
0010
0010
0000
0000
,
1000
1000
1000
0000
0000
0100
0100
0100
,
0000
1000
0100
0010
0000
0000
1000
0100
,
0010
0000
0000
0000
0001
0010
0100
0000
,
0000
0100
0010
0001
0000
0000
0100
0010
,
0100
0000
0000
0000
1000
0100
1000
0000
,
0000
0001
0010
0001
0000
0000
0010
0100
,
0001
0000
0000
0000
1000
0000
0010
0100
,
0000
0000
0000
0100
1000
0100
0000
0000
,
0000
0100
0100
0100
0000
0000
0000
1000
,
0001
0000
0000
1000
0000
0000
0000
0000
0000
0000
0000
0000
0000
0000
0000
0000
1000
0000
0000
0000
0000
0000
1000
0000
,
0000
0000
0000
0000
0000
1000
0000
0000
1000
0000
0000
0000
,
0000
0000
0001
0000
0000
0001
0000
0000
0000
0000
0000
0100
,
0000
0000
0100
0000
0000
0000
0000
0000
0010
0000
0000
0010
,
0000
0000
0000
0000
0000
1000
0000
0000
1000
0000
0000
0000
,
0000
0000
0001
0000
0000
0001
0000
0000
0000
0000
0000
1000
,
0000
0000
0100
0000
0000
0000
0000
0000
0001
0000
0000
0010
,
0000
0000
1000
0000
0000
0000
2002
0000
0000
0000
0000
0000
,
0000
0000
0000
0000
0000
3003
0000
0000
,
0100
0100
0100
0000
,
1000
1000
1000
0000
,
0001
0001
0001
0000
,
1000
1000
1000
0000
,
0001
0000
0001
0000
0000
0220
0000
0000
,
0000
0330
0000
0000
1000
1000
1000
0000
,
0000
1000
1000
1000
0000
0000
0000
1000
,
1000
1000
0000
0000
0001
0001
0001
0000
,
0000
0000
0001
0001
0001
0000
0000
0100
,
0100
0100
0000
0000
0000
0010
0100
0010
,
0000
0000
0000
0000
0000
1000
0010
1000
,
0000
0000
0000
0000
0001
0010
0001
0000
,
0000
1000
1000
1000
,
0000
0000
2002
0000
,
0000
0000
3003
0000
1000
0001
0000
0000
,
1000
0001
0000
0000
0001
1000
0000
0000
,
0001
1000
0000
0000
0010
0100
0000
0000
,
0010
0100
0000
0000
0100
0010
0000
0000
,
0100
0010
0000
0000
1000
0100
0000
0000
,
0001
0010
0000
0000
0100
0001
0000
0000
,
1000
0010
0000
0000
0001
0100
0000
0000
,
0100
0010
0000
1000
0100
0000
0000
0010
,
0100
0000
2002
0000
0000
0000
0000
3003
;
