#TITLE:The Boys Are back In Town;
#SUBTITLE:;
#ARTIST:Thin Lizzy;
#TITLETRANSLIT:;
#SUBTITLETRANSLIT:;
#ARTISTTRANSLIT:;
#CREDIT:;
#BANNER:The Boys Are back In Town.png;
#BACKGROUND:The Boys Are back In Town-bg.png;
#LYRICSPATH:The Boys Are back In Town.lrc;
#CDTITLE:./CDTITLES/DANCING STAGE FEVER.PNG;
#MUSIC:The Boys Are back In Town.mp3;
#OFFSET:-1.947;
#SAMPLESTART:36.180;
#SAMPLELENGTH:12.000;
#SELECTABLE:YES;
#DISPLAYBPM:162.000;
#BPMS:0.000=159.700,16.000=163.100,28.000=161.100,92.000=153.500,96.000=164.600,102.000=161.300,110.000=160.300,118.000=164.700,124.000=161.200,156.000=161.000,164.000=165.000,172.000=167.500,180.000=169.000,188.000=166.500,196.000=165.600,204.000=167.000,212.000=165.500;
#STOPS:;
#BGCHANGES:;
// cache tags:
#FIRSTBEAT:4.000;
#LASTBEAT:235.000;
#SONGFILENAME:Songs/Dancing Stage/The Boys Are back In Town/The Boys Are back In Town.sm;
#HASMUSIC:1;
#HASBANNER:1;
#MUSICLENGTH:91.141;
// end cache tags

//---------------dance-single - ----------------
#NOTES:
     dance-single:
     :
     Beginner:
     1:
     0.199,0.226,0.022,0.000,0.000,125.000,2.000,0.000,0.000,0.000:  // measure 1
0000
0000
0000
0000
,  // measure 2
1000
0000
0000
0000
,  // measure 3
0010
0000
0000
0000
,  // measure 4
0001
0000
1000
0000
,  // measure 5
0001
0000
0000
0000
,  // measure 6
0010
0000
0000
0000
,  // measure 7
1000
0000
0000
0000
,  // measure 8
0010
0000
0001
0000
,  // measure 9
0100
0000
1000
0000
,  // measure 10
1000
0000
1000
0000
,  // measure 11
0100
0100
0100
0000
,  // measure 12
0001
0000
0001
0000
,  // measure 13
0100
0000
0000
0000
,  // measure 14
1000
0000
1000
0000
,  // measure 15
0010
0010
0010
0000
,  // measure 16
0010
0000
1000
0000
,  // measure 17
0100
0000
0001
0000
,  // measure 18
0001
0000
0001
0000
,  // measure 19
0100
0100
0100
0000
,  // measure 20
1000
0000
1000
0000
,  // measure 21
0100
0000
0000
0000
,  // measure 22
0001
0000
0001
0000
,  // measure 23
0010
0010
0010
0000
,  // measure 24
0001
0001
0001
0000
,  // measure 25
1000
1000
1000
0000
,  // measure 26
0001
0000
0001
0000
,  // measure 27
0100
0000
0000
0000
,  // measure 28
1000
1000
1000
0000
,  // measure 29
0000
0100
0000
0100
,  // measure 30
0000
0001
0001
0001
,  // measure 31
0000
0000
0000
0000
,  // measure 32
1000
1000
1000
0000
,  // measure 33
0001
0001
0001
0000
,  // measure 34
1000
1000
1000
0000
,  // measure 35
0001
0001
0001
0000
,  // measure 36
1000
0000
0001
0000
,  // measure 37
1000
0000
0001
0000
,  // measure 38
0010
0000
0001
0000
,  // measure 39
0001
0001
0001
0000
,  // measure 40
1000
0000
0001
0000
,  // measure 41
1000
0000
0001
0000
,  // measure 42
0010
0000
1000
0000
,  // measure 43
1000
1000
1000
1000
,  // measure 44
1000
0000
0001
0000
,  // measure 45
1000
0000
0001
0000
,  // measure 46
0010
0000
0001
0000
,  // measure 47
0001
0001
0001
0000
,  // measure 48
1000
0000
0001
0000
,  // measure 49
1000
0000
0001
0000
,  // measure 50
0010
0000
1000
0000
,  // measure 51
1001
0000
1001
0000
,  // measure 52
1000
0000
0001
0000
,  // measure 53
1000
0000
0001
0000
,  // measure 54
0010
0000
0001
0000
,  // measure 55
0001
0001
0001
0000
,  // measure 56
1000
0000
0001
0000
,  // measure 57
1000
0000
0001
0000
,  // measure 58
0010
0000
1000
0000
,  // measure 59
1000
1000
1000
1000
;

//---------------dance-single - ----------------
#NOTES:
     dance-single:
     :
     Easy:
     3:
     0.245,0.318,0.077,0.340,0.000,118.000,7.000,31.000,0.000,0.000:  // measure 1
0000
0000
0000
0000
,  // measure 2
0000
0000
0000
0000
,  // measure 3
0000
0000
0000
0000
,  // measure 4
0200
0300
0000
0000
,  // measure 5
0001
0000
1000
0000
,  // measure 6
0020
0030
0000
0000
,  // measure 7
0200
0300
0000
0000
,  // measure 8
1000
0000
1000
0000
,  // measure 9
0001
0000
0001
0000
,  // measure 10
0010
0000
1000
0000
,  // measure 11
0010
0000
0001
0000
,  // measure 12
0100
0000
0000
0000
,  // measure 13
0100
0000
0001
0000
,  // measure 14
1000
0000
0000
0000
,  // measure 15
0001
0000
1000
0100
,  // measure 16
0001
0000
0001
0100
,  // measure 17
1000
0000
1000
0000
,  // measure 18
0010
0000
0001
0000
,  // measure 19
0020
0030
0000
0010
,  // measure 20
0100
0000
0000
0000
,  // measure 21
0100
0000
1000
0000
,  // measure 22
0001
0000
1000
0001
,  // measure 23
1000
0000
0001
0100
,  // measure 24
2000
3000
0001
0100
,  // measure 25
0002
0003
1000
0100
,  // measure 26
0010
0000
0010
0000
,  // measure 27
0100
0000
0100
0000
,  // measure 28
2000
3000
0001
0100
,  // measure 29
0010
0000
0000
0000
,  // measure 30
0002
0003
1000
0100
,  // measure 31
0000
0000
0000
0000
,  // measure 32
2000
3000
0001
0100
,  // measure 33
0002
0003
1000
0100
,  // measure 34
2000
3000
0001
0100
,  // measure 35
0002
0003
1000
0100
,  // measure 36
0002
0003
0100
0000
,  // measure 37
0002
0003
0100
0000
,  // measure 38
2000
3000
0100
0000
,  // measure 39
0001
0000
0001
0100
,  // measure 40
2000
3000
0100
0000
,  // measure 41
2000
3000
0100
0000
,  // measure 42
0002
0003
0100
0000
,  // measure 43
0001
0001
0001
0100
,  // measure 44
2000
3000
1001
0000
,  // measure 45
0002
0003
1001
0000
,  // measure 46
0010
0000
0100
0000
,  // measure 47
0001
0000
0010
0100
,  // measure 48
0220
0000
0330
0000
,  // measure 49
2002
0000
3003
0000
,  // measure 50
1000
0100
0100
0000
,  // measure 51
0001
1000
0001
1000
,  // measure 52
2002
0000
3003
0000
,  // measure 53
0220
0000
0330
0000
,  // measure 54
0001
0000
1000
0000
,  // measure 55
0001
0000
0001
0100
,  // measure 56
0002
0003
0100
0000
,  // measure 57
0002
0003
0100
0000
,  // measure 58
2000
3000
0100
0000
,  // measure 59
0110
0000
0000
0000
;

//---------------dance-single - ----------------
#NOTES:
     dance-single:
     :
     Medium:
     5:
     0.408,0.419,0.252,0.461,0.027,195.000,23.000,42.000,0.000,0.000:  // measure 1
0000
0000
0000
0000
,  // measure 2
0100
0000
0000
0000
,  // measure 3
0010
0000
0000
0000
,  // measure 4
2000
3000
0100
0001
,  // measure 5
0001
0000
0100
0001
0000
0000
1000
0000
0000
0100
0000
0000
,  // measure 6
0200
0000
0300
0000
,  // measure 7
0020
0000
0030
0000
,  // measure 8
0002
0103
0010
1100
,  // measure 9
0001
1000
1000
0100
,  // measure 10
0010
0001
1000
0101
,  // measure 11
1000
0100
0001
0100
,  // measure 12
0001
0010
0001
0010
,  // measure 13
0100
1000
0100
1000
,  // measure 14
0002
0003
0100
0001
,  // measure 15
2000
3000
0100
1001
,  // measure 16
2000
3100
0010
0101
,  // measure 17
1000
0001
0001
0100
,  // measure 18
0010
1000
0001
1100
,  // measure 19
0001
0100
1000
0100
,  // measure 20
2000
0010
3000
0010
,  // measure 21
0200
0001
0300
0001
,  // measure 22
2002
3003
0001
0100
,  // measure 23
0202
0000
0303
0000
,  // measure 24
0020
0130
1000
0100
,  // measure 25
0020
0130
0001
0100
,  // measure 26
2000
0100
3000
0100
,  // measure 27
0002
0100
0003
0100
,  // measure 28
0020
0130
1000
0100
,  // measure 29
0200
0000
0300
0010
,  // measure 30
0020
0130
0001
0100
,  // measure 31
1000
0100
0001
0100
,  // measure 32
0020
0130
1000
0100
,  // measure 33
0020
0130
0001
0100
,  // measure 34
0020
0130
1000
0100
,  // measure 35
0020
0130
0001
0100
,  // measure 36
2000
0000
3100
0000
,  // measure 37
0002
0000
0103
0000
,  // measure 38
0020
0030
0100
0000
,  // measure 39
0001
0101
1000
1100
,  // measure 40
2000
0000
3100
0000
,  // measure 41
0002
0000
0103
0000
,  // measure 42
0020
0030
0100
0000
,  // measure 43
0001
0101
1000
1100
,  // measure 44
0002
0000
0103
1000
,  // measure 45
2000
0000
3100
0001
,  // measure 46
0020
0030
0100
1000
,  // measure 47
1000
1100
0001
0101
,  // measure 48
2000
0100
3100
0001
,  // measure 49
0002
0100
0103
1000
,  // measure 50
0020
0130
0100
0001
,  // measure 51
1000
0000
0001
0000
1000
0000
0001
0000
1000
0000
0001
0000
,  // measure 52
2000
0100
3100
0101
,  // measure 53
0002
0100
0103
1100
,  // measure 54
0020
0130
0100
1001
,  // measure 55
1000
1100
0001
0101
,  // measure 56
0002
0100
0103
1100
,  // measure 57
2000
0100
3100
0101
,  // measure 58
0020
0130
0100
1001
,  // measure 59
0001
0101
1000
1100
;

//---------------dance-single - ----------------
#NOTES:
     dance-single:
     :
     Hard:
     7:
     0.513,0.516,0.099,0.483,0.346,274.000,9.000,44.000,0.000,0.000:  // measure 1
0000
0000
0000
0000
,  // measure 2
0200
0310
0100
1000
,  // measure 3
0002
1003
0001
0100
,  // measure 4
0020
0130
0010
1000
,  // measure 5
0001
0000
0100
0001
0000
0000
1000
0000
0100
1000
0000
0000
,  // measure 6
0200
0310
0100
1000
,  // measure 7
0002
1003
0001
0100
,  // measure 8
1000
0000
0100
1000
0000
0000
0001
0000
0000
0100
0000
0000
,  // measure 9
0001
0100
1000
0100
,  // measure 10
1000
0000
0100
1000
0000
0000
2000
0000
0000
3100
0000
0000
,  // measure 11
0001
0000
0100
0001
0000
0000
0010
0000
0000
0100
0000
0000
,  // measure 12
0002
0000
1000
0000
0010
0003
1000
0000
,  // measure 13
2000
0000
0000
0000
0000
0000
0001
0000
0000
0000
0000
0000
0100
0000
0000
3000
0000
0000
0001
0000
0000
0000
1000
0000
,  // measure 14
0010
0000
1000
0001
0000
0000
1000
0000
0010
0100
0000
0000
,  // measure 15
0001
1002
1000
0103
,  // measure 16
0001
0000
0100
0001
0000
0000
1000
0000
0000
0100
0000
0000
,  // measure 17
1000
0100
0001
0100
,  // measure 18
0001
0000
0100
0001
0000
0000
0002
0000
0000
0103
0000
0000
,  // measure 19
1000
1001
0100
0100
,  // measure 20
0002
1000
0013
1001
,  // measure 21
0200
0010
0301
0110
,  // measure 22
0010
0000
1000
0001
0000
0000
1000
0000
0010
0100
0000
0000
,  // measure 23
0220
0000
0000
0330
0000
0000
0110
0000
,  // measure 24
0020
0000
0000
1030
0000
0000
0100
0000
0001
0100
0000
0000
,  // measure 25
0020
0000
0000
0031
0000
0000
0100
0000
1000
0100
0000
0000
,  // measure 26
0020
0000
0000
0000
0000
0000
0000
0000
0000
0030
0000
0000
0001
0000
0000
0000
0100
0000
1000
0000
0000
0000
0000
0000
,  // measure 27
0200
0000
0000
0000
0000
0000
0000
0000
0000
0300
0000
0000
0010
0000
0000
0000
1000
0000
0100
0000
0000
0000
0000
0000
,  // measure 28
0020
0000
0000
0031
0000
0000
0100
0000
0001
0100
0000
0000
,  // measure 29
0020
0000
0130
0100
,  // measure 30
0020
0000
0000
1030
0000
0000
0100
0000
1000
0100
0000
0000
,  // measure 31
0010
0002
1003
0010
,  // measure 32
0020
0000
0000
1030
0000
0000
0100
0000
0001
0100
0000
0001
,  // measure 33
0020
0000
0000
0031
0000
0000
0100
0000
1000
0100
0000
1000
,  // measure 34
0020
0000
0000
1030
0000
0000
0100
0000
0001
0100
0000
0001
,  // measure 35
0020
0000
0000
0031
0000
0000
0100
0000
1000
0100
0000
0000
,  // measure 36
2000
0000
0000
0000
0000
0000
0000
0000
0000
3000
0000
0000
0100
0000
0000
0000
1000
0000
0100
0000
0000
0000
0000
0000
,  // measure 37
0002
0000
0000
0000
0000
0000
0000
0000
0000
0003
0000
0000
0100
0000
0000
0000
0001
0000
0100
0000
0000
0000
0000
0000
,  // measure 38
0020
0030
0100
1000
,  // measure 39
0010
0000
1000
0000
0010
0000
0100
0000
0001
0000
0010
0000
,  // measure 40
0002
0000
0000
0000
0000
0000
0000
0000
0000
0003
0000
0000
0100
0000
0000
0000
0001
0000
0100
0000
0000
0000
0000
0000
,  // measure 41
2000
0000
0000
0000
0000
0000
0000
0000
0000
3000
0000
0000
0010
0000
0000
0000
1000
0000
0010
0000
0000
0000
0000
0000
,  // measure 42
0020
0030
0100
0001
,  // measure 43
0010
0000
0001
0000
0010
0000
0100
0000
0010
0000
1000
0000
,  // measure 44
0002
0000
0000
0000
0000
0000
1000
0000
0000
0003
0000
0000
0100
0000
0000
0000
0001
0000
0100
0000
0000
0000
0000
0000
,  // measure 45
2000
0000
0000
0000
0000
0000
0001
0000
0000
3000
0000
0000
0010
0000
0000
0000
1000
0000
0010
0000
0000
0000
0000
0000
,  // measure 46
0020
0130
0100
1000
,  // measure 47
0010
0000
0001
0000
0010
0000
0100
0000
0010
0000
0001
0000
,  // measure 48
2000
0000
0000
0000
0000
0000
0001
0000
0000
3000
0000
0000
0100
0000
0000
0000
1000
0000
0100
0000
0000
0000
1000
0000
,  // measure 49
0002
0000
0000
0000
0000
0000
1000
0000
0000
0003
0000
0000
0010
0000
0000
0000
0001
0000
0010
0000
0000
0000
0001
0000
,  // measure 50
0020
0130
0100
0001
,  // measure 51
1001
0000
1001
0000
1001
0000
0010
0000
0100
0000
0001
0000
,  // measure 52
2000
0000
0000
0000
0000
0000
0001
0000
0000
3000
0000
0000
0100
0000
0000
0000
0001
0000
0001
0000
0000
0000
0000
0000
,  // measure 53
0002
0000
0000
0000
0000
0000
1000
0000
0000
0003
0000
0000
0010
0000
0000
0000
1000
0000
1000
0000
0000
0000
0000
0000
,  // measure 54
0020
0000
0000
0130
0000
0000
0010
0000
0100
0100
0000
0000
,  // measure 55
0010
0000
1000
0000
0010
0000
0100
0000
0001
1000
0000
0000
,  // measure 56
0002
0000
0000
0000
0000
0000
1000
0000
0000
0003
0000
0000
0100
0000
0000
0000
1000
0000
0001
0000
0000
0000
0000
0000
,  // measure 57
2000
0000
0000
0000
0000
0000
0001
0000
0000
3000
0000
0000
0010
0000
0000
0000
0001
0000
1000
0000
0000
0000
0000
0000
,  // measure 58
0020
0000
0000
0130
0000
0000
0100
0000
0010
0100
0000
0000
,  // measure 59
0010
0000
0001
0000
0010
0000
0100
0000
1000
0001
0000
0000
;

//---------------dance-double - ----------------
#NOTES:
     dance-double:
     :
     Easy:
     3:
     0.263,0.318,0.176,0.241,0.022,130.000,16.000,22.000,0.000,0.000:  // measure 1
00000000
00000000
00000000
00000000
,  // measure 2
00000000
00000000
00000000
00000000
,  // measure 3
00000000
00000000
00000000
00000000
,  // measure 4
00020000
00000000
00000000
00030000
,  // measure 5
20000000
00000000
00000000
30000000
,  // measure 6
02000000
00000000
00000000
03000000
,  // measure 7
00010000
00010000
00001000
00010000
,  // measure 8
00011000
00000000
00000000
00000000
,  // measure 9
00001000
00000000
00000010
00000000
,  // measure 10
00000010
00000000
00000001
00000000
,  // measure 11
00001000
00001000
00001000
00000000
,  // measure 12
00002000
00000000
00000001
00003000
,  // measure 13
00000001
00000000
00000100
00000000
,  // measure 14
00000100
00000000
00000100
00000000
,  // measure 15
00001000
00010000
00001000
00000000
,  // measure 16
00011000
00000000
00000000
00000000
,  // measure 17
00010000
00000000
00100000
00000000
,  // measure 18
00100000
00000000
10000000
00000000
,  // measure 19
00010000
00010000
00010000
00000000
,  // measure 20
00020000
00000000
10000000
00030000
,  // measure 21
10000000
00000000
01000000
00000000
,  // measure 22
01000000
00000000
01000000
00000000
,  // measure 23
00010000
00001000
00010000
00000000
,  // measure 24
00022000
00000000
00000000
00033000
,  // measure 25
00001000
00000000
00000100
00000001
,  // measure 26
00000002
00000000
00000000
00001003
,  // measure 27
00002000
00000000
00000000
00003001
,  // measure 28
00001001
00000000
00000000
00000000
,  // measure 29
00000100
00000100
00001000
00001000
,  // measure 30
00011000
00000000
00000000
00000000
,  // measure 31
00010000
00000000
01000000
10000000
,  // measure 32
20000000
00000000
00000000
30000000
,  // measure 33
00020000
00000000
00000000
10030000
,  // measure 34
20000000
00000000
00000000
30010000
,  // measure 35
00020000
00000000
00000000
00030000
,  // measure 36
01200000
01000000
01300000
00000000
,  // measure 37
20010000
00010000
30010000
00000000
,  // measure 38
10000000
01000000
00010000
00000000
,  // measure 39
00001000
00001000
00010000
00010000
,  // measure 40
00021000
00000000
00031000
00000000
,  // measure 41
00001000
00000100
00000001
00000000
,  // measure 42
00002001
00000000
00003001
00000000
,  // measure 43
00000001
00000001
00000001
00000001
,  // measure 44
00000002
00000000
00000103
00000000
,  // measure 45
00000200
00000000
00001300
00000000
,  // measure 46
00002000
00000000
00013000
00000000
,  // measure 47
00010000
00010000
00010000
00010000
,  // measure 48
00020000
00000000
00031000
00000000
,  // measure 49
00002000
00000000
00013000
00000000
,  // measure 50
00010000
01000000
10000000
00000000
,  // measure 51
00010000
00000000
00010000
00000000
00010000
00000000
00010000
00000000
00010000
00000000
00010000
00000000
,  // measure 52
00010000
00000000
00000000
00000000
,  // measure 53
10010000
00000000
01000000
00000000
,  // measure 54
01100000
00000000
00010000
00000000
,  // measure 55
00010000
10000000
01000000
00100000
,  // measure 56
10010000
00000000
00010000
10010000
,  // measure 57
10000000
00000000
01000000
01100000
,  // measure 58
01000000
00000000
00010000
10010000
,  // measure 59
01100000
00000000
00000000
00000000
;

//---------------dance-double - ----------------
#NOTES:
     dance-double:
     :
     Medium:
     7:
     0.420,0.477,0.428,0.165,0.088,214.000,39.000,15.000,0.000,0.000:  // measure 1
00000000
00000000
00000000
00000000
,  // measure 2
00000000
00000000
00000000
00000000
,  // measure 3
00000000
00000000
00000000
00000000
,  // measure 4
20010000
00010000
00000000
30010000
,  // measure 5
00000000
01000000
00010000
00001000
,  // measure 6
00011000
00001000
00001000
00001000
,  // measure 7
00000010
00000010
00001001
00000110
,  // measure 8
00000011
00000100
00001000
00001000
,  // measure 9
00000001
00000100
00001000
00001000
,  // measure 10
00010000
01000000
10000000
00010000
,  // measure 11
01000000
01000000
00100000
00100000
,  // measure 12
10010000
10000000
01000000
01000000
,  // measure 13
00010000
00010000
00001000
00001000
,  // measure 14
00000100
00000001
00001000
00000001
,  // measure 15
00000001
00000010
00000100
00001000
,  // measure 16
00000011
00000100
00001000
00001000
,  // measure 17
00000001
00000100
00001000
00001000
,  // measure 18
00010000
01000000
10000000
00010000
,  // measure 19
01000000
01000000
00100000
01100000
,  // measure 20
10010000
10000000
01000000
01000000
,  // measure 21
00010000
00010000
00001000
00001000
,  // measure 22
00000100
00000001
00001000
00000001
,  // measure 23
00000001
00000010
00000100
00001000
,  // measure 24
00002002
00000000
00000000
00003003
,  // measure 25
00000001
00000100
00001000
00001000
,  // measure 26
00011000
00010000
00010000
01000000
,  // measure 27
10000000
10000000
10000000
10000000
,  // measure 28
10010000
00010000
10000000
00010000
,  // measure 29
00200000
01000000
01000000
01300000
,  // measure 30
10010000
01000000
00010000
00001000
,  // measure 31
00020000
00001000
00001000
00031000
,  // measure 32
00022000
00000000
00000000
00033000
,  // measure 33
00000010
00000100
00000001
00001001
,  // measure 34
00000220
00000000
00000000
00000330
,  // measure 35
00000010
00000100
00000001
00000010
,  // measure 36
00001001
00000001
00000100
00001000
,  // measure 37
00011000
00010000
01000000
10000000
,  // measure 38
10010000
10000000
00100000
01000000
,  // measure 39
00010000
00000000
10000000
00000000
10000000
00000000
10000000
00000000
10000000
00000000
10000000
00000000
,  // measure 40
01100000
00100000
10000000
01000000
,  // measure 41
01010000
00010000
00001000
00000100
,  // measure 42
00001001
00000001
00000010
00000100
,  // measure 43
00001002
00000103
00001000
00010000
,  // measure 44
01000000
01000000
00010000
10000000
,  // measure 45
01000000
01000000
11000000
10000000
,  // measure 46
00100000
00010000
00011000
00010000
,  // measure 47
00001000
00000000
00000100
00000000
00000001
00000000
00000001
00000000
00000001
00000000
00000001
00000000
,  // measure 48
00001001
00000001
00001000
00000001
,  // measure 49
00000100
00001000
00010000
00010000
,  // measure 50
00011000
00100000
00100000
01100000
,  // measure 51
10000000
00000000
00010000
00000000
00100000
00000000
01000000
00000000
00100000
00000000
01000000
00000000
,  // measure 52
02100000
00000000
03100000
10010000
,  // measure 53
10200000
00000000
10300000
01010000
,  // measure 54
00002000
00000000
00013000
00011000
,  // measure 55
00001000
00000000
00000100
00000000
00000001
00000000
00001000
00000000
00000100
00000000
00000001
00000000
,  // measure 56
00002200
00000300
00003001
00000110
,  // measure 57
00001001
00000001
00000100
00000011
,  // measure 58
00000100
00001000
00010000
00011000
,  // measure 59
01010000
00000000
00000000
00000000
;

//---------------dance-double - ----------------
#NOTES:
     dance-double:
     :
     Hard:
     7:
     0.459,0.445,0.263,0.132,0.263,257.000,24.000,12.000,0.000,0.000:  // measure 1
00000000
00000000
00000000
00000000
,  // measure 2
00000000
00000000
00000000
00000000
,  // measure 3
00000000
00000000
00000000
00000000
,  // measure 4
00002001
00000001
00000001
00003001
,  // measure 5
00000100
00000000
00000000
00001000
00000000
00000000
00010000
00000000
01000000
10000000
00000000
00000000
,  // measure 6
10020000
10000000
10000000
10030000
,  // measure 7
00010000
00000000
10000000
01000000
00000000
00000000
00100000
00000000
00010000
01000000
00000000
00000000
,  // measure 8
11000000
00010000
00100000
01000000
,  // measure 9
10000000
10000000
10000000
00100000
,  // measure 10
01000000
00010000
10000000
01000000
,  // measure 11
00010000
00010000
00010000
00001000
,  // measure 12
00000020
00000130
00000100
00001000
,  // measure 13
00000001
00000100
00000010
00001000
,  // measure 14
00000001
00001000
00001000
00001000
,  // measure 15
00000001
00000000
00000000
00000001
00000000
00000000
00000010
00000000
00000100
00000010
00000000
00000000
,  // measure 16
00000101
00001000
00000010
00000100
,  // measure 17
00000001
00000001
00000001
00000010
,  // measure 18
00000100
00001000
00000001
00000100
,  // measure 19
00001000
00001000
00001000
00010000
,  // measure 20
00200000
01300000
01000000
00010000
,  // measure 21
10000000
01000000
00100000
00010000
,  // measure 22
10000000
01000000
01000000
01000000
,  // measure 23
00010000
00000000
00000000
00010000
00000000
00000000
00001000
00000000
00010000
00001000
00000000
00000000
,  // measure 24
00002100
00000000
00000000
00003001
00000000
00000000
00000010
00000000
00000100
00000010
00000000
00000000
,  // measure 25
00000102
00000000
00000000
00001003
00000000
00000000
00000010
00000000
00000100
00000010
00000000
00000000
,  // measure 26
00001001
00000000
00000000
00000001
00000000
00000000
00000001
00000000
00000000
00000001
00000000
00000010
,  // measure 27
00000100
00000000
00000000
00001000
00000000
00000000
00001000
00000000
00000000
00001000
00000000
00000001
,  // measure 28
00001000
00000000
00000000
00001000
00000000
00000000
00000001
00000000
00000100
00002000
00000000
00000000
,  // measure 29
00010000
00000000
00000000
00010000
00000000
00000000
00013000
00000000
00000000
00010000
00000000
00001000
,  // measure 30
00010000
00000000
00000000
01000000
00000000
00000000
10000000
00000000
00000000
00010000
00000000
10000000
,  // measure 31
00010000
00000000
00000000
00100000
00000000
00000000
01000000
00000000
00100000
01000000
00000000
00000000
,  // measure 32
01020000
00000000
00000000
10030000
00000000
00000000
00100000
00000000
01000000
00100000
00000000
00000000
,  // measure 33
21000000
00000000
00000000
30010000
00000000
00000000
00100000
00000000
01000000
00100000
00000000
00000000
,  // measure 34
10010000
00000000
00000000
10000000
00000000
00000000
10000000
00000000
00000000
10000000
00000000
00100000
,  // measure 35
01000000
00000000
00000000
00010000
00000000
00000000
00010000
00000000
00000000
00010000
00000000
10000000
,  // measure 36
00010000
00000000
00000000
00010000
00000000
00000000
00100000
00000000
00000000
00100000
00000000
10000000
,  // measure 37
01000000
00000000
00000000
01000000
00000000
00000000
00010000
00000000
00000000
00001000
00000000
00010000
,  // measure 38
00001000
00000000
00000000
00000100
00000000
00000000
00000001
00000000
00000000
00001000
00000000
00000001
,  // measure 39
00001000
00000000
00000100
00000000
00000010
00000000
00000001
00000000
00000100
00000000
00001000
00000000
,  // measure 40
00011000
00000000
00000000
00001000
00000000
00010000
01000000
00000000
00000000
01000000
00000000
00000000
,  // measure 41
10000000
00000000
00000000
00010000
00000000
10000000
00010000
00000000
00000000
00010000
00000000
00000000
,  // measure 42
10000000
00000000
00000000
00100000
00000000
01000000
00100000
00000000
00000000
00100000
00000000
00000000
,  // measure 43
10010000
00000000
00010000
00000000
00010000
00000000
10000000
00000000
10000000
00000000
10000000
00000000
,  // measure 44
01000000
00000000
00000000
00010000
00000000
00000000
00001000
00000000
00000000
00001000
00000000
00010000
,  // measure 45
00001000
00000000
00000000
00001000
00000000
00000000
00000100
00000000
00000000
00000001
00000000
00001000
,  // measure 46
00000001
00000000
00000000
00000001
00000000
00000000
00000010
00000000
00000000
00000100
00001000
00000000
,  // measure 47
00000001
00000000
00000001
00000000
00000001
00000000
00001000
00000000
00001000
00000000
00001000
00000000
,  // measure 48
00002002
00000000
00000000
00000000
00000000
00000000
00000003
00000000
00000000
00000000
00000000
00000000
00000100
00000000
00000000
00003000
00000000
00000000
00000100
00000000
00000000
00000000
00000010
00000000
,  // measure 49
00000002
00000000
00000000
00000000
00000000
00000000
00000103
00000000
00000000
00000100
00000000
00001000
,  // measure 50
00010000
00010000
00100000
01000000
,  // measure 51
10010000
00000000
00010000
00000000
00010000
00000000
00010000
00000000
00010000
00000000
00010000
00000000
,  // measure 52
11000000
00010000
00100000
11000000
,  // measure 53
00100000
01000000
00010000
11000000
,  // measure 54
00100000
00010000
00001000
00011000
,  // measure 55
00001000
00000000
00000100
00000000
00000001
00000000
00000010
00000000
00000100
00000000
00000010
00000000
,  // measure 56
00000110
00000001
00000001
00001001
,  // measure 57
00000110
00001000
00001000
00000101
,  // measure 58
00000001
00000100
00001000
00011000
,  // measure 59
00010100
00000000
00000000
00000000
;
