#TITLE:32A5;
#SUBTITLE:;
#ARTIST:X0-000;
#TITLETRANSLIT:;
#SUBTITLETRANSLIT:;
#ARTISTTRANSLIT:;
#CREDIT:;
#BANNER:32a5.png;
#BACKGROUND:32a5-bg.png;
#LYRICSPATH:;
#CDTITLE:;
#MUSIC:32a5.mp3;
#OFFSET:-0.028;
#SAMPLESTART:41.407;
#SAMPLELENGTH:12.000;
#SELECTABLE:YES;
#BPMS:0.000=145.000;
#STOPS:;
#BGCHANGES:;
// cache tags:
#FIRSTBEAT:16.000;
#LASTBEAT:292.000;
#SONGFILENAME:Songs/StepMix 1.0/32a5/32a5.sm;
#HASMUSIC:1;
#HASBANNER:1;
#MUSICLENGTH:122.546;
// end cache tags

//---------------dance-single - ----------------
#NOTES:
     dance-single:
     :
     Easy:
     3:
     0.281,0.357,0.245,0.180,0.000,189.000,30.000,22.000,0.000,0.000:
0000
0000
0000
0000
,
0000
0000
0000
0000
,
0000
0000
0000
0000
,
0000
0000
0000
0000
,
0001
0000
1000
0000
,
0100
0000
0010
0010
,
0100
0000
1000
0000
,
0001
0000
0100
0100
,
0010
0000
1000
0000
,
0001
0000
0010
0010
,
0100
0000
1000
0000
,
0010
0000
0100
0100
,
0001
0000
1001
0000
,
0100
0000
0010
0010
,
0001
0000
0110
0000
,
1000
0000
0100
0100
,
2001
0000
0100
0000
,
0010
0000
0001
3000
,
0100
0001
1000
0000
,
0100
0010
0001
0001
,
0210
0000
0001
0000
,
1000
0000
0010
0300
,
1000
0100
0010
0000
,
0001
0100
0010
0010
,
2100
0000
0001
0000
,
0010
0000
0100
3010
,
0200
0000
1000
0000
,
0001
0000
1000
0301
,
0020
0000
0100
0000
,
0001
0000
0100
0031
,
2000
0000
0010
0000
,
0100
0000
0001
3010
,
0100
0001
0000
1000
,
0100
0000
1000
1001
,
0100
0010
0000
1000
,
0001
0000
0010
0110
,
1000
0001
0000
0100
,
0010
0000
1000
1001
,
0010
0001
0000
0100
,
0010
0000
1000
1001
,
0100
1000
0001
0100
,
0010
0000
0100
1001
,
0100
0010
0001
0100
,
0010
0000
1000
0110
,
0001
1000
0100
1000
,
0010
0000
0100
1001
,
0010
1000
0001
0010
,
0001
0000
1000
0110
,
2001
3010
0000
0000
,
1002
0013
0000
0000
,
0210
1300
0000
0000
,
0120
0031
0000
0000
,
1002
0103
0000
0000
,
2001
3100
0000
0000
,
0120
0031
0000
0000
,
1000
0010
0100
0001
,
2001
3010
0000
0100
,
1002
0013
0000
0001
,
0210
1300
0000
0001
,
0120
0031
0000
0100
,
1002
0103
0000
0010
,
2001
3100
0000
1000
,
0210
0301
0000
0000
,
1000
0001
0100
0010
,
1000
0100
1000
0001
,
1000
0010
0100
0000
,
0001
0010
0001
1000
,
0001
0100
0010
0000
,
0100
0000
1001
0000
,
0010
0000
1001
0000
,
1000
0000
0001
0000
,
0100
0000
0010
0000
,
2002
0000
0000
0000
,
3003
0000
0000
0000
;

//---------------dance-single - ----------------
#NOTES:
     dance-single:
     :
     Beginner:
     2:
     0.187,0.264,0.237,0.000,0.000,131.000,29.000,0.000,0.000,0.000:
0000
0000
0000
0000
,
0000
0000
0000
0000
,
0000
0000
0000
0000
,
0000
0000
0000
0000
,
0001
0000
0001
0000
,
1000
0000
1000
0000
,
0100
0000
0100
0000
,
0010
0000
0010
0000
,
0001
0000
0001
0000
,
1000
0000
1000
0000
,
0010
0000
0010
0000
,
0100
0100
0100
0000
,
0001
0000
0001
0000
,
1000
1000
1000
0000
,
1001
0000
0000
0000
,
0110
0000
0000
0000
,
1001
0000
0000
0000
,
0000
0000
0000
0000
,
0110
0000
0010
0000
,
0100
0100
0100
0000
,
1001
0000
0000
0000
,
0000
0000
0000
0000
,
0110
0000
0100
0000
,
0010
0010
0010
0000
,
1001
0000
0000
0000
,
0000
0000
1000
0000
,
1001
0000
0000
0000
,
0000
0000
0001
0000
,
1001
0000
0000
0000
,
0000
0000
1000
0000
,
1001
0000
0000
0000
,
0000
0000
0001
0000
,
0001
0000
0001
0000
,
1000
1000
1000
0000
,
0100
0000
0100
0000
,
0010
0010
0010
0000
,
0001
0000
0001
0000
,
1000
1000
1000
0000
,
0010
0000
0010
0000
,
0100
0100
0100
0000
,
0001
0000
0001
0000
,
0010
0010
0010
0000
,
0100
0000
0100
0000
,
1000
1000
1000
0000
,
0001
0000
0001
0000
,
0100
0100
0100
0000
,
0010
0000
0010
0000
,
1000
1000
1000
0000
,
1001
1001
0000
0000
,
0110
0110
0000
0000
,
1000
1000
0000
0000
,
0001
0001
0000
0000
,
0110
0110
0000
0000
,
1001
1001
0000
0000
,
0100
0100
0000
0000
,
1000
1000
0001
0001
,
1001
1001
0000
0000
,
0110
0110
0000
0000
,
1000
1000
0000
0000
,
0001
0001
0000
0000
,
0110
0110
0000
0000
,
1001
1001
0000
0000
,
0100
0100
0000
0000
,
0001
0001
1000
1000
,
0001
0000
0001
0000
,
1000
0000
0000
0000
,
0100
0000
0100
0000
,
0010
0000
0000
0000
,
1001
0000
0000
0000
,
1001
0000
0000
0000
,
1000
0000
0000
0000
,
0001
0000
0000
0000
,
1001
0000
0000
0000
;

//---------------dance-single - ----------------
#NOTES:
     dance-single:
     :
     Medium:
     6:
     0.460,0.477,0.310,0.082,0.000,347.000,38.000,10.000,0.000,0.000:
0000
0000
0000
0000
,
0000
0000
0000
0000
,
0000
0000
0000
0000
,
0000
0000
0000
0000
,
1000
0001
0100
0000
,
0010
0000
1000
0000
0001
0100
0001
0100
,
0010
1000
0100
0000
,
1000
0000
0010
0000
0100
0001
0100
0001
,
0010
0100
0010
0000
,
0001
0000
0100
0000
0010
1000
0010
1000
,
0100
1000
0001
0000
,
0100
0000
0010
0000
0100
0001
0100
0001
,
1000
0100
1100
0000
,
0010
0000
0001
0000
0100
0010
0100
0001
,
1000
0001
1001
0000
,
0100
0000
0010
0000
1000
0001
1000
0100
,
0010
0001
0100
0000
0010
0000
1010
0000
,
0100
0010
0001
0000
0100
0000
0110
0000
,
1000
0001
1001
0000
,
0010
0000
0100
0000
1000
0001
0100
0010
,
1000
0100
0010
0000
0100
0000
1100
0000
,
0010
0001
0100
0000
0010
0000
0110
0000
,
0001
1000
1001
0000
,
0010
0000
0100
0000
1000
0001
0100
0010
,
1000
0001
0100
0000
0020
0000
1030
0000
,
0100
0010
0100
0000
2000
0000
3001
0000
,
0100
0010
1000
0000
0200
0000
0310
0000
,
0100
1000
0001
0000
0200
0000
0310
0000
,
1000
0001
0010
0000
0200
0000
1300
0000
,
0001
0100
0010
0000
2000
0000
3001
0000
,
0010
0100
1000
0000
0020
0000
0130
0000
,
0001
1000
0100
0000
2000
0000
3010
0000
,
0100
0001
0010
0000
0100
1000
0010
1000
,
0100
0000
0010
0001
0100
0010
0100
0000
,
0001
1000
0100
0000
1000
0010
0100
0001
,
0010
0000
0100
1000
0010
0100
0010
0000
,
1000
0001
0010
0000
0100
1000
0010
0100
,
0001
0000
0010
0100
1000
0010
0100
0000
,
0001
1000
0100
0000
1000
0001
0100
0001
,
0010
0000
0100
1000
0001
0100
0010
0000
,
0100
0001
1000
0000
0100
1000
0010
0100
,
0010
0000
1000
0001
0010
0100
0010
0000
,
0001
0100
0010
0000
1000
0100
1000
0010
,
0100
0000
0001
1000
0100
0010
0001
0000
,
0100
0010
1000
0000
0100
1000
0001
0100
,
0010
0000
0100
0001
1000
0100
1000
0000
,
0010
0100
0001
0000
0010
0100
1000
0001
,
0100
0000
0010
0100
0001
1000
0100
0000
,
0011
0000
0101
0000
0010
1000
0100
0000
,
1100
0000
1001
0000
0100
0010
1000
0000
,
0101
0000
0110
0000
1000
0001
0010
0000
,
0110
0000
1001
0000
0010
0100
0001
0000
,
1001
0000
1100
0000
0010
0001
0100
0000
,
0101
0000
1010
0000
1000
0100
0010
0000
,
1001
0000
0110
0000
1000
0001
0100
0000
,
0001
0010
0100
1000
,
1010
0000
1100
0000
0010
0001
0100
0000
,
0101
0000
1010
0000
1000
0001
0010
0000
,
1001
0000
1100
0000
0010
0001
1000
0000
,
1010
0000
0101
0000
0010
1000
0100
0000
,
0011
0000
0101
0000
1000
0010
0100
0000
,
1010
0000
1001
0000
0010
0100
1000
0000
,
1001
0000
0101
0000
0100
0010
1000
0000
,
0100
0010
0001
1000
,
0001
0100
0010
0000
1000
0000
0001
0000
,
0010
0100
1000
0000
0100
0000
0010
0000
,
0001
0100
0010
0000
0100
0000
0001
0000
,
1000
0100
0010
0000
0100
0000
1000
0000
,
0001
0100
0001
1000
,
0100
1000
0010
1001
,
0100
0000
0010
0000
,
1000
0000
0001
0000
,
2002
0000
0000
0000
,
3003
0000
0000
0000
;

//---------------dance-single - ----------------
#NOTES:
     dance-single:
     :
     Hard:
     8:
     0.616,0.558,0.114,0.196,0.196,490.000,14.000,24.000,0.000,0.000:
0000
0000
0000
0000
,
0000
0000
0000
0000
,
0000
0000
0000
0000
,
0000
0000
0000
0000
,
1000
0000
0000
0100
0000
0000
1000
0000
0010
0000
0000
0000
0100
0000
0000
0001
,
0000
0000
0010
0000
0100
0000
0000
0000
1000
0000
0001
0100
0000
0100
0001
0000
,
0010
0000
0000
0100
0000
0000
1000
0000
0010
0000
0000
0000
0001
0000
0000
0010
,
0000
0000
1000
0000
0100
0000
0000
0000
0010
0000
0001
1000
0000
1000
0001
0000
,
0100
0000
0000
0010
0000
0000
1000
0000
0100
0000
0000
0000
0001
0000
0000
0100
,
0000
0000
1000
0000
0010
0000
0000
0000
0100
0000
0001
0010
0000
0010
0001
0000
,
0100
0000
0000
0010
0000
0000
1000
0000
0001
0000
0000
0000
0010
0000
0000
1000
,
0000
0000
0010
0000
0001
0000
0000
0000
0100
0000
0010
1000
0000
1000
0010
0000
,
0100
0000
0000
0001
0000
0000
1000
0000
0100
0000
0000
0000
1000
0000
0000
0010
,
0000
0000
0001
0000
0010
0000
0000
0000
0100
0000
0001
1000
0000
1000
0001
0000
,
0010
0000
0000
0100
0000
0000
1000
0000
0010
0000
0000
0000
0100
0000
0000
0001
,
0000
0000
1000
0000
0100
0000
0000
0000
1000
0000
0001
0100
0000
0100
0001
0000
,
0010
0001
0100
1000
0100
0001
0010
0100
,
1000
0100
0010
1000
0010
0001
0100
0010
,
1000
0000
0000
0001
0000
0000
0100
0000
0010
0000
0000
0000
1000
0000
0000
0100
,
0000
0000
0001
0000
0100
0000
0000
0000
1000
0000
0001
0100
0000
0100
0010
0000
,
1000
0100
0001
0100
1000
0010
0100
1000
,
0100
0001
0010
0100
1000
0001
0100
0010
,
1000
0000
0000
0100
0000
0000
0010
0000
0100
0000
0000
0000
1000
0000
0000
0001
,
0000
0000
0100
0000
0001
0000
0000
0000
0010
0000
0100
1000
0000
1000
0010
0000
,
1000
0100
0010
0001
1000
0010
0100
0001
,
1000
0100
0010
0001
1000
0010
0100
0001
,
1000
0100
0010
0001
1000
0010
0100
0001
,
0010
1000
0010
0100
1000
0001
0010
0100
,
0001
0100
1000
0010
0100
0001
1000
0010
,
0100
1000
0100
0001
1000
0100
0010
1000
,
0010
0100
0001
0100
1000
0010
0100
0001
,
0010
0100
0010
0001
0100
1000
0100
0000
,
0001
1000
0100
1000
0001
0100
0010
1000
,
0100
1000
0010
0001
0020
0000
0130
0000
,
0001
1000
0100
0010
0100
1000
0010
0100
,
0001
0000
1000
0000
0100
0000
1000
0000
0010
0000
0100
0000
0001
1000
0001
1000
,
0001
0010
0100
0010
0001
1000
0010
0100
,
0001
1000
0100
1000
0020
0000
0130
0000
,
0001
1000
0100
0001
0100
1000
0010
0100
,
0001
0000
1000
0000
0100
0000
1000
0000
0010
0000
0001
0000
0010
0100
0010
0100
,
0010
1000
0001
1000
0100
0010
0100
1000
,
0010
0100
0001
0010
0200
0000
0310
0000
,
0001
0100
1000
0100
0010
1000
0100
0010
,
0100
0000
1000
0000
0001
0000
0100
0000
0010
0000
1000
0000
0001
0010
0001
0010
,
0001
1000
0100
1000
0010
0100
1000
0100
,
0001
0010
0100
0010
0002
0000
1003
0000
,
0010
0100
0001
0010
0100
1000
0010
0100
,
0001
0100
0010
1000
0100
0010
0100
0000
,
1002
0000
0103
0000
0010
1000
0100
0010
,
2100
0000
3001
0000
0100
0010
1000
0010
,
0102
0000
0000
0000
0013
0000
0000
0000
0100
1000
0100
0000
1000
0000
0010
0000
,
1002
0000
0103
0000
0010
0100
0001
0100
,
2010
0000
0000
0000
3100
0000
0000
0000
0010
0000
0001
0100
0001
0000
1000
0000
,
0210
0000
1300
0000
0010
0100
0001
1000
,
0102
0000
0000
0000
1003
0000
0000
0000
1000
0000
0001
0100
0001
0000
1000
0100
,
2000
3020
0230
0301
,
1002
0000
0013
0000
0100
1000
0001
0100
,
2010
0000
3100
0000
0010
0001
0100
0010
,
1002
0000
0000
0000
0013
0000
0000
0000
0100
1000
0100
0000
0010
0000
0001
0000
,
0210
0000
1300
0000
0010
0100
0001
1000
,
0210
0000
0000
0000
0301
0000
0000
0000
0010
0000
0001
1000
0001
0000
0100
0000
,
1020
0000
0130
0000
0001
1000
0100
1000
,
0021
0000
0000
0000
0130
0000
0000
0000
1000
0000
0001
0100
0001
0000
1000
0100
,
1000
0010
0001
0010
1000
0100
0001
0000
,
0100
1000
0001
0100
0001
0010
0100
0010
,
1000
0010
0001
0100
0010
1000
0200
0000
,
1300
0001
0100
0010
0100
0001
1000
0100
,
1000
0001
0100
0010
1000
0100
0020
0000
,
0031
0100
1000
0100
0010
1000
0100
1000
,
0001
0010
0001
0100
0010
1000
0200
0000
,
1300
0001
0100
0010
0100
0001
0010
0100
,
1000
0000
0001
0000
0100
0000
0010
0000
0100
0000
0001
0000
1000
0001
1000
0001
;

//---------------dance-single - ----------------
#NOTES:
     dance-single:
     :
     Challenge:
     10:
     0.712,0.734,0.114,0.253,0.673,566.000,14.000,31.000,135.000,16.000:
0000
0000
0000
0000
,
0000
0000
0000
0000
,
0000
0000
0000
0000
,
0000
0000
0000
0000
,
1000
0010
0100
0010
0000
0000
1000
0000
0100
0010
0000
0000
0001
0100
0001
1000
,
0000
0000
0100
0000
1000
0001
0000
0000
1000
0100
1000
0100
0000
1000
0001
0000
,
0010
0001
0100
0001
0000
0000
0010
0000
0100
1000
0000
0000
0001
0100
0001
0010
,
0000
0000
0100
0000
1000
0010
0000
0000
0100
0001
0100
0001
0000
1000
0100
0000
,
1000
0001
0100
0001
0000
0000
0010
0000
0100
1000
0000
0000
0010
0100
0010
1000
,
0000
0000
0001
0000
0010
0100
0000
0000
1000
0100
1000
0100
0000
0010
0001
0000
,
0100
0010
1000
0010
0000
0000
0100
0000
0001
1000
0000
0000
0100
0010
0100
1000
,
0000
0000
0010
0000
0100
0001
0000
0000
0010
0100
0010
0100
0000
0010
0001
0000
,
1000
0100
0010
0100
0000
0000
0010
0000
0001
1000
0000
0000
0010
0100
0010
1000
,
0000
0000
0001
0000
0010
0100
0000
0000
1000
0001
1000
0001
0000
0100
0010
0000
,
0100
0001
1000
0001
0000
0000
0010
0000
0100
1000
0000
0000
0001
0100
0001
1000
,
0000
0000
0001
0000
1000
0100
0000
0000
1000
0010
1000
0010
0000
0100
0001
0000
,
0010
1000
0010
0100
0001
0100
1000
0010
,
0100
1000
0100
0001
1000
0010
0001
0010
,
1000
0001
0010
0100
0000
0000
1000
0000
0001
0100
0000
0000
0001
1000
0100
0010
,
0000
0000
0100
0000
1000
0001
0000
0000
0100
0010
1000
0001
0000
1000
0100
0000
,
0001
0100
0010
1000
0010
0100
1000
0001
,
0100
1000
0100
0010
0001
0010
1000
0100
,
1000
0001
0100
0010
0000
0000
1000
0000
0100
0010
0000
0000
0100
1000
0001
0100
,
0000
0000
0001
0000
1000
0100
0000
0000
0010
0100
0010
0001
0000
1000
0010
0000
,
0001
0010
0100
1000
0100
0001
0010
1000
,
0010
0100
0001
0100
1000
0010
0100
0001
,
0100
1000
0100
0010
0001
1000
0100
0010
,
1000
0100
1000
0001
0010
1000
0010
0100
,
0001
0100
1000
0001
0100
0010
0001
0010
,
1000
0001
0100
1000
0100
0010
1000
0001
,
0010
0100
0001
0100
0010
1000
0001
0100
,
1000
0001
0100
1000
0100
0010
0001
0010
,
1000
0000
0000
0100
0000
M000
00M1
0M00
0000
0100
0000
0000
0010
0000
00M0
1M00
000M
0000
0001
0000
0000
0100
0000
M000
,
001M
0M00
0000
0001
0000
0000
0100
0000
0M00
100M
00M0
0000
0100
0000
0000
M001
0000
0000
100M
0000
0000
M100
0000
0000
,
001M
0000
0000
1000
0000
0M00
00M1
M000
0000
0100
0000
0000
1000
0000
M000
001M
0M00
0000
0100
0000
0000
1000
0000
M000
,
010M
0000
00M0
0000
0000
0000
0010
0000
0000
0000
0000
0000
0001
0000
0000
0000
000M
0000
1M00
0000
00M0
0000
0000
0000
0100
0000
0000
0000
0000
0000
0001
0000
0000
0000
0000
0000
1000
0000
0000
0100
M000
0000
0M10
0000
0000
0100
0000
0000
,
1000
0000
0000
0010
0000
00M0
M001
0M00
0000
0010
0000
0000
0100
0000
0M00
10M0
000M
0000
0001
0000
0000
0010
0000
00M0
,
M100
000M
0000
0001
0000
0000
0010
0000
00M0
100M
0M00
0000
M001
0000
0000
010M
0000
0000
M010
0000
0000
010M
0000
0000
,
1000
0000
0000
0001
0000
000M
M100
00M0
0000
1000
0000
0000
0001
0000
000M
M010
0M00
0000
0100
0000
0000
0001
0000
000M
,
0M10
0000
M000
0000
0000
0000
1000
0000
0000
0000
0000
0000
0001
0000
0000
0000
000M
0000
M100
0000
00M0
0000
0000
0000
0010
0000
0000
0000
0000
0000
1000
0000
0000
0000
0000
0000
0010
0000
0000
0001
0000
0000
100M
0000
00M0
0001
0000
0000
,
0010
0000
0000
0100
0000
00M0
M001
0M00
0000
0100
0000
0000
0010
0000
00M0
1M00
000M
0000
0001
0000
0000
0100
0000
0M00
,
M010
000M
0000
0001
0000
0000
1000
0000
M000
001M
0M00
0000
M100
0000
0000
001M
0000
0000
M001
0000
0000
001M
0000
0000
,
1000
0000
0000
0001
0000
000M
M100
00M0
0000
0010
0000
0000
0001
0000
0M00
001M
M000
0000
1000
0000
0000
0100
0000
000M
,
M010
0000
0M00
0000
0000
0000
1000
0000
0000
0000
0000
0000
0001
0000
0000
0000
M000
0000
010M
0000
00M0
0000
0000
0000
0010
0000
0000
0000
0000
0000
0001
0000
0000
0000
0000
0000
1000
0000
0000
0010
0000
0000
01M0
0000
M000
0010
0000
0000
,
1000
0000
0000
0100
0000
0M00
001M
M000
0000
1000
0000
0000
0001
0000
00M0
010M
M000
0000
0010
0000
0000
1000
0000
000M
,
M010
0M00
0000
0100
0000
0000
1000
0000
M000
00M1
0M00
0000
M100
0000
0000
100M
0000
0000
M100
0000
0000
001M
0000
0000
,
0100
0000
0000
1000
0000
M000
00M1
0M00
0000
0010
0000
0000
1000
0000
00M0
M100
000M
0000
0001
0000
0000
0100
0000
0M00
,
001M
M000
0000
1000
0000
0000
0001
0000
000M
M100
00M0
0000
0010
0000
0000
0001
0000
000M
1M00
00M0
0000
0000
0000
0000
,
2200
0000
33M1
0000
1000
0100
0001
0100
,
0220
0000
133M
0000
0010
0001
0100
0010
,
0202
0000
0000
0000
M313
0000
0000
0000
0001
1000
0100
0000
1000
0000
0010
0000
,
2002
0000
3M13
0000
1000
0001
0100
0010
,
0202
0000
0000
0000
13M3
0000
0000
0000
0100
0000
0010
1000
0100
0000
0010
0000
,
2200
0000
331M
0000
0100
1000
0001
0100
,
2002
0000
0000
0000
3M13
0000
0000
0000
0001
0000
0100
0010
1000
0000
0100
1000
,
0002
0200
0020
1333
,
0202
0000
M313
0000
0100
0001
0010
0100
,
0022
0000
1M33
0000
0010
0001
0100
0010
,
0202
0000
0000
0000
13M3
0000
0000
0000
0001
0010
0100
0000
0010
0000
0001
0000
,
0220
0000
133M
0000
0010
0001
0100
0010
,
2002
0000
0000
0000
3M13
0000
0000
0000
0001
0000
1000
0100
0010
0000
0001
0000
,
2200
0000
33M1
0000
1000
0100
0010
0100
,
0022
0000
0000
0000
1M33
0000
0000
0000
0001
0000
0100
0010
1000
0000
0100
0010
,
0001
0100
0010
1000
0001
0010
0100
1000
0001
0100
0010
1000
0001
0000
0000
0000
,
1000
0100
0001
1000
0010
0001
0010
0100
,
1000
0010
0001
1000
0100
0010
1000
0001
,
0010
0100
0001
1000
0010
0100
1000
0010
,
0100
0000
1000
0000
0100
0000
0001
0000
1000
0000
0010
0000
0001
0010
1000
0100
,
0001
0100
1000
0100
0010
1000
0001
0100
,
0010
0001
0100
1000
0001
0010
1000
0100
,
1000
0001
0100
0010
0001
1000
0100
0010
,
1000
0000
0001
0000
0010
0000
1000
0000
0001
0000
0100
0000
1000
0001
0100
0010
;

//---------------dance-double - ----------------
#NOTES:
     dance-double:
     :
     Hard:
     8:
     0.602,0.558,0.016,0.196,0.196,490.000,2.000,24.000,0.000,0.000:
00000000
00000000
00000000
00000000
,
00000000
00000000
00000000
00000000
,
00000000
00000000
00000000
00000000
,
00000000
00000000
00000000
00000000
,
00010000
00000000
00000000
01000000
00000000
00000000
00010000
00000000
00001000
00000000
00000000
00000000
00000100
00000000
00000000
00000010
,
00000000
00000000
00001000
00000000
00000100
00000000
00000000
00000000
00000010
00000000
00001000
00010000
00000000
00010000
00001000
00000000
,
00000100
00000000
00000000
00001000
00000000
00000000
00010000
00000000
00100000
00000000
00000000
00000000
10000000
00000000
00000000
01000000
,
00000000
00000000
00100000
00000000
10000000
00000000
00000000
00000000
00100000
00000000
00010000
01000000
00000000
01000000
00010000
00000000
,
00100000
00000000
00000000
00001000
00000000
00000000
00010000
00000000
00001000
00000000
00000000
00000000
00000010
00000000
00000000
00000001
,
00000000
00000000
00000100
00000000
00000010
00000000
00000000
00000000
00010000
00000000
00001000
00100000
00000000
00100000
00001000
00000000
,
00010000
00000000
00000000
00000100
00000000
00000000
00001000
00000000
00000010
00000000
00000000
00000000
00010000
00000000
00000000
00100000
,
00000000
00000000
00010000
00000000
00001000
00000000
00000000
00000000
00010000
00000000
01000000
10000000
00000000
10000000
01000000
00000000
,
00100000
00000000
00000000
00001000
00000000
00000000
00010000
00000000
00001000
00000000
00000000
00000000
00010000
00000000
00000000
01000000
,
00000000
00000000
00010000
00000000
00001000
00000000
00000000
00000000
00000100
00000000
00000001
00001000
00000000
00001000
00000001
00000000
,
00000010
00000000
00000000
00001000
00000000
00000000
00010000
00000000
00001000
00000000
00000000
00000000
00000100
00000000
00000000
00001000
,
00000000
00000000
01000000
00000000
00100000
00000000
00000000
00000000
10000000
00000000
00010000
00100000
00000000
00100000
00010000
00000000
,
01000000
00001000
00100000
00010000
00000010
00001000
00010000
00000100
,
00001000
00000010
00000001
00000010
00001000
00000100
00010000
00001000
,
01000000
00000000
00000000
00100000
00000000
00000000
00010000
00000000
00001000
00000000
00000000
00000000
00010000
00000000
00000000
01000000
,
00000000
00000000
10000000
00000000
00100000
00000000
00000000
00000000
01000000
00000000
00010000
00100000
00000000
00100000
00001000
00000000
,
00010000
01000000
00010000
00001000
00000100
00000001
00000010
00000100
,
00010000
00001000
00000100
00001000
00010000
00000100
00000010
00001000
,
00010000
00000000
00000000
00000100
00000000
00000000
00010000
00000000
01000000
00000000
00000000
00000000
10000000
00000000
00000000
00010000
,
00000000
00000000
01000000
00000000
00100000
00000000
00000000
00000000
10000000
00000000
01000000
00010000
00000000
00010000
00001000
00000000
,
00010000
01000000
00010000
00001000
00000010
00000100
00001000
00000001
,
00000100
00001000
00000100
00000010
00010000
00001000
00000010
00000100
,
00010000
00001000
01000000
00100000
00010000
00100000
10000000
01000000
,
00100000
10000000
00100000
00010000
01000000
00001000
00010000
00001000
,
00000010
00000100
00010000
00001000
00000100
00000001
00000010
00000100
,
00000010
00000001
00000100
00001000
00010000
01000000
00100000
00010000
,
01000000
00001000
00010000
00100000
00010000
00001000
00000010
00001000
,
00010000
01000000
10000000
00100000
01000000
10000000
01000000
00000000
,
00010000
10000000
01000000
00010000
01000000
00100000
00001000
00010000
,
00100000
00010000
00001000
00000100
00000002
00000000
00000013
00000000
,
00001000
00010000
00001000
00000100
00000010
00010000
00001000
00000010
,
00001000
00000000
00010000
00000000
01000000
00000000
10000000
00000000
00100000
00000000
01000000
00000000
00010000
00100000
00010000
00100000
,
00001000
01000000
00100000
00010000
00001000
00000100
00001000
00010000
,
01000000
00100000
00001000
00010000
00000200
00000000
00000301
00000000
,
00000100
00010000
00001000
00000100
00000001
00000010
00000100
00010000
,
00001000
00000000
00000100
00000000
00001000
00000000
00010000
00000000
00100000
00000000
10000000
00000000
01000000
00100000
01000000
00100000
,
00010000
01000000
00100000
00010000
00001000
00010000
01000000
00100000
,
00001000
00010000
00001000
00000100
00000020
00000000
00010030
00000000
,
00001000
00010000
00000100
00000010
00001000
00010000
00001000
00000100
,
00010000
00000000
01000000
00000000
00100000
00000000
10000000
00000000
01000000
00000000
00100000
00000000
00001000
01000000
00001000
01000000
,
00100000
10000000
01000000
10000000
00010000
01000000
00001000
00010000
,
00100000
00010000
00000010
00000100
00002000
00000000
00013000
00000000
,
00001000
00000010
00000100
00001000
00000001
00000100
00001000
00000100
,
00000010
00010000
00001000
00000010
00001000
00010000
00100000
00000000
,
00012000
00000000
00003100
00000000
00010000
00100000
10000000
01000000
,
00020000
00000000
01030000
00000000
10000000
00100000
01000000
00001000
,
00020000
00000000
00000000
00000000
01030000
00000000
00000000
00000000
00100000
00001000
00010000
00000000
00000100
00000000
00010000
00000000
,
00002000
00000000
00003100
00000000
00000001
00000010
00001000
00010000
,
00002000
00000000
00000000
00000000
00003100
00000000
00000000
00000000
00000010
00000000
00001000
00000100
00010000
00000000
01000000
00000000
,
20000000
00000000
30100000
00000000
00010000
00001000
00010000
01000000
,
20000000
00000000
00000000
00000000
30100000
00000000
00000000
00000000
01000000
00000000
00010000
00100000
00001000
00000000
00010000
00000100
,
00002000
00003020
00000230
00000301
,
00000012
00000000
00000103
00000000
00001000
00010000
00001000
00000010
,
00002000
00000000
00103000
00000000
01000000
10000000
00100000
00010000
,
00200000
00000000
00000000
00000000
01300000
00000000
00000000
00000000
00001000
00010000
01000000
00000000
00100000
00000000
00010000
00000000
,
02000000
00000000
03001000
00000000
00010000
01000000
00010000
00001000
,
00000200
00000000
00000000
00000000
00000301
00000000
00000000
00000000
00000010
00000000
00000100
00010000
00001000
00000000
00000100
00000000
,
00002000
00000000
00013000
00000000
00001000
00000010
00000100
00010000
,
00002000
00000000
00000000
00000000
00103000
00000000
00000000
00000000
01000000
00000000
10000000
00100000
01000000
00000000
00010000
00100000
,
00001000
00010000
00100000
10000000
01000000
00010000
01000000
00000000
,
00100000
00010000
01000000
00100000
00010000
00001000
00000100
00000001
,
00000010
00000100
00010000
00001000
00000010
00000100
00002000
00000000
,
00003010
00000100
00001000
00010000
01000000
00100000
00010000
01000000
,
00100000
10000000
01000000
00010000
00001000
00010000
00200000
00000000
,
00310000
00001000
00000100
00001000
00010000
00000100
00000010
00001000
,
00000010
00000001
00000100
00000010
00010000
00001000
00000200
00000000
,
00001300
00010000
01000000
00100000
00010000
01000000
00100000
00010000
,
00001000
00000000
00010000
00000000
01000000
00000000
00100000
00000000
00001000
00000000
00010000
00000000
00001000
00010000
01000000
10000000
;
