#TITLE:Guilty Gear X;
#SUBTITLE:- Blue Water Blue Sky [Remix];
#ARTIST:Lapiz Lazuli;
#TITLETRANSLIT:;
#SUBTITLETRANSLIT:;
#ARTISTTRANSLIT:;
#CREDIT:;
#BANNER:GGXlogo.png;
#BACKGROUND:GGXBG.png;
#LYRICSPATH:;
#CDTITLE:;
#MUSIC:GGXMayRemix.mp3;
#OFFSET:0.920;
#SAMPLESTART:29.064;
#SAMPLELENGTH:12.000;
#SELECTABLE:YES;
#BPMS:0.000=200.000;
#STOPS:;
#BGCHANGES:28.000=guiltygearx.avi=1.000=0=0=1,
314.000=ggxbg.png=1.000=0=0=1,
99999=-nosongbg-=1.000=0=0=0 // don't automatically add -songbackground-
;
// cache tags:
#FIRSTBEAT:19.000;
#LASTBEAT:316.000;
#SONGFILENAME:Songs/Games/GuiltyGearX/GGXMay.sm;
#HASMUSIC:1;
#HASBANNER:1;
#MUSICLENGTH:108.227;
// end cache tags

//---------------dance-single - BASIC----------------
#NOTES:
     dance-single:
     BASIC:
     Easy:
     4:
     0.240,0.328,0.166,0.000,0.000,164.000,18.000,0.000,0.000,0.000:



0000
0000
0000
0000
,
0000
0000
0000
0000
,
0000
0000
0000
0000
,
0000
0000
0000
0000
,
0000
0000
0000
0000
,
0000
0000
1001
0000
,
0100
0000
0100
0000
,
0010
0000
0010
0000
,
0001
0000
0001
0000
,
1000
0000
1000
0001
,
1001
0000
0001
0000
,
0100
0000
1000
0000
,
0010
0000
0100
0000
0110
0000
0000
0100
,
0100
0000
0100
0000
,
0010
0000
0100
0000
,
1000
0000
1000
0000
,
1000
1000
1001
0000
,
0001
0000
0001
0000
,
0001
0001
1001
0000
,
1001
0000
1000
0001
,
1000
0000
0001
0000
1000
0000
0001
0001
,
0000
0000
1000
0000
,
1000
0000
1000
0000
,
0010
0000
0010
0000
,
0010
0000
1001
0000
,
0100
0000
0100
0000
,
1000
0000
0001
0000
,
1000
0000
0001
0000
,
0000
0001
0001
0000
0010
0000
0000
0000
,
0100
0000
0010
0000
,
0100
0000
1000
0000
,
0001
0000
1000
0000
,
0001
0000
1001
0000
,
1000
0000
0010
0000
,
1000
0000
0001
0000
,
0100
0000
0001
0000
,
0100
0000
0000
0001
1000
0000
0000
0000
,
0100
0000
0100
0000
,
0010
0000
1000
0000
,
0001
0000
0010
0000
,
1000
0000
0100
0000
,
0001
0000
0100
0000
,
0010
0000
1000
0000
,
0100
0000
0001
0000
,
1000
0000
0100
0000
,
0010
0000
0110
0000
,
1001
0000
1001
0000
,
0110
0000
1000
0000
,
0010
0000
0001
0000
,
0100
0000
0010
0000
,
0100
0000
1001
0000
,
0010
0000
0010
0000
,
0100
0000
0100
0000
,
0010
0000
0000
0000
0010
0000
0010
0010
,
0010
0000
0100
0000
,
1000
0000
0010
0000
,
0001
0000
1000
0000
,
0001
0000
1001
0000
,
0100
0000
0100
0000
,
0010
0000
0010
0000
,
0001
0000
0001
0000
,
1000
0000
1000
0000
,
1001
0000
0110
0000
,
1001
0000
0100
0000
,
1000
0000
0001
0000
,
0010
0000
0001
0000
,
1000
0000
1000
0000
,
0100
0000
0100
0000
,
0010
0000
0010
0000
,
1000
0000
1000
0000
,
0001
0000
0000
0000
0001
0000
0000
0100
,
0100
0000
0010
0000
,
0001
0000
0100
0000
,
1000
0000
0100
0000
,
0001
0000
0010
0000
,
0100
0000
0001
0000
,
1000
0000
0001
0000
,
1000
0000
0010
1000
,
0001
0100
0100
0100
,
0110
0000
0000
0000;

//---------------dance-single - ANOTHER----------------
#NOTES:
     dance-single:
     ANOTHER:
     Medium:
     6:
     0.374,0.438,0.351,0.000,0.000,245.000,38.000,0.000,0.000,0.000:



0000
0000
0000
0000
,
0000
0000
0000
0000
,
0000
0000
0000
0000
,
0000
0000
0000
0000
,
0000
0000
0000
0000
0000
0000
0001
1000
,
0001
1001
0110
0000
,
0100
0010
0100
0000
,
1000
1000
0001
0000
,
0010
0001
0010
0000
,
0100
0100
0001
0110
,
1001
0000
1000
1000
,
0001
0001
0010
0100
,
1000
0000
0001
0000
0110
0000
0001
1000
,
0001
0000
0010
0100
,
0001
0010
0001
0000
,
1000
0001
0100
0001
,
1000
0000
1001
0100
,
0100
0010
0010
0100
,
0100
0110
0001
0001
,
0001
1000
1000
1000
,
0010
0000
0100
0000
1001
0000
0000
1001
,
1001
0000
0010
1000
,
0100
0010
0001
1010
,
0000
1000
0010
1000
,
0001
0010
0011
0000
,
0001
1000
0001
0100
,
0010
0001
1000
0100
,
0010
0001
0010
0100
,
0000
1001
0000
0000
0010
0000
0000
0000
,
0100
0000
0010
0010
,
0010
0000
0001
0000
,
0001
0000
1000
0100
,
0010
1000
0001
0100
,
0000
1001
0010
1001
,
0100
0110
0010
1001
,
0100
0110
1001
0000
,
1000
0000
0000
0010
0100
0000
0000
0000
,
0101
0000
0100
0000
,
0010
0001
1000
0000
,
0001
0000
0010
0010
,
0010
0000
0100
0000
,
0001
0000
0100
0000
,
1000
1000
1000
0000
,
0100
0000
0001
0000
,
0001
0001
1000
1000
,
0000
0010
0110
1000
,
0110
0001
1001
0100
,
1001
0000
1000
0000
,
0010
0000
0001
0000
,
0100
0110
0010
0000
,
0100
0000
1001
0000
,
1000
0001
0100
0000
,
0100
0000
0100
0010
,
0001
0000
1001
0000
1000
0000
0010
0100
,
0010
0000
0100
0010
,
1000
0000
0010
0100
,
0001
0000
1000
0001
,
0001
0000
0001
1000
,
0100
0000
0100
0100
,
0010
0000
0010
0001
,
0001
0000
0001
1000
,
1000
0000
1000
0000
,
1010
0010
0011
0100
,
1001
0000
1000
0100
,
1000
0000
1000
0010
,
0010
0000
0001
0100
,
0001
0000
0010
0001
,
0100
1000
0001
1001
,
0001
0000
0010
0100
,
1000
0000
0010
0001
,
0010
0000
0000
0000
1001
0000
0000
0010
,
0100
0010
0001
0100
,
0001
1000
0010
0100
,
0001
1000
0001
0010
,
0100
1000
0001
0010
,
0001
1001
0100
1001
,
0010
1001
0100
0110
,
1000
0110
0001
0110
,
0000
0000
0000
0001
1000
0001
1000
0001
,
0100
0000
0000
0000;

//---------------dance-single - MANIAC----------------
#NOTES:
     dance-single:
     MANIAC:
     Hard:
     8:
     0.506,0.547,0.379,0.000,0.000,342.000,41.000,0.000,0.000,0.000:

0000
0000
0000
0000
,
0000
0000
0000
0000
,
0000
0000
0000
0000
,
0000
0000
0000
0000
,
0000
0000
0000
0000
0000
0000
1000
0001
,
1000
0001
1000
0001
0100
0000
1000
0000
,
0100
0000
0100
0100
0010
0000
0100
0000
,
1000
0000
1000
1000
0001
0000
1000
0000
,
0001
0110
0010
0100
,
0001
0001
0001
0000
0001
0000
1000
0000
,
1000
1000
1000
0000
0001
0000
1001
0000
,
0100
0000
0010
0100
0010
0100
0010
0000
,
1000
0000
0100
0000
0001
0000
0000
0110
,
0110
0100
1001
1000
,
1000
0010
0010
0000
1000
0000
0100
0000
,
0010
1000
0010
0000
0011
0000
0010
0000
,
0010
0000
0010
0100
0001
0000
0100
0000
,
0100
0001
0001
0010
,
0010
1001
0010
0110
,
0100
0000
1000
0000
0010
0000
0001
0001
,
1000
1000
1000
0000
1000
0000
0011
0101
,
0000
1000
0010
0001
,
0100
1000
0001
1000
,
0001
0001
0100
0000
1000
0000
1100
0000
,
0001
0110
0001
1001
,
1000
1001
1000
0110
,
1000
0100
0100
1001
,
0001
0010
0001
1000
,
1010
1100
0000
0000
0010
0000
0010
0000
,
0010
0100
0100
0100
,
0001
0000
0001
0001
0001
0000
0011
0000
,
0100
1000
0001
0100
,
1000
0010
0100
1000
,
1000
1000
1000
0000
0001
0000
0001
0000
,
0101
0001
0100
1000
,
0001
0100
0010
0001
,
1000
0000
0000
0110
1001
0000
0100
0000
,
0100
0000
0100
0100
0100
0000
0100
0000
,
0010
0000
0010
0000
1000
1000
1000
0000
,
0001
0001
1100
1000
,
0100
1000
1000
0001
,
0100
0010
0001
0000
0100
0000
0100
0000
,
0010
1000
1000
1000
,
1010
0000
0001
0000
0001
0000
0010
0010
,
0010
0010
0010
0100
0100
0100
0000
0000
,
0000
1000
0100
0010
1000
0001
0100
0010
,
1000
0001
0100
0010
1000
0001
0100
0010
,
1000
0001
0000
0000
1000
0000
0001
0000
,
0010
0100
0001
1000
,
0001
1010
0010
0100
,
0010
0100
0001
0101
,
0001
1000
0001
0100
,
0010
0100
0001
0100
,
1001
0000
0010
0000
1000
0000
1000
0001
,
0010
0000
0100
0001
,
1000
0000
0010
0100
0010
0000
1000
0000
,
0001
0100
1000
0001
,
0010
0010
1001
0110
,
1000
1000
0001
0001
,
0001
0100
0100
0100
,
0010
0010
0010
1000
,
1000
0011
1010
1100
,
0101
0011
1010
1100
,
0101
1001
1000
0001
,
0100
0010
0100
1000
,
0010
0001
0010
1100
,
0010
1000
0100
0100
,
1000
0000
0001
0010
1000
0000
0100
0000
,
0010
0100
1000
0001
,
0010
0101
1000
0001
,
0100
0000
0100
0000
0001
0000
1000
0001
,
0100
0100
1000
0010
,
0001
0100
1000
0001
,
0010
0100
1000
0001
,
1000
0000
1000
0001
1000
0000
0010
0100
,
0010
0000
1000
0001
1000
0000
0010
0100
,
0010
0000
0001
1000
0001
0000
0100
0010
,
0100
0000
0001
1000
0001
0000
0100
0010
,
0100
0000
1000
0001
0010
0100
1000
0001
,
0110
0000
0000
0000;
