#TITLE:Serial Experiments Lain;
#SUBTITLE:- Duvet [Cyberia Remix];
#ARTIST:Jasmine Rodgers;
#TITLETRANSLIT:;
#SUBTITLETRANSLIT:;
#ARTISTTRANSLIT:;
#CREDIT:Anime Toshokan;
#BANNER:Serial Experiments Lain - Duvet [Cyberia Remix].png;
#BACKGROUND:Serial Experiments Lain - Duvet [Cyberia Remix] bg.png;
#LYRICSPATH:;
#CDTITLE:dejiko.png;
#MUSIC:Serial Experiments Lain - Duvet [Cyberia Remix].mp3;
#OFFSET:1.041;
#SAMPLESTART:53.050;
#SAMPLELENGTH:18.900;
#SELECTABLE:YES;
#BPMS:0.000=93.040;
#STOPS:;
#BGCHANGES:;
// cache tags:
#FIRSTBEAT:9.500;
#LASTBEAT:231.000;
#SONGFILENAME:Songs/DDR Anime 5th Mix/Serial Experiments Lain - Duvet [Cyberia Remix]/Serial Experiments Lain - Duvet [Cyberia Remix].sm;
#HASMUSIC:1;
#HASBANNER:1;
#MUSICLENGTH:149.762;
// end cache tags

//---------------dance-single - BASIC----------------
#NOTES:
     dance-single:
     BASIC:
     Easy:
     4:
     0.212,0.231,0.327,0.033,0.000,168.000,49.000,5.000,0.000,0.000:
0000
0000
0000
0000
,
0000
0000
0000
0000
,
0000
0000
0000
0000
0000
0010
0000
0000
,
0000
0001
0000
0000
0000
1000
0000
0000
,
0000
1001
0000
0000
,
0100
0010
0010
1000
,
0010
1010
0010
1000
,
0100
1100
0100
1000
,
2000
3001
0002
1003
,
0100
1001
0001
1000
,
0010
0110
0010
0001
,
0100
0000
1010
0000
0000
0000
0000
0020
,
0000
0000
0000
0000
,
1030
1000
0001
1001
,
0100
1100
0010
0100
,
0001
1100
1000
0100
,
1010
1100
0010
0010
,
0100
1100
0001
1000
,
0001
1001
0010
1000
,
0100
1010
0100
0010
,
0001
0011
1000
1000
,
0010
0000
0000
0100
0000
0000
0000
1001
,
0000
0000
0010
0010
,
1000
0000
0000
0010
0000
0000
0000
0110
,
0000
0000
0100
0100
,
0001
0000
0000
1000
0000
0000
0000
1100
,
0000
0000
0100
0100
,
1000
0000
0000
0001
0000
0000
0000
1100
,
0000
1000
1000
1000
,
1010
1010
0001
0011
,
0011
0000
1000
0100
,
0010
0000
0000
0001
0000
0000
0000
1000
,
0000
0000
0010
0010
,
0010
1001
0010
0010
,
0010
1001
0100
0001
,
1000
0000
1001
0000
0000
0110
0000
0000
,
0000
0000
1000
0100
,
1000
0000
0000
1100
0000
0000
0000
1100
,
0000
0000
0001
0100
,
0001
0000
0000
0101
0000
0000
0000
0101
,
0000
0000
1000
0010
,
1000
0000
0000
1010
0000
0000
0000
1010
,
0000
0000
0010
0001
,
0010
0000
0000
0011
0000
0000
0000
0011
,
0000
0100
0100
0100
,
1001
1001
0100
0110
,
1001
0000
0010
0001
,
0100
0000
0000
1010
0000
0000
0000
1100
,
0000
0000
0010
0010
,
0010
1001
0010
0010
,
0010
1001
0010
0010
,
0100
1001
0100
0100
,
0000
0100
0000
0000
0000
1001
0000
0000
,
0001
1001
0010
0100
,
0010
1010
0010
0010
,
0001
0000
1001
0000
0100
0000
0000
2002
,
0000
0000
0000
0000
,
0000
0000
0000
0000
0000
0003
3000
0000
;

//---------------dance-single - ANOTHER----------------
#NOTES:
     dance-single:
     ANOTHER:
     Medium:
     6:
     0.298,0.308,0.160,0.114,0.037,271.000,24.000,17.000,0.000,0.000:
0000
0000
0000
0000
,
0000
0000
0000
0000
,
0000
0000
0000
0100
0001
0100
0000
0100
,
1000
0100
0000
0100
0010
0100
0000
0100
,
0010
0001
0000
0100
1000
0100
0010
0001
,
0010
1001
0010
1000
,
0100
0001
0100
0000
0010
0000
0100
0000
,
0100
1000
0100
0000
0100
0000
1000
0100
,
0000
0000
0000
0001
0100
0000
1000
0000
,
0001
0100
1000
0000
0010
0000
1000
0001
,
0010
0000
1001
0000
0010
0000
0100
1000
,
0100
0000
1100
0000
0002
0003
2000
3000
,
0002
0003
2000
3000
0002
0003
1000
1000
,
1100
0000
1000
0000
0100
0010
1000
0000
,
0100
0000
1010
0000
0001
0000
1000
0100
,
0010
0000
1010
0000
0001
0000
0010
0001
,
1000
0000
1100
0000
0010
0001
1000
0000
,
1000
0000
0101
0000
0001
0010
1000
0000
,
0001
0000
0110
0000
0010
1000
0010
0000
,
0100
0000
1001
0000
0001
0010
1000
0000
,
0001
0000
1001
0001
0100
0001
0100
0001
,
0010
0000
0000
0010
0000
0000
1002
0000
0000
0000
0000
0000
0000
0000
0103
0000
,
0000
0000
0000
0010
0001
0100
0010
0100
,
1000
0000
0000
0100
0000
0000
0200
0000
0000
0000
0000
0000
0000
0000
0310
0000
,
0000
0000
0000
0010
0100
1000
0001
0010
,
0100
0000
0000
0001
0000
0000
0002
0000
0000
0000
0000
0000
0000
0000
0103
0000
,
0000
0000
0000
0010
0100
1000
0010
0100
,
1000
0000
0000
0010
0000
0000
0020
0000
0000
0000
0000
0000
0000
0000
0130
0000
,
0000
0000
0000
0010
0100
0010
0100
0010
,
0100
0010
0110
0001
1000
0001
1000
0001
,
1001
0000
0000
0001
0100
1000
0100
1000
,
0010
0000
0000
0010
0000
0000
0200
0000
0000
0000
0000
0000
0000
0000
0301
0000
,
0000
0000
0001
1000
,
0010
0100
1001
0000
1000
0000
0001
0000
,
0010
0100
1001
0000
1000
0001
1000
0000
,
0010
0000
1000
0000
1010
0000
0000
0100
0000
0000
0100
0000
0000
0000
0000
0000
,
0000
0000
0000
1000
0100
1000
0001
0010
,
0001
0000
0000
0010
0000
0000
0020
0000
0000
0000
0000
0000
0000
0000
0031
0000
,
0000
0000
0000
0100
0010
0100
1000
0001
,
1000
0000
0000
1000
0000
0000
2000
0000
0000
0000
0000
0000
0000
0000
3100
0000
,
0000
0000
0000
0010
0001
0100
1000
0100
,
0010
0000
0000
0001
0000
0000
0002
0000
0000
0000
0000
0000
0000
0000
0103
0000
,
0000
0000
0000
0100
1000
0100
1000
0001
,
0100
0000
0000
0001
0000
0000
0200
0000
0000
0000
0000
0000
0000
0000
0301
0000
,
0000
0000
0010
0000
0010
0000
0010
0100
,
0010
0100
1001
0000
1000
1000
0001
0001
,
1001
0000
0000
1000
0100
1000
0001
0010
,
1000
0000
0000
1000
0000
0000
0020
0000
0000
0000
0000
0000
0000
0000
1030
0000
,
0000
0100
0010
0100
,
1000
0001
1001
0000
0010
0000
0100
0000
,
0001
1000
1001
0000
0010
0000
0100
0000
,
0001
1000
1001
0000
0010
0001
0010
0000
,
1000
0100
0001
0010
0001
0100
0010
0100
,
0001
1000
0100
0000
0010
0000
0100
0000
,
0010
0100
1001
0000
0010
0000
0010
0000
,
1000
0001
1001
0000
0001
1000
0001
0002
,
0000
2000
0000
0000
0000
0000
0000
0000
,
0000
0000
0000
0000
0000
0003
3000
0000
;

//---------------dance-single - MANIAC----------------
#NOTES:
     dance-single:
     MANIAC:
     Hard:
     8:
     0.363,0.386,0.207,0.093,0.120,336.000,31.000,14.000,0.000,0.000:
0000
0000
0000
0000
,
0000
0000
0000
0000
,
0000
0000
0000
0000
0000
0000
0100
0000
0100
0001
0100
0001
0000
0000
0100
0000
,
0100
1000
0100
1000
0000
0000
0100
0000
0100
0001
1000
0001
0000
0000
0100
0000
,
0100
0000
1000
0001
1000
0000
0100
0000
1000
0000
0100
0000
0010
0000
0001
0000
,
0010
0100
1000
0000
0010
0000
1000
0000
,
0010
0001
1000
0000
0010
0000
0100
0000
,
0001
0100
1000
0000
0100
0000
1000
0100
,
0001
0100
1000
0100
0001
0010
1000
0010
,
0100
0001
1000
0000
0001
0000
1000
0100
,
0010
0100
1001
0000
0010
0000
0100
1000
,
1000
0100
1100
0000
0001
0001
1000
1000
,
0001
0001
1000
1000
0001
0001
1000
1000
,
1001
0000
1000
0000
0100
0010
1000
0001
,
0100
0010
1000
0000
0001
0000
1000
0000
,
0010
0100
1000
0010
0001
0100
0010
0001
,
1000
0000
1100
0000
0010
0001
1000
0000
,
1000
0001
1000
0100
0001
0100
1000
0100
,
0001
0000
0101
0000
0010
1000
0001
0000
,
0001
0100
1000
0010
0001
0100
1000
0010
,
0001
0000
1001
0001
1000
0100
1000
0100
,
0010
0000
0000
0001
0000
0000
1002
0000
0000
0000
0000
0000
1000
0000
1000
0000
,
0003
0000
0000
0010
0001
0100
0010
0100
,
1000
0000
0000
0010
0000
0000
0012
0000
0000
0000
0000
0000
0100
0000
0100
0000
,
0003
0000
0000
0010
0100
0001
1000
0100
,
0010
0000
0000
0001
0000
0000
2100
0000
0000
0000
0000
0000
0001
0000
0001
0000
,
3000
0000
0000
1000
0100
1000
0001
0100
,
0001
0000
0000
0100
0000
0000
0210
0000
0000
0000
0000
0000
0010
0000
0010
0000
,
0300
0000
0000
0000
0000
0100
0010
0100
0000
1000
0000
0100
1000
0000
0010
0010
,
0000
0000
1010
0000
0000
0000
0001
0100
0001
0100
0001
0100
0000
0100
0001
0000
,
0101
0000
0000
0001
0100
0010
0100
1000
,
0100
0000
0000
0001
0000
0000
0201
0000
0000
0000
0000
0000
1000
0000
1000
0000
,
0300
0000
0000
0010
0010
0010
0100
0100
,
0100
0100
1001
0000
1000
1000
1000
0001
,
0001
0001
1001
0000
0010
0001
0010
0100
,
1000
0000
0100
0000
1001
0000
0000
0020
0000
0000
0200
0000
0000
0000
0000
0000
,
0000
0000
0330
1000
0100
1000
0100
0010
,
0001
0000
0000
0100
0000
0000
0021
0000
0000
0000
0000
0000
0100
0000
0100
0000
,
0030
0000
0000
0010
0010
0001
1000
0001
,
0010
0000
0000
1000
0000
0000
1020
0000
0000
0000
0000
0000
0001
0000
0001
0000
,
0030
0000
0000
0010
0100
0100
0010
0010
,
1000
0000
0000
0001
0000
0000
1200
0000
0000
0000
0000
0000
0010
0000
0010
0000
,
0300
0000
0000
0100
0100
0010
0001
1000
,
0100
0000
0000
0001
0000
0000
0201
0000
0000
0000
0000
0000
0010
0000
0010
0000
,
0300
0000
0000
0000
0000
0001
0100
0001
0000
0100
0000
1000
0100
0000
0010
0100
,
0000
0000
1001
0000
0000
0000
0100
1000
0100
1000
0100
0100
0000
0010
0001
0000
,
1001
0000
0000
1000
0100
0010
0001
0010
,
0100
0000
0000
1000
0000
0000
2010
0000
0000
0000
0000
0000
0001
0000
0001
0000
,
3000
0000
0000
0100
0010
0001
0100
1000
,
0100
0001
1001
0000
0100
0001
0100
1000
,
0100
0001
1001
0000
0010
0010
0010
0100
,
0100
0100
1001
0000
0010
0001
0010
0100
,
0000
0100
0000
0110
0000
1001
0010
0100
,
0001
1000
1001
0000
0010
1000
0100
0001
,
0010
0100
1001
0000
0010
0010
0010
1000
,
1000
1000
1001
0000
0010
0100
0001
0002
,
0000
2000
0000
0000
0000
0000
0000
0000
,
0000
0000
0000
0000
0000
0003
3000
0000
;

//---------------dance-single - BEGINNER----------------
#NOTES:
     dance-single:
     BEGINNER:
     Beginner:
     1:
     0.084,0.111,0.020,0.000,0.000,85.000,3.000,0.000,0.000,0.000:
0000
0000
0000
0000
,
0000
0000
0000
0000
,
0000
0000
0000
0000
,
0000
0000
0000
0000
,
0000
0000
0000
0000
,
0100
0000
0010
0000
,
0010
0000
0010
0000
,
0100
0000
0100
0000
,
1000
0000
0001
0000
,
0100
0000
0001
0000
,
0010
0000
0010
0000
,
0100
0000
0000
0000
,
1001
0000
0000
0000
,
1000
0000
0001
0000
,
0100
0000
0010
0000
,
0001
0000
1000
0000
,
0100
0000
0010
0000
,
0100
0000
0001
0000
,
0001
0000
0010
0000
,
0100
0000
0100
0000
,
0001
0000
1000
0000
,
0010
0000
0000
0000
,
0100
0000
0010
0000
,
1000
0000
0000
0000
,
1000
0000
0100
0000
,
0001
0000
0000
0000
,
0001
0000
0100
0000
,
1000
0000
0000
0000
,
0001
0000
1000
0000
,
0010
0000
0001
0000
,
0100
0000
1000
0000
,
0010
0000
0000
0000
,
0100
0000
0010
0000
,
0010
0000
0010
0000
,
0010
0000
0100
0000
,
1000
0000
0000
0000
,
0001
0000
1000
0000
,
1000
0000
0000
0000
,
1000
0000
0001
0000
,
0001
0000
0000
0000
,
0001
0000
1000
0000
,
1000
0000
0000
0000
,
0100
0000
0010
0000
,
0010
0000
0000
0000
,
0100
0000
0100
0000
,
1001
0000
0000
0000
,
1001
0000
0000
0000
,
0100
0000
0100
0000
,
0000
0000
0010
0000
,
0010
0000
0010
0000
,
0010
0000
0010
0000
,
0100
0000
0100
0000
,
0000
0000
0000
0000
,
0001
0000
0010
0000
,
0010
0000
0010
0000
,
0001
0000
0100
0000
;
