#TITLE:Grip;
#SUBTITLE:;
#ARTIST:Stryker;
#TITLETRANSLIT:;
#SUBTITLETRANSLIT:;
#ARTISTTRANSLIT:;
#CREDIT:jammitch!;
#BANNER:Grip.png;
#BACKGROUND:Grip-bg.png;
#LYRICSPATH:;
#CDTITLE:jammitch!.png;
#MUSIC:Grip.mp3;
#OFFSET:-0.037;
#SAMPLESTART:23.974;
#SAMPLELENGTH:12.400;
#SELECTABLE:YES;
#DISPLAYBPM:160.000;
#BPMS:0.000=160.000,60.000=5120.000,116.000=160.000,146.000=5120.000,202.000=160.000,264.000=5120.000,320.000=160.000,382.000=5120.000,438.003=160.000,500.000=5120.000,556.000=160.000;
#STOPS:116.000=0.094
,202.000=0.094
,320.000=0.094
,438.000=0.094
,556.000=0.094
;
#BGCHANGES:;
// cache tags:
#FIRSTBEAT:16.000;
#LASTBEAT:557.250;
#SONGFILENAME:Songs/StepMix 1/Grip/Grip.sm;
#HASMUSIC:1;
#HASBANNER:1;
#MUSICLENGTH:111.072;
// end cache tags

//---------------dance-single - Light----------------
#NOTES:
     dance-single:
     Light:
     Easy:
     3:
     0.197,0.506,0.027,0.000,0.000,150.000,3.000,0.000,0.000,0.000:
0000
0000
0000
0000
,
0000
0000
0000
0000
,
0000
0000
0000
0000
,
0000
0000
0000
0000
,
1001
1000
0000
1000
,
0000
1000
0000
1000
,
1001
1000
0000
1000
,
0001
0001
0001
0001
,
1000
0000
0010
0000
,
1000
0000
0010
0000
,
0100
0000
0001
0000
,
0100
0000
0001
0000
,
1000
0000
0010
0000
,
0100
0000
0001
0000
,
0010
0000
0001
0000
,
0100
0000
0000
0000
,
0000
0000
0000
0000
,
0000
0000
0000
0000
,
0000
0000
0000
0000
,
0000
0000
0000
0000
,
0000
0000
0000
0000
,
0000
0000
0000
0000
,
0000
0000
0000
0000
,
0000
0000
0000
0000
,
0000
0000
0000
0000
,
0000
0000
0000
0000
,
0000
0000
0000
0000
,
0000
0000
0000
0000
,
0000
0000
0000
0000
,
0000
0000
1000
0000
,
0001
0000
0100
0000
,
1000
0000
0001
0000
,
0010
0000
1000
0000
,
0100
0000
0001
0000
,
0010
0000
0001
0000
,
0100
0000
1000
0000
,
0010
0000
0100
0000
,
0000
0000
0000
0000
,
0000
0000
0000
0000
,
0000
0000
0000
0000
,
0000
0000
0000
0000
,
0000
0000
0000
0000
,
0000
0000
0000
0000
,
0000
0000
0000
0000
,
0000
0000
0000
0000
,
0000
0000
0000
0000
,
0000
0000
0000
0000
,
0000
0000
0000
0000
,
0000
0000
0000
0000
,
0000
0000
0000
0000
,
0000
0000
0000
0000
,
0010
0000
1000
0000
,
0001
0000
0100
0100
,
0100
0000
0001
0000
,
0010
0000
0001
0001
,
0001
0000
1000
0000
,
0010
0000
0100
0100
,
0100
0000
0001
0000
,
1000
0000
0010
0010
,
0010
0000
0001
0000
,
1000
0000
0100
0000
,
1000
0000
0010
0000
,
0001
0000
0100
0000
,
0010
0000
0001
0000
,
1000
0000
0100
0000
,
0001
0000
1000
0000
,
0010
0000
0000
0000
,
0000
0000
0000
0000
,
0000
0000
0000
0000
,
0000
0000
0000
0000
,
0000
0000
0000
0000
,
0000
0000
0000
0000
,
0000
0000
0000
0000
,
0000
0000
0000
0000
,
0000
0000
0000
0000
,
0000
0000
0000
0000
,
0000
0000
0000
0000
,
0000
0000
0000
0000
,
0000
0000
0000
0000
,
0000
0000
0000
0000
,
0000
0000
1000
0000
,
0010
0000
1000
0000
,
0100
0100
1000
0000
,
0010
0000
1000
0000
,
0100
0100
0010
0000
,
0001
0000
0100
0000
,
0001
0001
0010
0000
,
0001
0000
0100
0000
,
0010
0010
1000
0000
,
0001
0000
0100
0000
,
0010
0010
1000
0000
,
0001
0000
0100
0000
,
0001
0001
0010
0000
,
0100
0000
1000
0000
,
0001
0001
0100
0000
,
0010
0000
1000
0000
,
0000
0000
0000
0000
,
0000
0000
0000
0000
,
0000
0000
0000
0000
,
0000
0000
0000
0000
,
0000
0000
0000
0000
,
0000
0000
0000
0000
,
0000
0000
0000
0000
,
0000
0000
0000
0000
,
0000
0000
0000
0000
,
0000
0000
0000
0000
,
0000
0000
0000
0000
,
0000
0000
0000
0000
,
0000
0000
0000
0000
,
0000
0000
0000
0000
,
0010
0000
1000
0000
,
0010
0000
0100
0100
,
0100
0000
0001
0000
,
1000
0000
0010
0010
,
0010
0000
0100
0000
,
0001
0000
1000
1000
,
1000
0000
0010
0000
,
0100
0000
0001
0001
,
0001
0000
0100
0000
,
0010
0000
0100
0000
,
0001
0000
1000
0000
,
0100
0000
1000
0000
,
0001
0000
0010
0000
,
1000
0000
0100
0000
,
0001
0000
1000
0000
,
1001
0000
0000
0000
;

//---------------dance-single - Medium----------------
#NOTES:
     dance-single:
     Medium:
     Medium:
     7:
     0.484,0.940,0.090,0.054,0.000,360.000,10.000,6.000,1.000,0.000:
0000
0000
0000
0000
,
0000
0000
0000
0000
,
0000
0000
0000
0000
,
0000
0000
0000
0000
,
0010
0000
0000
1000
0000
0000
0000
0001
,
0000
0000
0000
0100
0000
0010
1000
0100
,
0010
0000
0000
0001
0000
0000
0000
0100
,
0000
0000
0000
0010
0000
1000
0001
0100
,
0010
1000
0001
0000
0001
0000
0001
1000
,
0100
1000
0010
0000
0010
0000
0010
1000
,
0100
0010
0001
0000
0001
0000
0001
0100
,
0010
0100
0001
0000
0001
0000
1000
0010
,
0100
0001
0010
0000
0010
0000
0010
0100
,
1000
0001
0100
0000
0100
0000
0100
0001
,
0010
0001
0100
0000
0100
0000
0100
0001
,
2000
0000
0000
0000
,
0000
0000
0000
0000
,
0000
0000
0000
0000
,
0000
0000
0000
0000
,
0000
0000
0000
0000
,
0000
0000
0000
0000
,
0000
0000
0000
0000
,
0000
0000
0000
0000
,
0000
0000
0000
0000
,
0000
0000
0000
0000
,
0000
0000
0000
0000
,
0000
0000
0000
0000
,
0000
0000
0000
0000
,
0000
0000
0000
0000
,
3000
0000
0001
0000
0001
0010
0100
0010
,
0001
1000
0100
1000
0000
0001
0010
0001
,
0000
0100
0010
0100
0000
0001
0010
0001
,
0010
0100
1000
0010
0000
1000
0100
0010
,
0000
0001
1000
0100
0000
0010
0001
1000
,
0010
0100
0001
0100
0000
0010
1000
0100
,
0000
0010
0001
1000
0000
0010
0100
0010
,
0100
0001
0100
0010
2000
0000
0000
0000
,
0000
0000
0000
0000
,
0000
0000
0000
0000
,
0000
0000
0000
0000
,
0000
0000
0000
0000
,
0000
0000
0000
0000
,
0000
0000
0000
0000
,
0000
0000
0000
0000
,
0000
0000
0000
0000
,
0000
0000
0000
0000
,
0000
0000
0000
0000
,
0000
0000
0000
0000
,
0000
0000
0000
0000
,
0000
0000
0000
0000
,
0000
0000
3000
0001
,
1000
0010
1000
0000
1000
0000
0001
0010
,
0001
0100
0010
0000
0010
1000
0010
0100
,
0010
1000
0001
0000
0001
0000
0010
0001
,
0100
0010
0100
0000
0001
1000
0100
1000
,
0010
0100
0001
0000
0001
0000
1000
0010
,
0100
0010
1000
0000
0001
0010
0100
1000
,
0010
0100
0010
0000
0010
0000
0010
1000
,
0100
0010
0001
0000
0100
0010
0100
0001
,
1000
0010
0100
0000
1001
0000
0010
1000
,
0100
0010
0001
0000
1100
0000
0011
0000
,
1000
0010
0100
0000
0101
0000
0010
1000
,
0001
0010
0100
0000
1001
0000
0110
0000
,
1000
0010
0100
0000
0011
0000
1000
0010
,
0100
0001
1000
0000
1010
0000
0101
0000
,
0010
0100
0001
0000
1100
0000
0010
0001
,
0200
0000
0000
0000
,
0000
0000
0000
0000
,
0000
0000
0000
0000
,
0000
0000
0000
0000
,
0000
0000
0000
0000
,
0000
0000
0000
0000
,
0000
0000
0000
0000
,
0000
0000
0000
0000
,
0000
0000
0000
0000
,
0000
0000
0000
0000
,
0000
0000
0000
0000
,
0000
0000
0000
0000
,
0000
0000
0000
0000
,
0000
0000
0000
0000
,
0300
0010
1000
1000
,
1000
1000
0001
0001
,
0001
0001
0100
0100
,
0010
0010
0100
0100
,
0001
0002
1003
0010
,
1000
0100
1000
0001
,
0100
0010
0100
0001
,
0010
0001
1000
0100
,
1000
0010
0100
0001
,
0010
0001
1000
0010
,
1000
0100
0010
0001
,
0100
0000
0010
0000
0100
0001
0000
0001
,
1000
0010
0100
0010
,
1000
0001
0010
0100
,
1000
0000
0010
0000
0100
0010
1000
0000
,
1000
0001
0100
0001
0020
0000
0000
0000
,
0000
0000
0000
0000
,
0000
0000
0000
0000
,
0000
0000
0000
0000
,
0000
0000
0000
0000
,
0000
0000
0000
0000
,
0000
0000
0000
0000
,
0000
0000
0000
0000
,
0000
0000
0000
0000
,
0000
0000
0000
0000
,
0000
0000
0000
0000
,
0000
0000
0000
0000
,
0000
0000
0000
0000
,
0000
0000
0000
0000
,
0000
0000
0030
1000
,
0001
0100
0001
0000
0001
0000
0001
1000
,
0100
1000
0010
0000
0010
0000
0010
0100
,
0010
1000
0001
0000
0001
0000
0001
0100
,
0010
0100
0001
0000
0001
0000
0001
1000
,
0001
0010
0100
0000
0100
0000
0100
1000
,
0010
0100
0010
0000
0010
0000
0010
1000
,
0001
0100
0001
0000
0001
0000
0001
1000
,
0001
0100
0010
0000
0010
0000
0010
1000
,
0001
0100
0001
0000
0010
0000
0001
0100
,
0001
1000
0100
0000
0010
0001
0100
0010
,
1000
0001
0100
0000
0010
0000
1000
0100
,
1000
0010
0100
0000
0001
0010
0001
0100
,
0010
1000
0001
0000
0100
0000
0001
0010
,
0100
1000
0010
0000
0100
0001
1000
0100
,
1000
0010
0100
0000
0001
0000
0010
0100
,
2000
0000
0000
0000
,
0000
0000
0000
0000
,
0000
0000
0000
0000
,
0000
0000
0000
0000
,
0000
0000
0000
0000
,
0000
0000
0000
0000
,
0000
0000
0000
0000
,
0000
0000
0000
0000
,
0000
0000
0000
0000
,
0000
0000
0000
0000
,
0000
0000
0000
0000
,
0000
0000
0000
0000
,
0000
0000
0000
0000
,
0000
0000
0000
0000
,
3000
000M
0000
0000
;

//---------------dance-single - Hard----------------
#NOTES:
     dance-single:
     Hard:
     Hard:
     9:
     0.675,1.000,0.000,0.000,0.554,525.000,0.000,0.000,3.000,0.000:
0000
0000
0000
0000
,
0000
0000
0000
0000
,
0000
0000
0000
0000
,
0000
0000
0000
0000
,
0010
0000
1000
0001
0000
0000
1000
0100
,
0000
0000
1000
0010
0000
0100
0001
1000
,
0100
0000
0010
0001
0000
0000
1000
0010
,
0100
0000
0100
0001
0000
0010
0100
1000
,
0010
0000
0100
0000
0010
0000
1000
0100
0000
0010
0000
0000
0010
0000
0001
0000
,
0100
0000
0010
0000
0100
0000
0001
1000
0000
0010
0000
0000
0010
0000
0100
0000
,
0001
0000
1000
0000
0100
0000
0010
0001
0000
0100
0000
0000
0100
0000
0010
0000
,
1000
0000
0001
0000
0100
0000
0010
1000
0000
0100
0000
0000
0100
0000
0010
0000
,
0001
0000
0100
0000
0010
0000
1000
0100
0000
0010
0000
0000
0010
0000
0001
0000
,
0100
0000
0010
0000
0100
0000
0001
1000
0000
0100
0000
0000
0100
0000
0010
0000
,
0100
0000
1000
0000
0010
0000
0100
0001
0000
0010
0000
0000
0010
0000
0100
0000
,
1000
0000
0000
0000
,
0000
0000
0000
0000
,
0000
0000
0000
0000
,
0000
0000
0000
0000
,
0000
0000
0000
0000
,
0000
0000
0000
0000
,
0000
0000
0000
0000
,
0000
0000
0000
0000
,
0000
0000
0000
0000
,
0000
0000
0000
0000
,
0000
0000
0000
0000
,
0000
0000
0000
0000
,
0000
0000
0000
0000
,
0000
0000
0000
0000
,
0000
0000
0000
0000
0001
1000
0000
0000
0010
0000
1000
0000
0010
0000
0000
0010
,
0000
1000
0000
0001
0100
0000
0010
0000
1000
0000
0001
0000
0010
0000
0000
0010
,
0000
0001
0000
1000
0100
0000
0010
0000
0001
0000
0100
0000
0010
0000
0000
0010
,
0000
0100
0000
0001
1000
0000
0010
0000
0100
0000
0001
0000
0010
0000
0000
0010
,
0000
0001
0000
1000
0100
0000
0010
0000
0001
0000
0100
0000
0010
0000
0000
0010
,
0000
1000
0000
0100
1000
0000
0010
0000
0100
0000
0001
0000
0010
0000
0000
0010
,
0000
0100
0000
1000
0001
0000
0100
0000
0010
0000
1000
0000
0001
0000
0000
0001
,
0000
1000
0000
0100
0010
0000
0001
0000
0100
0000
0000
0000
0000
0000
0000
0000
,
0000
0000
0000
0000
,
0000
0000
0000
0000
,
0000
0000
0000
0000
,
0000
0000
0000
0000
,
0000
0000
0000
0000
,
0000
0000
0000
0000
,
0000
0000
0000
0000
,
0000
0000
0000
0000
,
0000
0000
0000
0000
,
0000
0000
0000
0000
,
0000
0000
0000
0000
,
0000
0000
0000
0000
,
0000
0000
0000
0000
,
0000
0000
0000
0000
0000
0000
0000
0000
0000
0000
0000
0000
0001
1000
0000
0000
,
0010
0000
1000
0000
0001
0000
0000
0001
0000
0100
0000
0010
1000
0000
0001
0000
,
0100
0000
0010
0000
0100
0000
0001
0000
1000
0010
1000
0000
0001
0000
0100
0000
,
0001
0000
0010
0000
0100
0000
0000
0100
0000
1000
0000
0001
0100
0000
0010
0000
,
1000
0000
0001
0000
0100
0000
0010
0000
1000
0100
1000
0000
0001
0000
0100
0000
,
0010
0000
1000
0000
0001
0000
0000
0001
0000
1000
0000
0001
0100
0000
0010
0000
,
1000
0000
0100
0000
1000
0000
0001
0000
0010
0100
0010
0000
0001
0000
1000
0000
,
0100
0000
0010
0000
0001
0000
0000
0001
0000
1000
0000
0001
0100
0000
0010
0000
,
0100
0000
0001
0000
1000
0000
0001
0000
1000
0010
1000
0000
0100
0000
0010
0000
,
0001
0000
0100
0000
0010
0000
1000
0001
0000
0100
0000
0001
1000
0000
0010
0000
,
0100
0000
0001
0000
0010
0000
0001
1000
0000
0100
0000
1000
0001
0000
1000
0000
,
0010
0000
0100
0000
0001
0000
1000
0100
0000
0010
0000
0100
1000
0000
0001
0000
,
0100
0000
0010
0000
1000
0000
0001
0010
0000
0100
0000
0010
0001
0000
0100
0000
,
0010
0000
1000
0000
0001
0000
0010
0100
0000
1000
0000
0100
0010
0000
0001
0000
,
1000
0000
0010
0000
0100
0000
0001
0010
0000
0100
0000
0010
0001
0000
0100
0000
,
0010
0000
1000
0000
0001
0000
1000
0100
0000
0010
0000
0100
1000
0000
0001
0000
,
0100
0000
0000
0000
,
0000
0000
0000
0000
,
0000
0000
0000
0000
,
0000
0000
0000
0000
,
0000
0000
0000
0000
,
0000
0000
0000
0000
,
0000
0000
0000
0000
,
0000
0000
0000
0000
,
0000
0000
0000
0000
,
0000
0000
0000
0000
,
0000
0000
0000
0000
,
0000
0000
0000
0000
,
0000
0000
0000
0000
,
0000
0000
0000
0000
,
0000
0000
0000
0000
0001
1000
0000
0000
0010
0000
1000
0000
0010
0000
1000
0000
,
0100
1000
0100
1000
0010
0100
0010
0100
,
0001
0010
0001
0010
0001
1000
0100
1000
,
0010
0100
0010
1000
0001
0010
0100
0010
,
0001
1000
0010
0100
0010
1000
0100
1000
,
0001
0010
1000
0010
0001
0100
0010
0100
,
0001
1000
0100
0001
0100
1000
0010
0100
,
0010
1000
0001
0010
0100
0001
0100
1000
,
0010
0000
0000
0100
0000
0000
0010
0000
1000
0000
0001
0000
0100
0000
0000
0010
0000
0000
1000
0000
0000
0100
0000
0000
,
1000
0010
0100
1000
0100
0001
0010
0001
,
0100
0010
0100
0001
0010
1000
0010
0001
,
0100
0010
0100
0001
0010
0100
M000
0010
,
0100
1000
0001
0100
0010
0100
0001
0010
,
0001
1000
0010
0100
0010
1000
0001
0010
,
0100
0000
1000
0000
0010
0000
0100
0000
0010
0000
1000
0000
0001
0000
0010
0100
,
0000
1000
0000
0010
0100
0000
0001
0000
0100
0000
0000
0000
0000
0000
0000
0000
,
0000
0000
0000
0000
,
0000
0000
0000
0000
,
0000
0000
0000
0000
,
0000
0000
0000
0000
,
0000
0000
0000
0000
,
0000
0000
0000
0000
,
0000
0000
0000
0000
,
0000
0000
0000
0000
,
0000
0000
0000
0000
,
0000
0000
0000
0000
,
0000
0000
0000
0000
,
0000
0000
0000
0000
,
0000
0000
0000
0000
,
0000
0000
0000
0000
0000
0000
0000
0000
0000
0000
0000
0000
0001
1000
0000
0000
,
0100
0000
1000
0000
0010
0000
0000
0010
0000
0100
0000
0001
1000
0000
0100
0000
,
0010
0000
0001
0000
0100
0000
0000
0100
0000
0001
0000
1000
0010
0000
0100
0000
,
0001
0000
1000
0000
0010
0000
0000
0010
0000
0100
0000
0001
0100
0000
0010
0000
,
1000
0000
0100
0000
0010
0000
0000
0010
0000
0001
0000
1000
0100
0000
1000
0000
,
0010
0000
0100
0000
0010
0000
0000
0010
0000
1000
0000
0001
0100
0000
0010
0000
,
1000
0000
0001
0000
0100
0000
0000
0100
0000
0010
0000
1000
0001
0000
0100
0000
,
0010
0000
1000
0000
0001
0000
0000
0001
0000
0010
0000
0001
0100
0000
0010
0000
,
1000
0000
0001
0000
0100
0000
0000
0100
0000
0010
0000
0100
0001
0000
1000
0000
,
0001
0000
0100
0000
0010
0000
0100
0001
0000
1000
0000
0100
0010
0000
0001
0000
,
0100
0000
0010
0000
1000
0000
0001
0000
1000
0100
1000
0000
0010
0000
0100
0000
,
0001
0000
0010
0000
0001
0000
1000
0010
0000
0100
0000
0001
0010
0000
0100
0000
,
1000
0000
0010
0000
0100
0000
0010
1000
0000
0100
0000
1000
0001
0000
0100
0000
,
0010
0000
1000
0000
0001
0000
0010
0100
0000
1000
0000
0001
0100
0000
0010
0000
,
1000
0000
0001
0000
0100
0000
0001
0000
1000
0100
1000
0000
0001
0000
0100
0000
,
0001
0000
1000
0000
0010
0000
0100
0001
0000
1000
0000
0100
0010
0000
0001
0000
,
0100
0000
0000
0000
,
0000
0000
0000
0000
,
0000
0000
0000
0000
,
0000
0000
0000
0000
,
0000
0000
0000
0000
,
0000
0000
0000
0000
,
0000
0000
0000
0000
,
0000
0000
0000
0000
,
0000
0000
0000
0000
,
0000
0000
0000
0000
,
0000
0000
0000
0000
,
0000
0000
0000
0000
,
0000
0000
0000
0000
,
0000
0000
0000
0000
,
0000
0000
0000
0000
000M
M000
0000
0000
0000
0000
0000
0000
0000
0000
0000
0000
;

//---------------dance-single - Expert----------------
#NOTES:
     dance-single:
     Expert:
     Challenge:
     12:
     1.000,1.000,0.027,0.000,1.000,807.000,3.000,0.000,13.000,0.000:
0000
0000
0000
0000
,
0000
0000
0000
0000
,
0000
0000
0000
0000
,
0000
0000
0000
0000
,
0010
0000
0000
0000
1000
0000
1001
0000
0000
0000
0000
0000
1000
0000
0001
1000
,
0001
0000
0000
0000
0010
0000
0000
0000
0010
0000
0000
0000
0010
0001
0010
0001
,
1000
0000
0010
0100
0010
0000
1000
0100
1000
0000
0001
0100
0001
0000
1000
0100
,
1000
0000
0000
0000
1000
0000
0010
1000
0010
0000
0100
0000
0001
0010
0001
0010
,
0001
0000
1000
0000
0010
0000
0100
0001
0000
0010
0000
0001
1000
0000
0100
0000
,
0010
0000
0001
0000
0100
0000
0010
1000
0000
0001
0000
0010
1000
0000
0010
0000
,
0001
0000
0100
0000
0010
0000
1000
0100
0000
0001
0000
0100
1000
0000
0010
0000
,
0100
0000
0001
0000
1000
0000
0010
0100
0000
1000
0000
0100
0001
0000
1000
0000
,
0010
0000
0100
0000
1000
0000
0100
0001
0000
0010
0000
1000
0010
0000
0001
0000
,
0100
0000
0010
0000
1000
0000
0100
0010
0000
1000
0000
0010
0100
0000
0001
0000
,
0100
0000
1000
0000
0010
0000
0100
1000
0000
0100
0000
0001
0010
0000
0100
0000
,
1000
0000
0000
0000
,
0000
0000
0000
0000
,
0000
0000
0000
0000
,
0000
0000
0000
0000
,
0000
0000
0000
0000
,
0000
0000
0000
0000
,
0000
0000
0000
0000
,
0000
0000
0000
0000
,
0000
0000
0000
0000
,
0000
0000
0000
0000
,
0000
0000
0000
0000
,
0000
0000
0000
0000
,
0000
0000
0000
0000
,
0000
0000
0000
0000
,
0000
0000
0000
0000
1000
0001
0000
0000
1000
0010
0100
0010
1000
0000
0001
0100
,
0000
0010
1000
0000
0001
0100
0010
0100
0001
1000
0100
1000
0001
0000
0010
0100
,
0000
0000
0000
1000
0000
0000
0010
0000
0000
0000
0000
0000
1000
0000
0001
0000
1000
0000
0001
0000
1000
0000
0001
0000
0010
0000
0000
0100
0000
0000
0010
0000
0000
0001
0000
0000
0100
0000
0000
0000
0000
0000
0010
0000
0000
1000
0000
0000
,
0000
0001
0100
0000
0010
1000
0001
1000
0100
0010
0100
1000
0010
0000
0100
0001
,
0000
1000
0100
0000
0010
0001
1000
0010
0100
0001
1000
0001
0010
0000
0100
1000
,
0000
0010
0100
0000
0001
1000
0100
1000
0010
0100
0010
1000
0100
0000
0010
0001
,
0000
0000
0000
1000
0000
0000
0100
0000
0000
0000
0000
0000
0010
0000
0001
0000
0010
0000
0001
0000
0010
0000
0001
0000
0010
0000
0000
0100
0000
0000
1000
0000
0000
0100
0000
0000
0010
0000
0000
0000
0000
0000
0001
0000
0000
0100
0000
0000
,
0000
0010
1000
0000
0010
0100
0001
0100
0010
0000
0000
0000
0000
0000
0000
0000
,
0000
0000
0000
0000
,
0000
0000
0000
0000
,
0000
0000
0000
0000
,
0000
0000
0000
0000
,
0000
0000
0000
0000
,
0000
0000
0000
0000
,
0000
0000
0000
0000
,
0000
0000
0000
0000
,
0000
0000
0000
0000
,
0000
0000
0000
0000
,
0000
0000
0000
0000
,
0000
0000
0000
0000
,
0000
0000
0000
0000
,
0000
0000
0000
0000
0000
0000
0000
0000
0000
0000
0000
0000
1000
0001
0000
0000
,
1000
0010
1000
0001
0100
0000
0001
0010
0000
0100
1000
0000
0010
0100
0010
1000
,
0100
1000
0010
0100
0001
0000
0001
0100
0010
1000
0001
0010
0100
1000
0010
0100
,
0001
0010
0001
0100
0010
0000
1000
0100
0000
0010
0001
0000
0100
0010
0100
0001
,
0010
0000
0000
0100
0000
0000
0010
0000
0000
0001
0000
0000
0100
0000
0000
0000
0000
0000
0100
0000
0000
0010
0000
0000
1000
0000
0000
0001
0000
0000
1000
0000
0000
0100
0000
0000
0010
0000
0001
0000
0010
0000
0001
0000
0010
0000
0001
0000
,
1000
0010
0100
0010
1000
0000
0001
0100
0000
0010
1000
0000
0001
0100
0010
0100
,
0001
0010
0100
1000
0010
0000
0100
0001
0010
0001
1000
0100
0010
0001
0100
0010
,
1000
0001
0010
0001
0100
0000
0010
1000
0000
0001
0100
0000
0010
1000
0100
1000
,
0001
0000
0100
0010
0000
1000
0100
0010
0100
1000
0010
0100
0001
1000
0010
0100
,
0010
1000
0100
1000
0001
0000
0010
0100
0000
1000
0010
0000
0100
0001
0100
0010
,
1000
0100
1000
0010
0100
0000
0001
0010
0001
0100
0010
1000
0001
0100
0010
0100
,
0001
0010
0001
1000
0100
0000
0010
0001
0000
0100
0010
0000
1000
0001
0100
0001
,
0010
0000
0000
0001
0000
0000
0100
0000
0000
0010
0000
0000
1000
0000
0000
0000
0000
0000
0100
0000
0000
0010
0000
0000
0001
0000
0000
0100
0000
0000
0010
0000
0000
0100
0000
0000
0001
0000
1000
0000
0001
0000
1000
0000
0001
0000
1000
0000
,
0100
0010
0001
0010
0100
0000
1000
0001
0000
0010
0100
0000
1000
0010
0100
0010
,
1000
0001
0010
0100
0010
0000
0001
0100
0010
1000
0100
1000
0010
0100
0001
1000
,
0100
0010
0001
1000
0010
0000
0100
0001
0000
1000
0100
0000
0010
0001
0100
0010
,
0100
0000
0000
0000
,
0000
0000
0000
0000
,
0000
0000
0000
0000
,
0000
0000
0000
0000
,
0000
0000
0000
0000
,
0000
0000
0000
0000
,
0000
0000
0000
0000
,
0000
0000
0000
0000
,
0000
0000
0000
0000
,
0000
0000
0000
0000
,
0000
0000
0000
0000
,
0000
0000
0000
0000
,
0000
0000
0000
0000
,
0000
0000
0000
0000
,
0000
0000
0000
0000
1000
0001
0000
0000
1000
0010
1000
0000
0001
0100
0001
0000
,
1000
0100
1000
0000
0001
0010
0001
0000
0100
0010
0100
0000
0001
0010
0001
0000
,
1000
0010
1000
0010
0100
0010
0100
0000
0001
0010
0001
0000
1000
0100
1000
0000
,
0010
0100
0010
0000
1000
0100
1000
0000
0001
0010
0001
0000
0100
0010
0100
0000
,
0001
0000
0000
1000
0000
0000
0001
0000
0000
1000
0000
0000
0001
0000
0100
0000
0001
0000
0100
0000
0001
0000
0100
0000
0010
0000
0000
1000
0000
0000
0001
0000
0000
0000
0000
0000
0010
0000
0000
0100
0000
0000
1000
0000
0000
0000
0000
0000
,
0010
0100
0001
0000
1000
0010
0100
0000
0001
0010
0100
0000
1000
0001
0100
0000
,
0010
1000
0100
1000
0001
0010
0100
0000
1000
0010
0100
0000
0001
1000
0100
0000
,
1000
0010
0100
0000
0001
1000
0100
0000
0010
0001
1000
0000
0010
0100
0001
0000
,
1000
0000
0000
0010
0000
0000
0100
0000
0000
0001
0000
0000
1000
0000
0000
0000
1001
0000
0000
0000
0101
0000
0000
0000
0100
0000
0000
0010
0000
0000
1000
0000
0000
0000
0000
0000
0001
0000
0000
0100
0000
0000
0010
0000
0000
0000
0000
0000
,
1000
0001
0100
0000
0010
1000
0010
0000
0100
0001
1000
0000
0100
0010
0001
0000
,
1000
0100
1000
0001
0100
0010
0100
0000
0001
0010
0001
0000
1000
0010
0100
0000
,
0001
1000
0100
0000
0010
0001
0010
0000
0100
0000
1000
000M
00M0
000M
1000
0010
,
0000
0100
0001
1000
0100
0010
0100
1000
0001
0010
0001
0000
1000
0010
0100
0000
,
0001
1000
0100
0000
0010
0001
0010
0000
0100
1000
0001
0000
0100
0010
0100
0000
,
0001
1000
0010
0100
0010
1000
0100
0000
0010
0001
0010
0001
0100
0000
0010
1000
,
0000
0001
0010
0000
0100
1000
0001
1000
0100
0000
0000
0000
0000
0000
0000
0000
,
0000
0000
0000
0000
,
0000
0000
0000
0000
,
0000
0000
0000
0000
,
0000
0000
0000
0000
,
0000
0000
0000
0000
,
0000
0000
0000
0000
,
0000
0000
0000
0000
,
0000
0000
0000
0000
,
0000
0000
0000
0000
,
0000
0000
0000
0000
,
0000
0000
0000
0000
,
0000
0000
0000
0000
,
0000
0000
0000
0000
,
0000
0000
0000
0000
0000
0000
0000
0000
0000
0000
0000
0000
1000
0001
0000
0000
,
1000
0010
0100
0010
1000
0000
0001
0100
0000
0001
0010
0000
0100
1000
0001
0010
,
0001
0100
0010
1000
0100
0000
0010
0001
0000
1000
0010
0000
0100
000M
0100
0010
,
0100
0001
1000
0100
1000
0000
0010
0100
0000
0010
1000
0000
0001
0100
0010
0100
,
0001
0000
0000
M000
0000
0000
0100
0000
0000
M000
0000
0000
00M0
0000
0000
0000
0000
0000
0000
0000
0000
010M
0000
0000
0000
0000
0000
010M
0000
0000
M000
0000
0000
0000
0000
0000
0010
0000
1000
0000
0010
0000
1000
0000
0010
0000
1000
0000
,
0001
0000
0000
0100
0000
0000
0010
0000
0000
0100
0000
0000
0001
0000
0000
0000
0000
0000
1000
0000
0000
0010
0000
0000
0000
0000
0000
0100
0000
0000
0001
0000
0000
0000
0000
0000
0100
0000
0010
0000
0100
0000
0010
0000
0100
0000
0010
0000
,
1000
0001
0010
0001
0100
0000
0010
1000
0000
0001
0100
0000
0010
0100
0010
1000
,
0010
0100
0001
0010
0001
0000
1000
0100
0000
1000
0010
0000
0100
00M0
0100
0001
,
0100
0000
0000
0010
0000
0000
1000
0000
0000
0100
0000
0000
1000
0000
0000
0000
0000
0000
0010
0000
0000
0100
0000
0000
0000
0000
0000
0001
0000
0000
1000
0000
0000
0000
0000
0000
0001
0000
0100
0000
0001
0000
0100
0000
0001
0000
0100
0000
,
0001
1000
0100
1000
0010
0000
0100
0001
0000
1000
0100
0000
0010
0001
0100
0010
,
1000
0100
1000
0010
0100
0000
0001
0010
0001
0100
0010
0100
0001
1000
0100
1000
,
0010
0100
0010
1000
0100
0000
0010
0001
0000
1000
0010
0000
0100
0001
0100
0010
,
1000
0000
0000
0100
0000
0000
1000
0000
0000
0010
0000
0000
0100
0000
0000
0000
0000
0000
0001
0000
0000
0010
0000
0000
0000
0000
0000
0100
0000
0000
1000
0000
0000
0000
0000
0000
0001
0000
0100
0000
0001
0000
0100
0000
0001
0000
0100
0000
,
0010
1000
0001
0100
0010
0000
1000
0100
0000
0010
0001
0000
0100
0010
0100
0001
,
1000
0100
1000
0001
0100
0000
0010
1000
0001
0010
0001
0100
0010
0100
0001
0010
,
0001
0100
0010
1000
0100
0000
0010
0001
0000
1000
0010
0000
0100
0001
0100
0010
,
1000
0000
0000
0000
,
0000
0000
0000
0000
,
0000
0000
0000
0000
,
0000
0000
0000
0000
,
0000
0000
0000
0000
,
0000
0000
0000
0000
,
0000
0000
0000
0000
,
0000
0000
0000
0000
,
0000
0000
0000
0000
,
0000
0000
0000
0000
,
0000
0000
0000
0000
,
0000
0000
0000
0000
,
0000
0000
0000
0000
,
0000
0000
0000
0000
,
0000
0000
0000
0000
M000
000M
0000
0000
0000
0000
0000
0000
0000
0000
0000
0000
;
