#TITLE:djurdjevdan;
#SUBTITLE:;
#ARTIST:Jordan Balagot;
#TITLETRANSLIT:;
#SUBTITLETRANSLIT:;
#ARTISTTRANSLIT:;
#CREDIT:;
#BANNER:djurdjevdanthumb.png;
#BACKGROUND:djurdjevdan.png;
#LYRICSPATH:djurdjevdan.lrc;
#CDTITLE:;
#MUSIC:djurdjevdan.mp3;
#OFFSET:-0.080;
#SAMPLESTART:47.997;
#SAMPLELENGTH:12.000;
#SELECTABLE:YES;
#BPMS:0.000=140.000;
#STOPS:;
#BGCHANGES:;
// cache tags:
#FIRSTBEAT:0.000;
#LASTBEAT:183.000;
#SONGFILENAME:Songs/StepMix 1.0/Djurdjevdan/djurdjevdan.sm;
#HASMUSIC:1;
#HASBANNER:1;
#MUSICLENGTH:78.837;
// end cache tags

//---------------dance-single - Copied from----------------
#NOTES:
     dance-single:
     Copied from:
     Medium:
     4:
     0.312,0.377,0.190,0.063,0.000,152.000,15.000,5.000,0.000,0.000:
1000
0000
0000
0000
,
0000
0000
0000
0001
,
1000
0000
0000
0000
,
0000
0000
0000
0001
,
1000
0001
0100
0010
,
1000
0000
0001
0000
0100
0000
0010
0001
,
0010
0001
0100
0010
,
1000
0000
0001
0000
0100
0010
0100
0000
,
1000
0001
0100
0100
,
0010
0001
1000
1000
,
1000
0001
0010
0100
,
0010
0100
1000
1000
,
2002
0000
0000
3003
,
0100
0000
0000
0010
,
0010
0000
0000
0100
,
0100
0000
0000
1000
,
1000
0000
0000
0001
,
0001
0010
0100
1000
,
0100
0001
1000
0010
,
0110
0000
0000
0000
,
1001
0000
0000
0000
,
1000
0000
0100
0000
1000
0000
0100
1000
,
0100
0010
1000
0001
,
0010
0010
0100
0010
,
1000
0000
0001
0000
1000
0000
0001
0010
,
0001
0010
0010
0100
,
1000
0100
1000
0010
,
1001
1001
1001
1001
,
1000
0010
0100
0001
,
0001
0100
0010
1000
,
1000
0010
1000
0010
,
1000
0100
1000
0100
1000
0000
0000
0000
,
0001
0000
0010
0000
0001
0000
0010
0100
,
0010
0001
0010
0100
,
1000
0100
1000
0001
,
0100
0010
0100
0010
0100
0000
0000
0000
,
1000
0100
0000
0000
1000
0100
0000
0000
,
1000
0100
0000
0000
0010
0001
0000
0000
,
1000
0100
0000
0000
1000
0100
0000
0000
,
1002
1000
1000
1003
,
1001
0000
0000
1001
,
1001
0000
0000
1001
,
1001
0100
0001
0100
,
0110
0000
0000
0000
,
0100
0010
0100
0010
,
0220
0000
0000
0330
;

//---------------dance-single - ----------------
#NOTES:
     dance-single:
     :
     Easy:
     2:
     0.232,0.314,0.178,0.114,0.000,105.000,14.000,9.000,0.000,0.000:
0000
0000
0000
0000
,
0000
0000
0000
0000
,
0000
0000
0000
0000
,
0000
0000
0000
0001
,
0001
0000
0000
0000
,
0000
0000
0000
0100
,
0100
0000
0000
0000
,
0000
0000
0000
1000
,
0100
1000
0100
0000
,
0000
0000
0000
0010
,
0001
0010
1000
0000
,
0000
0000
0000
0100
,
2002
0000
0000
0000
,
0000
0000
3003
0010
,
0100
1000
0100
0010
,
1000
0000
0000
0000
,
1000
0000
0010
0000
,
1010
0000
0101
0000
,
0011
0000
1010
0000
,
1000
1000
1000
1000
,
0220
0000
0000
0330
,
1000
0000
0001
0000
,
0010
0000
0100
0000
,
0001
0100
0010
1000
,
1000
0100
1000
0100
,
0011
0000
1100
0000
,
1000
0000
0010
0000
,
1000
0100
1000
0100
,
0010
0001
0010
0001
,
1000
0010
0100
0001
,
0002
0100
0100
0103
,
1000
0010
0100
0010
,
1000
0001
0001
0001
,
2000
0010
0100
0010
,
0100
0100
3100
0000
,
1000
0000
0010
0000
,
1000
0001
0010
0010
,
1000
0000
0001
0000
,
1000
0000
0001
0000
,
0220
0000
0000
0330
,
0110
0000
0000
0010
,
0001
0000
0000
0100
,
0100
0100
0010
0010
,
1001
1001
1001
0000
,
2000
0010
0100
3001
,
1001
0000
0000
0000
;

//---------------dance-single - ----------------
#NOTES:
     dance-single:
     :
     Hard:
     7:
     0.487,0.514,0.457,0.152,0.076,216.000,36.000,12.000,10.000,10.000:
1000
0100
1000
0000
0001
0010
0001
0000
,
0100
1000
0100
0000
0010
0001
0010
0000
,
1000
0100
1000
0000
0010
0001
0010
0000
,
0100
0010
0100
0000
0010
0100
0010
0000
,
1000
M001
001M
01M0
,
1M00
M010
00M1
010M
,
1000
0010
1000
0010
0100
0001
0100
0001
,
0010
0100
1000
0001
,
1001
0001
1000
0000
1010
0010
1000
0000
,
0100
1000
0100
0010
0100
0001
0100
0000
,
0011
1100
0011
1100
,
1001
0000
0110
1001
,
2002
0010
0010
0010
,
3003
0000
0000
1001
,
0110
0000
0000
0011
,
1100
0000
0011
0000
,
1000
0100
1000
0100
1000
0000
0010
0000
,
2000
0200
0000
0300
,
0M10
0200
0000
3301
,
MM00
1000
1000
1000
,
1100
0000
0000
0010
,
1000
0001
1000
0000
0000
0000
0000
0000
,
1000
0100
0010
0000
0000
0001
0000
0001
,
1000
0000
0000
0000
1000
0100
0000
0100
,
1000
0100
0010
0001
,
1100
0011
1001
1001
,
0200
0001
0010
2000
,
0300
3200
0010
0301
,
1000
0001
1000
0001
1000
0010
1000
0010
,
0100
0001
0100
0001
1000
0001
1000
0001
,
1001
0110
1001
0110
,
1001
1001
1001
0000
,
0002
0103
2000
3010
,
1000
0001
0100
0010
,
1100
0011
1100
0011
,
1000
0100
1000
0100
1000
0100
1000
0100
1000
0000
0000
0000
0000
0000
0000
0000
,
1000
1000
0001
0001
1000
1000
0100
0100
,
1000
1000
0001
0001
0100
0100
0010
0000
,
1000
1000
0001
0001
1000
1000
0001
0001
,
2002
0010
0010
3013
,
1011
0000
0000
1111
,
1111
0000
0000
1000
,
0001
0010
0100
0010
,
1000
0100
1000
0010
,
1000
0100
1000
0100
1000
0010
1000
0010
1000
0100
1000
0100
1000
0010
1000
0010
,
1010
0000
0000
0000
;
