#TITLE:Who;
#SUBTITLE:;
#ARTIST:KaW;
#TITLETRANSLIT:;
#SUBTITLETRANSLIT:;
#ARTISTTRANSLIT:;
#CREDIT:;
#BANNER:who.png;
#BACKGROUND:who-bg.png;
#LYRICSPATH:;
#CDTITLE:chao.png;
#MUSIC:Who.mp3;
#OFFSET:0.000;
#SAMPLESTART:77.682;
#SAMPLELENGTH:12.040;
#SELECTABLE:YES;
#BPMS:0.000=140.000,75.000=140.000,90.000=140.000;
#STOPS:;
#BGCHANGES:0.000=who-bg.png=1.000=0=0=1,
99999=-nosongbg-=1.000=0=0=0 // don't automatically add -songbackground-
;
// cache tags:
#FIRSTBEAT:16.250;
#LASTBEAT:223.500;
#SONGFILENAME:Songs/StepMix 1.0/Who/Who.sm;
#HASMUSIC:1;
#HASBANNER:1;
#MUSICLENGTH:95.899;
// end cache tags

//---------------dance-single - E. Holniker----------------
#NOTES:
     dance-single:
     E. Holniker:
     Challenge:
     10:
     0.763,0.728,0.125,0.240,1.000,477.000,12.000,23.000,0.000,16.000:



0000
0000
0000
0000
,
0000
0000
0000
0000
,
0000
0000
0000
0000
,
0000
0000
0000
0000
,
0000
1000
0010
0000
0010
0100
0000
0100
0001
0000
1000
0000
0100
0010
0001
0010
,
0100
0000
1000
0000
1000
0010
0000
0010
0100
0000
0100
0000
0011
0000
0000
0000
,
0000
1000
0100
0000
0100
0010
0000
0010
0001
0000
0010
0000
0100
1000
0010
0100
,
0010
0000
0010
0100
0000
0100
0010
0000
0010
1000
0000
1000
0100
0000
0100
0000
,
0000
0010
0001
0000
0001
0010
0000
0010
0100
0000
1000
0000
0100
0010
0100
0010
,
1000
0000
1000
0000
1000
0010
0000
0010
0100
0000
0100
0000
0001
1000
0100
0010
,
0001
0010
0100
0000
0100
1000
0000
1000
0010
0000
0100
0000
0010
1000
0100
0010
,
0001
0000
0001
0010
0000
0100
1000
0010
0100
0000
0100
0010
0000
0010
1000
0100
,
0010
0001
0010
0000
0100
1000
0000
1000
0010
0000
0100
0000
0010
0100
0010
1000
,
0001
0100
0010
0000
0010
1000
0000
1000
0100
0000
0010
0000
0001
0010
0100
1000
,
0010
0100
0010
0000
0010
0100
0000
0100
0000
0010
1000
0000
0100
0010
0001
0010
,
0100
1000
0010
1000
0000
0010
0100
0000
0100
0010
0000
0010
1000
0000
1000
0100
,
0000
0010
0001
0000
0001
0010
0000
0010
0100
0000
0100
1000
0010
0100
0010
0001
,
0010
0000
0010
0000
0010
1000
0000
1000
0100
0000
0010
0000
0001
0010
0100
1000
,
0010
0100
0010
0000
0010
0100
0000
0100
0010
0000
0010
0000
1000
0100
0010
0100
,
0010
0000
0010
0100
0000
0100
0000
1000
0001
0000
0001
0100
0000
0100
0010
0000
,
0000
0010
1000
0000
1000
0100
0000
0100
0010
0000
0001
0000
0010
0100
1000
0010
,
0100
0000
0100
0000
0010
0001
0000
0001
0010
0000
0100
1000
0100
0010
0001
0010
,
0100
0010
0100
0000
0100
1000
0000
1000
0010
0000
0100
0000
0010
1000
0100
0010
,
0001
0000
0001
0010
0000
0010
0100
0000
0100
1000
0000
1000
0100
0000
0100
0000
,
0000
2020
0000
0000
0000
0000
3030
0000
0002
0200
0000
0000
0000
0010
0000
0000
,
0000
1010
0000
0000
0303
0000
0000
0000
0200
2000
0000
0000
0000
0010
0000
0000
,
0000
0011
0000
0000
3300
0000
0000
0000
0002
2000
0000
0000
0000
0010
0000
0000
,
0000
0110
0000
0000
3003
0000
0000
0000
0002
0020
0000
0000
0000
0100
0000
0000
,
0000
1100
0000
0000
0033
0000
0000
0000
2000
0020
0000
0000
0000
0001
0000
0000
,
0000
0101
0000
0000
3030
0000
0000
0000
0002
0020
0000
0000
0000
1000
0000
0000
,
0000
1100
0000
0000
0033
0000
0000
0000
2000
0020
0000
0000
0000
0100
0030
0000
,
0000
0200
0000
0000
0000
0000
0000
0000
0000
0010
0000
0000
3300
0000
0000
0000
,
0000
0100
0010
0000
0010
1000
0000
1000
0100
0000
0010
0000
0001
0010
0100
1000
,
0010
0000
0010
0000
0010
0100
0000
0100
0010
0000
1000
0000
0101
0000
0000
0000
,
0000
0001
0010
0000
0010
0100
0000
0100
1000
0000
0010
0000
0100
0010
1000
0010
,
0001
0000
0001
0010
0000
0010
0000
0100
0000
0010
0010
1000
0000
1000
0100
0000
,
0000
0001
0010
0000
0010
0100
0000
0100
0001
0000
0001
0000
0100
0010
0100
0010
,
0001
0000
0001
0000
0001
0010
0000
0010
1000
0000
1000
0000
1100
0000
0000
0000
,
0000
0001
0010
0000
0010
0100
0000
0100
1000
0000
0010
0000
0100
0010
0001
0010
,
1000
0000
1000
0100
0000
0100
0010
0000
0010
0100
0000
0100
0001
0000
0001
1000
,
0000
1000
0000
0010
0000
0100
0000
0010
1000
0000
1000
0010
0000
0100
0000
0001
,
0000
1000
0000
0100
0000
0010
0000
0001
0010
0000
0010
0100
0000
1000
0000
0010
,
0000
0100
0000
0010
0000
0100
0000
0001
1000
0000
1000
0001
0000
0100
0000
0010
,
0000
1000
0000
0100
0000
0010
0000
0001
0000
2000
0000
0200
0000
0020
0000
0000
,
3330
0001
0000
1000
0000
0010
0000
0100
0000
0010
0000
1000
0000
0100
0000
0010
,
0000
0100
0000
0001
0000
0100
0000
1000
0000
0001
0000
0100
0000
0010
1000
0100
,
0010
0001
0000
0010
0000
0100
0000
1000
0000
0010
0000
1000
0000
0010
0000
2000
,
0000
0020
0000
0000
0000
0000
0000
0002
0000
0000
0000
0000
0000
0000
3033
0000
,
0000
0100
0010
0000
0010
1000
0000
1000
0100
0000
0010
0000
0001
0010
0100
1000
,
0010
0000
0010
0000
0010
0100
0000
0100
0010
0000
1000
0000
1100
0000
0000
0000
,
0000
0001
0010
0000
0010
0100
0000
0100
0010
0000
0100
0000
1000
0001
0100
0010
,
0100
0000
0100
0010
0000
0010
1000
0000
0100
0000
0100
0010
0000
0010
0001
0000
,
0000
1000
0000
0010
0000
0010
0100
0100
0001
0000
1000
0000
0010
0100
0010
1000
,
0100
0000
0100
0000
0100
0010
0000
0010
0001
0000
0010
0000
1100
0000
0000
0000
,
0000
0001
0100
0000
0100
0010
0000
0010
1000
0000
0100
0000
0010
0001
0010
0100
,
1000
0000
1000
0010
0000
0010
0100
0000
0100
0001
0000
0001
1000
0000
1000
0000
;

//---------------dance-single - E. Holniker----------------
#NOTES:
     dance-single:
     E. Holniker:
     Hard:
     8:
     0.495,0.495,0.240,0.021,1.000,307.000,23.000,2.000,0.000,1.000:






0000
0000
0000
0000
,
0000
0000
0000
0000
,
0000
0000
0000
0000
,
0000
0000
0000
0000
,
0000
1010
0000
0000
0000
0110
0000
0000
0000
1100
0000
0000
0000
0100
0000
0010
,
0000
0001
0000
0010
0000
0110
0000
0000
0000
1010
0000
0000
0000
0110
0000
0000
,
0000
0011
0000
0000
0000
1100
0000
0000
0000
0100
0000
0010
0000
1001
0000
0000
,
0000
1010
0000
0000
0000
0000
0000
0000
0000
0110
0000
0000
0000
0000
0000
0000
,
0000
1000
0000
0100
0000
0010
0000
0001
0000
0010
0000
0100
0000
1000
0000
0010
,
0000
0100
0000
0010
0000
0001
0000
0010
0000
1000
0000
0100
0000
1100
0000
0000
,
0000
0001
0000
0010
0000
0100
0000
1000
0000
0010
0000
0100
0000
0010
0000
0001
,
0000
0010
0000
1000
0000
0100
0000
0010
0000
0100
0000
1000
0000
1010
0000
0010
,
0000
0100
0000
0010
0000
0001
0000
0010
0000
1000
0000
0100
0000
0010
0000
0001
,
0000
0010
0000
0100
0000
1000
0000
0010
0000
0100
0000
0010
0000
0110
0000
0000
,
0000
0100
0000
0001
0000
0100
0000
0010
0000
0100
0000
1000
0000
0010
0000
0100
,
0000
0010
0000
0001
0000
0010
0000
1000
0000
0100
0000
1000
0000
1100
0000
0000
,
0000
0001
0000
1000
0000
0010
0000
0000
0000
0100
0000
0010
0000
1000
0000
0000
,
0000
0100
0000
0010
0000
0001
0000
0010
0000
0100
0000
1000
0000
0010
0000
0000
,
0000
0100
0000
0010
0000
1000
0000
0000
0000
0100
0000
1000
0000
0100
0000
0000
,
0000
0010
0000
0001
0000
0010
0000
0100
0000
1000
0000
0010
0000
0100
0000
0000
,
0000
0010
0000
1000
0000
0100
0000
0000
0000
0010
0000
0001
0000
0010
0000
0000
,
0000
0100
0000
1000
0000
0010
0000
0100
0000
0010
0000
0001
0000
0010
0000
0000
,
0000
1000
0000
0100
0000
0010
0000
0100
0000
0001
0000
0100
0000
1000
0000
0100
,
0000
0010
0000
0100
0000
1000
0000
0100
0000
0010
0000
0100
0000
0001
0000
0000
,
0000
1000
0000
0000
0000
0000
0000
0000
0010
1000
0000
0000
0000
0010
0000
0000
,
0000
0101
0000
0000
0000
0000
0000
0000
0010
0100
0000
0000
0000
0010
0000
0000
,
0000
1100
0000
0000
0000
0000
0000
0000
0001
0010
0000
0000
0000
0100
0000
0000
,
0000
1010
0000
0000
0000
0000
0000
0000
0001
0100
0000
0000
0000
0010
0000
0000
,
0000
1010
0000
0000
0000
0000
0000
0000
0001
0100
0000
0000
0000
0010
0000
0000
,
0000
0110
0000
0000
0000
0000
0000
0000
1000
0100
0000
0000
0000
1100
0000
0000
,
0000
0011
0000
0000
0000
0000
0000
0010
0000
0100
0000
0010
0000
0000
0000
0000
,
0000
2002
0000
0000
0000
0000
0000
0000
0000
0010
0000
0000
0000
3003
0000
0000
,
0000
0100
0010
0000
0000
0010
0000
0000
0000
1000
0000
0000
0000
0100
0000
0000
,
0000
1000
0100
0000
0000
0100
0000
0000
0000
0010
0000
0000
0000
0001
0000
0000
,
0000
0010
0001
0000
0000
0001
0000
0000
0000
0010
0000
0000
0000
0100
0000
0000
,
0000
1000
0010
0000
0000
0010
0000
0000
0000
0100
0000
0000
0000
0001
0000
0000
,
0000
1000
0010
0000
0000
0010
0000
0000
0000
0100
0000
0000
0000
0100
0000
0000
,
0000
1000
0100
0000
0000
0100
0000
0000
0000
0010
0000
0000
0000
0001
0000
0000
,
0000
0010
0001
0000
0000
0001
0000
0000
0000
0100
0000
0000
0000
0010
0000
0000
,
0000
0100
0010
0000
0000
0010
0000
0000
0000
1000
0000
0001
0000
0001
0000
0000
,
0000
0100
0000
0010
0000
1000
0000
0000
0000
0100
0000
0000
0000
0010
0000
0000
,
0000
0001
0000
0010
0000
0100
0000
1000
0000
0010
0000
0000
0000
0100
0000
0000
,
0000
0010
0000
1000
0000
0100
0000
0000
0000
0010
0000
0000
0000
0001
0000
0000
,
0000
0010
0000
0100
0000
1000
0000
0010
0000
0100
0000
0010
0000
0100
0000
0000
,
0000
0001
0000
1000
0000
0100
0000
0000
0000
0010
0000
0001
0000
0010
0000
0000
,
0000
0100
0000
1000
0000
0010
0000
0100
0000
0010
0000
0010
0000
1000
0000
0000
,
0000
0100
0000
0010
0000
0001
0000
0000
0000
0010
0000
0100
0000
1000
0000
0000
,
0000
0010
0000
0100
0000
0010
0000
0100
0000
0100
0000
0001
0000
0010
0000
0000
,
0000
1000
0000
0100
0000
0010
0000
0001
0000
0010
0000
0100
0000
1000
0000
0000
,
0000
0010
0000
0100
0000
0010
0000
0001
0000
0010
0000
1000
0000
0010
0000
0000
,
0000
0100
0000
0010
0000
1000
0000
0100
0000
0010
0000
0100
0000
0001
0000
0100
,
0000
1000
0000
0100
0000
0010
0000
0001
0000
0100
0000
0010
0000
0100
0000
0000
,
0000
0010
0000
1000
0000
0100
0000
0000
0000
1000
0000
0001
0000
0100
0000
0000
,
0000
0010
0000
1000
0000
0100
0000
0010
0000
0100
0000
0001
0000
0100
0000
0000
,
0000
1000
0000
0010
0000
0100
0000
0000
0000
0010
0000
0001
0000
0010
0000
0000
,
0000
1000
0000
0100
0000
0010
0000
0001
0000
0010
0000
0100
0000
1000
0000
0000
;

//---------------dance-single - E. Holniker----------------
#NOTES:
     dance-single:
     E. Holniker:
     Medium:
     4:
     0.255,0.260,0.010,0.021,0.876,168.000,1.000,2.000,0.000,1.000:






0000
0000
0000
0000
,
0000
0000
0000
0000
,
0000
0000
0000
0000
,
0000
0000
0000
0000
,
0000
0010
0000
0000
0000
1000
0000
0000
0000
0100
0000
0000
0000
0010
0000
0000
,
0000
0001
0000
0000
0000
0010
0000
0000
0000
0100
0000
0000
0000
0000
0000
0000
,
0000
0010
0000
0000
0000
0100
0000
0000
0000
0010
0000
0000
0000
1000
0000
0000
,
0000
0100
0000
0000
0000
0000
0000
0000
0000
0100
0000
0000
0000
0000
0000
0000
,
0000
0010
0000
0000
0000
1000
0000
0000
0000
0010
0000
0000
0000
0000
0000
0000
,
0000
0001
0000
0000
0000
0100
0000
0000
0000
0001
0000
0000
0000
0000
0000
0000
,
0000
0010
0000
0000
0000
0100
0000
0000
0000
0010
0000
0000
0000
1000
0000
0000
,
0000
0100
0000
0000
0000
0010
0000
0000
0000
0001
0000
0000
0000
0000
0000
0000
,
0000
1000
0000
0000
0000
0010
0000
0000
0000
1000
0000
0000
0000
0000
0000
0000
,
0000
0001
0000
0000
0000
0100
0000
0000
0000
0001
0000
0000
0000
0000
0000
0000
,
0000
0010
0000
0000
0000
0100
0000
0000
0000
0010
0000
0000
0000
1000
0000
0000
,
0000
0100
0000
0000
0000
0010
0000
0000
0000
0001
0000
0000
0000
0010
0000
0000
,
0000
0100
0000
0000
0000
1000
0000
0000
0000
0100
0000
0000
0000
1000
0000
0000
,
0000
0100
0000
0000
0000
0010
0000
0000
0000
0001
0000
0000
0000
0010
0000
0000
,
0000
0100
0000
0000
0000
1000
0000
0000
0000
0010
0000
0000
0000
0100
0000
0000
,
0000
0010
0000
0000
0000
0100
0000
0000
0000
0001
0000
0000
0000
1000
0000
0000
,
0000
0001
0000
0000
0000
0100
0000
0000
0000
0010
0000
0000
0000
1000
0000
0000
,
0000
0100
0000
0000
0000
0010
0000
0000
0000
0001
0000
0000
0000
0010
0000
0000
,
0000
0100
0000
0000
0000
1000
0000
0000
0000
0010
0000
0000
0000
1000
0000
0000
,
0000
0010
0000
0000
0000
0100
0000
0000
0000
0001
0000
0000
0000
0100
0000
0000
,
0000
0001
0000
0000
0000
1000
0000
0000
0000
0001
0000
0000
0000
0100
0000
0000
,
0000
0010
0000
0000
0000
1000
0000
0000
0000
0100
0000
0000
0000
0010
0000
0000
,
0000
0001
0000
0000
0000
0010
0000
0000
0000
0100
0000
0000
0000
1000
0000
0000
,
0000
0010
0000
0000
0000
0100
0000
0000
0000
0010
0000
0000
0000
1000
0000
0000
,
0000
0010
0000
0000
0000
0001
0000
0000
0000
0010
0000
0000
0000
0001
0000
0000
,
0000
0010
0000
0000
0000
1000
0000
0000
0000
0010
0000
0000
0000
1000
0000
0000
,
0000
0100
0000
0000
0000
0010
0000
0000
0000
0100
0000
0000
0000
0010
0000
0000
,
0000
2002
0000
0000
0000
0000
0000
0000
0000
0010
0000
3003
0000
0000
0000
0000
,
0000
0100
0000
0000
0000
0100
0000
0000
0000
0010
0000
0000
0000
0000
0000
0000
,
0000
0010
0000
0000
0000
0010
0000
0000
0000
1000
0000
0000
0000
0000
0000
0000
,
0000
1000
0000
0000
0000
1000
0000
0000
0000
0100
0000
0000
0000
0000
0000
0000
,
0000
0010
0000
0000
0000
0010
0000
0000
0000
0001
0000
0000
0000
0000
0000
0000
,
0000
0100
0000
0000
0000
0100
0000
0000
0000
0010
0000
0000
0000
0000
0000
0000
,
0000
1000
0000
0000
0000
1000
0000
0000
0000
0100
0000
0000
0000
0000
0000
0000
,
0000
0010
0000
0000
0000
0010
0000
0000
0000
1000
0000
0000
0000
0000
0000
0000
,
0000
0001
0000
0000
0000
0001
0000
0000
0000
0100
0000
0000
0000
0000
0000
0000
,
0000
0010
0000
0000
0000
0010
0000
0000
0000
1000
0000
0000
0000
0000
0000
0000
,
0000
0100
0000
0000
0000
0100
0000
0000
0000
1000
0000
0000
0000
0000
0000
0000
,
0000
0010
0000
0000
0000
0010
0000
0000
0000
0001
0000
0000
0000
0100
0000
0000
,
0000
0100
0000
0000
0000
0010
0000
0000
0000
1000
0000
0000
0000
0000
0000
0000
,
0000
0100
0000
0000
0000
0001
0000
0000
0000
1000
0000
0000
0000
0000
0000
0000
,
0000
0100
0000
0000
0000
0010
0000
0000
0000
0001
0000
0000
0000
0000
0000
0000
,
0000
0010
0000
0000
0000
0100
0000
0000
0000
1000
0000
0000
0000
0010
0000
0000
,
0000
0100
0000
0000
0000
0001
0000
0000
0000
1000
0000
0000
0000
0000
0000
0000
,
0000
0010
0000
0000
0000
0000
0000
0000
0000
0100
0000
0000
0000
0000
0000
0000
,
0000
1000
0000
0000
0000
0000
0000
0000
0000
0001
0000
0000
0000
0000
0000
0000
,
0000
0010
0000
0000
0000
0000
0000
0000
0000
0100
0000
0000
0000
0000
0000
0000
,
0000
1000
0000
0000
0000
0000
0000
0010
0000
0000
0000
0000
0000
0000
0000
0000
,
0000
0100
0000
0000
0000
0000
0000
0001
0000
0000
0000
0000
0000
0000
0000
0000
,
0000
1000
0000
0000
0000
0000
0000
0010
0000
0000
0000
0000
0000
0000
0000
0000
,
0000
0100
0000
0000
0000
0000
0000
1000
0000
0000
0000
0000
0000
0000
0000
0000
,
0000
0010
0000
0000
0000
0000
0000
0100
0000
0000
0000
0000
0000
0000
0000
0000
;

//---------------dance-single - E. Holniker----------------
#NOTES:
     dance-single:
     E. Holniker:
     Easy:
     2:
     0.246,0.233,0.000,0.000,0.860,165.000,0.000,0.000,0.000,0.000:

0000
0000
0000
0000
,
0000
0000
0000
0000
,
0000
0000
0000
0000
,
0000
0000
0000
0000
,
0000
1000
0000
0000
0000
0010
0000
0000
0000
0100
0000
0000
0000
0000
0000
0000
,
0000
0001
0000
0000
0000
1000
0000
0000
0000
0001
0000
0000
0000
0000
0000
0000
,
0000
1000
0000
0000
0000
0010
0000
0000
0000
1000
0000
0000
0000
0010
0000
0000
,
0000
0100
0000
0000
0000
0001
0000
0000
0000
1000
0000
0000
0000
0000
0000
0000
,
0000
1000
0000
0000
0000
0010
0000
0000
0000
1000
0000
0000
0000
0001
0000
0000
,
0000
0100
0000
0000
0000
0010
0000
0000
0000
1000
0000
0000
0000
0000
0000
0000
,
0000
0100
0000
0000
0000
1000
0000
0000
0000
0100
0000
0000
0000
0010
0000
0000
,
0000
0001
0000
0000
0000
0010
0000
0000
0000
0100
0000
0000
0000
0000
0000
0000
,
0000
1000
0000
0000
0000
0010
0000
0000
0000
1000
0000
0000
0000
0000
0000
0000
,
0000
0001
0000
0000
0000
0100
0000
0000
0000
0000
0000
0001
0000
0000
0000
0000
,
0000
0100
0000
0000
0000
0010
0000
0000
0000
0100
0000
0000
0000
0000
0000
0000
,
0000
1000
0000
0000
0000
0100
0000
0000
0000
0010
0000
0000
0000
0001
0000
0000
,
0000
0000
0000
0010
0000
0000
0000
0000
0000
0100
0000
0000
0000
0000
0000
0000
,
0000
1000
0000
0000
0000
0000
0000
0000
0000
0010
0000
0000
0000
0000
0000
0000
,
0000
0100
0000
0000
0000
0000
0000
0000
0000
1000
0000
0000
0000
0000
0000
0000
,
0000
0001
0000
0000
0000
0000
0000
0000
0000
0100
0000
0000
0000
0000
0000
0000
,
0000
0010
0000
0000
0000
0000
0000
0000
0000
1000
0000
0000
0000
0000
0000
0000
,
0000
0100
0000
0000
0000
0000
0000
0000
0000
0010
0000
0000
0000
0000
0000
0000
,
0000
1000
0000
0000
0000
0000
0000
0000
0000
0100
0000
0000
0000
0000
0000
0000
,
0000
1000
0000
0000
0000
0100
0000
0000
0000
0010
0000
0000
0000
0001
0000
0000
,
0000
1000
0000
0000
0000
0001
0000
0000
0000
0001
0000
0000
0000
0001
0000
0000
,
0000
1000
0000
0000
0000
0010
0000
0000
0000
0010
0000
0000
0000
0010
0000
0000
,
0000
0100
0000
0000
0000
0001
0000
0000
0000
0001
0000
0000
0000
0001
0000
0000
,
0000
1000
0000
0000
0000
0010
0000
0000
0000
0010
0000
0000
0000
0010
0000
0000
,
0000
0100
0000
0000
0000
0001
0000
0000
0000
0001
0000
0000
0000
0001
0000
0000
,
0000
1000
0000
0000
0000
0010
0000
0000
0000
0010
0000
0000
0000
0010
0000
0000
,
0000
0100
0000
0000
0000
0001
0000
0000
0000
0001
0000
0000
0000
0001
0000
0000
,
0000
1000
0000
0000
0000
0000
0000
0000
0000
0010
0000
0000
0000
0000
0000
0000
,
0000
1000
0000
0000
0000
1000
0000
0000
0000
0001
0000
0000
0000
0000
0000
0000
,
0000
0100
0000
0000
0000
0100
0000
0000
0000
0010
0000
0000
0000
0000
0000
0000
,
0000
1000
0000
0000
0000
1000
0000
0000
0000
0100
0000
0000
0000
0010
0000
0000
,
0000
0001
0000
0000
0000
0000
0000
0000
0000
1000
0000
0000
0000
0000
0000
0000
,
0000
1000
0000
0000
0000
1000
0000
0000
0000
0010
0000
0000
0000
0000
0000
0000
,
0000
0100
0000
0000
0000
0100
0000
0000
0000
0010
0000
0000
0000
0000
0000
0000
,
0000
1000
0000
0000
0000
0100
0000
0000
0000
0010
0000
0000
0000
0001
0000
0000
,
0000
0010
0000
0000
0000
0000
0000
0000
0000
0010
0000
0000
0000
0100
0000
0000
,
0000
1000
0000
0000
0000
0000
0000
0000
0000
0010
0000
0000
0000
0000
0000
0000
,
0000
1000
0000
0000
0000
0001
0000
0000
0000
1000
0000
0000
0000
0001
0000
0000
,
0000
0100
0000
0000
0000
0000
0000
0000
0000
0100
0000
0000
0000
0000
0000
0000
,
0000
0010
0000
0000
0000
1000
0000
0000
0000
0100
0000
0000
0000
0010
0000
0000
,
0000
1000
0000
0000
0000
0010
0000
0000
0000
0100
0000
0000
0000
0000
0000
0000
,
0000
0001
0000
0000
0000
0001
0000
0000
0000
1000
0000
0000
0000
0000
0000
0000
,
0000
1000
0000
0000
0000
1000
0000
0000
0000
0010
0000
0000
0000
0000
0000
0000
,
0000
0100
0000
0000
0000
0100
0000
0000
0000
1000
0000
0000
0000
0001
0000
0000
,
0000
0100
0000
0000
0000
0010
0000
0000
0000
1000
0000
0000
0000
0000
0000
0000
,
0000
0100
0000
0000
0000
1000
0000
0000
0000
0100
0000
0000
0000
0000
0000
0000
,
0000
0010
0000
0000
0000
0001
0000
0000
0000
0010
0000
0000
0000
0000
0000
0000
,
0000
0100
0000
0000
0000
0010
0000
0000
0000
0100
0000
0000
0000
0000
0000
0000
,
0000
1000
0000
0000
0000
0010
0000
0000
0000
1000
0000
0000
0000
0001
0000
0000
,
0000
0100
0000
0000
0000
0010
0000
0000
0000
1000
0000
0000
0000
0000
0000
0000
,
0000
0100
0000
0000
0000
0010
0000
0000
0000
0001
0000
0000
0000
0010
0000
0000
,
0000
0100
0000
0000
0000
1000
0000
0000
0000
0010
0000
0000
0000
1000
0000
0000
;

//---------------dance-single - E. Holniker----------------
#NOTES:
     dance-single:
     E. Holniker:
     Beginner:
     1:
     0.167,0.173,0.000,0.000,0.584,112.000,0.000,0.000,0.000,0.000:

0000
0000
0000
0000
,
0000
0000
0000
0000
,
0000
0000
0000
0000
,
0000
0000
0000
0000
,
0000
1000
0000
0000
0000
0000
0000
0000
0000
0000
0000
0000
0000
0000
0000
0000
,
0000
0001
0000
0000
0000
0000
0000
0000
0000
0000
0000
0000
0000
0000
0000
0000
,
0000
1000
0000
0000
0000
0000
0000
0000
0000
0000
0000
0000
0000
0000
0000
0000
,
0000
0010
0000
0000
0000
0000
0000
0000
0000
0000
0000
0000
0000
0000
0000
0000
,
0000
1000
0000
0000
0000
0000
0000
0000
0000
1000
0000
0000
0000
0000
0000
0000
,
0000
0001
0000
0000
0000
0000
0000
0000
0000
0001
0000
0000
0000
0000
0000
0000
,
0000
1000
0000
0000
0000
0000
0000
0000
0000
1000
0000
0000
0000
0000
0000
0000
,
0000
0001
0000
0000
0000
0000
0000
0000
0000
0001
0000
0000
0000
0000
0000
0000
,
0000
1000
0000
0000
0000
0000
0000
0000
0000
1000
0000
0000
0000
0000
0000
0000
,
0000
0010
0000
0000
0000
0000
0000
0000
0000
0010
0000
0000
0000
0000
0000
0000
,
0000
0100
0000
0000
0000
0000
0000
0000
0000
0100
0000
0000
0000
0000
0000
0000
,
0000
1000
0000
0000
0000
0000
0000
0000
0000
1000
0000
0000
0000
0000
0000
0000
,
0000
0001
0000
0000
0000
1000
0000
0000
0000
0000
0000
0000
0000
0000
0000
0000
,
0000
0001
0000
0000
0000
1000
0000
0000
0000
0000
0000
0000
0000
0000
0000
0000
,
0000
0010
0000
0000
0000
0100
0000
0000
0000
0000
0000
0000
0000
0000
0000
0000
,
0000
1000
0000
0000
0000
0100
0000
0000
0000
0000
0000
0000
0000
0000
0000
0000
,
0000
0010
0000
0000
0000
0001
0000
0000
0000
0000
0000
0000
0000
0000
0000
0000
,
0000
0010
0000
0000
0000
0100
0000
0000
0000
0000
0000
0000
0000
0000
0000
0000
,
0000
1000
0000
0000
0000
0010
0000
0000
0000
0000
0000
0000
0000
0000
0000
0000
,
0000
1000
0000
0000
0000
0001
0000
0000
0000
1000
0000
0000
0000
0000
0000
0000
,
0000
1000
0000
0000
0000
1000
0000
0000
0000
1000
0000
0000
0000
0000
0000
0000
,
0000
0001
0000
0000
0000
0001
0000
0000
0000
0001
0000
0000
0000
0000
0000
0000
,
0000
0100
0000
0000
0000
0100
0000
0000
0000
0100
0000
0000
0000
0000
0000
0000
,
0000
0010
0000
0000
0000
0010
0000
0000
0000
0010
0000
0000
0000
0000
0000
0000
,
0000
1000
0000
0000
0000
1000
0000
0000
0000
1000
0000
0000
0000
0000
0000
0000
,
0000
0100
0000
0000
0000
0100
0000
0000
0000
0100
0000
0000
0000
0000
0000
0000
,
0000
0001
0000
0000
0000
0001
0000
0000
0000
0001
0000
0000
0000
0000
0000
0000
,
0000
1000
0000
0000
0000
0000
0000
0000
0000
0001
0000
0000
0000
0000
0000
0000
,
0000
1000
0000
0000
0000
1000
0000
0000
0000
0001
0000
0000
0000
0000
0000
0000
,
0000
0010
0000
0000
0000
0010
0000
0000
0000
0100
0000
0000
0000
0000
0000
0000
,
0000
0100
0000
0000
0000
0100
0000
0000
0000
1000
0000
0000
0000
0000
0000
0000
,
0000
1000
0000
0000
0000
0000
0000
0000
0000
1000
0000
0000
0000
0000
0000
0000
,
0000
0001
0000
0000
0000
0000
0000
0000
0000
0100
0000
0000
0000
0000
0000
0000
,
0000
0010
0000
0000
0000
0000
0000
0000
0000
1000
0000
0000
0000
0000
0000
0000
,
0000
0100
0000
0000
0000
0000
0000
0000
0000
0010
0000
0000
0000
0000
0000
0000
,
0000
0001
0000
0000
0000
0000
0000
0000
0000
1000
0000
0000
0000
0000
0000
0000
,
0000
0010
0000
0000
0000
0000
0000
0000
0000
0100
0000
0000
0000
0000
0000
0000
,
0000
1000
0000
0000
0000
0000
0000
0000
0000
0001
0000
0000
0000
0000
0000
0000
,
0000
1000
0000
0000
0000
0000
0000
0000
0000
0010
0000
0000
0000
0000
0000
0000
,
0000
0100
0000
0000
0000
0000
0000
0000
0000
0001
0000
0000
0000
0000
0000
0000
,
0000
1000
0000
0000
0000
0000
0000
0000
0000
0100
0000
0000
0000
0000
0000
0000
,
0000
0010
0000
0000
0000
0000
0000
0000
0000
0100
0000
0000
0000
0000
0000
0000
,
0000
1000
0000
0000
0000
0000
0000
0000
0000
0001
0000
0000
0000
0000
0000
0000
,
0000
0100
0000
0000
0000
0010
0000
0000
0000
1000
0000
0000
0000
0000
0000
0000
,
0000
0100
0000
0000
0000
0000
0000
0000
0000
1000
0000
0000
0000
0000
0000
0001
,
0000
0000
0000
0000
0000
0000
0000
0100
0000
0000
0000
0000
0000
0000
0000
0000
,
0000
0010
0000
0000
0000
0000
0000
0000
0000
1000
0000
0000
0000
0000
0000
0100
,
0000
0000
0000
0000
0000
0000
0000
0010
0000
0000
0000
0000
0000
0000
0000
0001
,
0000
0000
0000
0000
0000
0000
0000
0000
0000
0010
0000
0000
0000
0000
0000
0000
,
0000
0100
0000
0000
0000
0000
0000
1000
0000
0000
0000
0000
0000
0000
0000
0010
,
0000
0000
0000
0000
0000
0000
0000
0000
0000
0100
0000
0000
0000
0000
0000
0001
,
0000
0000
0000
0000
0000
0000
0000
1000
0000
0000
0000
0000
0000
0000
0000
0000
;
