#TITLE:Sailor Moon;
#SUBTITLE:- Sailor Stars [Eurobeat Mix];
#ARTIST:石田燿子;
#TITLETRANSLIT:;
#SUBTITLETRANSLIT:;
#ARTISTTRANSLIT:Yoko Ishida;
#CREDIT:Anime Toshokan;
#BANNER:Sailor Moon - Sailor Stars [Eurobeat Mix].png;
#BACKGROUND:Sailor Moon - Sailor Stars [Eurobeat Mix] bg.png;
#LYRICSPATH:;
#CDTITLE:dejiko.png;
#MUSIC:Sailor Moon - Sailor Stars [Eurobeat Mix].mp3;
#OFFSET:-1.535;
#SAMPLESTART:69.980;
#SAMPLELENGTH:12.600;
#SELECTABLE:YES;
#BPMS:0.000=154.000;
#STOPS:;
#BGCHANGES:;
// cache tags:
#FIRSTBEAT:0.000;
#LASTBEAT:263.750;
#SONGFILENAME:Songs/DDR Anime 4th Mix/Sailor Moon - Sailor Stars [Eurobeat Mix]/Sailor Moon - Sailor Stars [Eurobeat Mix].sm;
#HASMUSIC:1;
#HASBANNER:1;
#MUSICLENGTH:104.577;
// end cache tags

//---------------dance-single - BASIC----------------
#NOTES:
     dance-single:
     BASIC:
     Easy:
     2:
     0.191,0.252,0.029,0.258,0.000,110.000,3.000,27.000,0.000,0.000:
0020
0000
0000
0030
,
0200
0000
0000
0000
0000
0000
0000
0000
0000
0000
0000
0000
0000
0000
0000
0000
0000
0000
0000
0000
0000
0000
0000
0300
0000
0000
0000
0000
0000
0000
0000
0000
,
0002
0000
0000
0000
0000
0000
0000
0000
0000
0000
0000
0000
0000
0000
0000
0000
0000
0000
0000
0000
0000
0000
0000
0000
0000
0000
0000
0003
0000
0000
0000
0000
,
2000
0000
0000
0000
0000
0000
0000
0000
0000
0000
0000
0000
0000
3000
0000
0000
,
0010
0000
1000
0000
,
0001
0000
0100
0000
,
1000
0001
0010
0100
,
2000
0000
0000
0000
0000
0000
0000
0000
0000
0000
0000
0000
0000
0000
0000
0000
0000
3000
0000
0000
0000
0000
0000
0000
0000
0000
0000
0000
0000
0000
0000
0000
,
0001
0000
0001
0000
,
1000
0000
1000
0000
,
0010
0000
0100
0000
,
1000
0000
0000
0000
0000
0000
0000
0000
0002
0000
0000
0000
0000
0000
0000
0000
0000
0000
0000
0000
0000
0000
0000
0000
0000
0000
0000
0003
0000
0000
0000
0000
,
0010
0000
1000
0000
,
0001
0000
0100
0000
,
0020
0000
0000
0000
0000
0000
0000
0000
0000
0000
0000
0000
0000
0000
0000
0000
0000
0000
0000
0000
0000
0000
0000
0000
0000
0000
0000
0030
0000
0000
0000
0000
,
2000
0000
0000
0000
0000
0000
0000
0000
0000
0000
0000
0000
3000
0000
0000
0000
0002
0000
0000
0000
0000
0000
0000
0000
0000
0000
0000
0003
0000
0000
0000
0000
,
1001
0000
0010
0000
,
1000
0000
0001
0000
,
1000
0000
0100
0000
,
0001
0000
0010
0000
,
0010
0000
0100
0000
,
0001
0000
1000
0000
,
0100
0000
0010
0000
,
1000
0000
0001
0000
,
0010
0000
0100
0000
,
1000
0000
0001
0000
,
0001
0000
1000
0000
,
0100
0000
0010
0000
,
0002
0000
0000
0000
0000
0000
0000
0000
0000
0000
0000
0000
0000
0003
0000
0000
2000
0000
0000
0000
0000
0000
0000
0000
0000
0000
0000
0000
3000
0000
0000
0000
,
0000
0000
0010
0000
,
1000
0000
0001
0000
,
0100
0000
0001
0000
,
1000
0000
0000
0000
0000
0000
0000
0000
0000
0000
0000
0000
0000
0000
0000
0000
0002
0000
0000
0000
0000
0000
0000
0000
0000
0000
0000
0000
0000
0003
0000
0000
,
0000
0000
1000
0000
,
0001
0000
0010
0000
,
0000
0000
1000
0000
,
0001
0000
1000
0000
,
0000
0000
0010
0000
,
1000
0000
0001
0000
,
0000
0000
0010
0000
,
2000
0000
0000
0000
0000
0000
0000
0000
0000
0000
0000
0000
0000
3000
0000
0000
,
0000
0000
1000
0000
,
0002
0000
0000
0000
0000
0000
0000
0000
0000
0000
0000
0000
0000
0003
0000
0000
,
0110
0000
0000
0000
,
1000
0000
0001
0000
,
0010
0000
0100
0000
,
1000
0000
0001
0000
,
0100
0000
0010
0000
,
0001
0000
1000
0000
,
0100
0000
0010
0000
,
0001
0000
0000
0000
0020
0000
0000
0030
,
0000
0000
0100
0000
,
1000
0000
0100
0000
,
0020
0000
0000
0030
1000
0000
0000
0000
,
0001
0000
0100
0000
,
0020
0000
0000
0000
0000
0030
0000
0000
1000
0000
0000
0000
0000
0000
0000
0000
,
0002
0000
0000
0000
0000
0000
0000
0000
0000
0000
0000
0000
0000
0003
0000
0000
1000
0000
0000
0000
0000
0000
0000
0000
0000
0000
0000
0000
0000
0000
0000
0000
,
1000
0000
0001
0000
,
0020
0000
0000
0000
0000
0000
0000
0000
0000
0000
0000
0000
0000
0000
0000
0000
0000
0000
0000
0000
0000
0030
0000
0000
0000
0000
0000
0000
0000
0000
0000
0000
,
0200
0000
0000
0000
0000
0000
0000
0000
0000
0000
0000
0000
0000
0000
0000
0000
0000
0000
0000
0000
0000
0000
0000
0300
0000
0000
0000
0000
0000
0000
0000
0000
,
2000
0000
0000
0000
0000
0000
0000
0000
0000
0000
0000
0000
0000
0000
0000
0000
0000
0000
0000
0000
0000
0000
0000
0000
0000
0000
0000
3000
0000
0000
0000
0000
,
0002
0000
0000
0003
,
0200
0000
0000
0000
0000
0000
0000
0000
0000
0000
0000
0000
0000
0000
0000
0000
0000
0000
0000
0000
0000
0000
0000
0000
0000
0000
0000
0300
0000
0000
0000
0000
,
0020
0000
0000
0000
0000
0000
0000
0000
0000
0000
0000
0000
0000
0000
0000
0000
0000
0000
0000
0000
0000
0000
0000
0000
0000
0000
0000
0030
0000
0000
0000
0000
,
0200
0000
0000
0000
0000
0000
0000
0000
0000
0000
0000
0000
0000
0000
0000
0000
0000
0000
0000
0000
0000
0000
0000
0000
0000
0000
0000
0300
0000
0000
0000
0000
,
2002
0000
0000
0000
0000
0000
0000
0000
0000
0000
0000
0000
0000
0000
0000
0000
0000
0000
0000
0000
0000
0000
0000
0000
0000
0000
0000
0000
0000
3000
0003
0000
;

//---------------dance-single - ANOTHER----------------
#NOTES:
     dance-single:
     ANOTHER:
     Medium:
     6:
     0.372,0.377,0.038,0.086,0.000,259.000,4.000,9.000,0.000,0.000:
0010
0000
0010
0000
1000
0001
0000
0000
,
0000
0001
1000
0000
0000
0000
0000
0000
,
0010
0000
0010
0000
1000
0001
0000
0000
,
0000
0010
0100
0000
0000
0001
1000
0001
,
0000
1000
0000
0002
0000
0000
0000
0003
,
0000
0000
1000
0100
0010
0000
0100
0000
,
1000
0000
0001
0000
0010
0000
0100
2000
,
0000
0000
0000
0000
0000
0000
0000
0000
0000
3000
0001
0000
1000
0000
0001
0000
,
0000
0000
0001
0000
1000
0000
0010
0100
,
0000
0010
0100
0000
0000
1000
0100
0010
,
0000
0010
0100
0000
1000
0001
0000
0100
,
0000
0001
0100
0000
1000
0000
0001
1000
,
0000
0001
0100
0000
1000
0000
0001
0000
,
0000
0000
0000
0000
0010
1000
0001
0100
,
0000
0000
0001
1000
,
1000
0000
0000
0000
0001
0000
1000
0100
,
0001
0000
0001
0000
0001
0010
0100
0000
,
0001
1000
0010
0100
,
0000
0000
1000
0100
1000
0100
0010
0000
,
0001
0100
0001
1000
,
0010
0000
0100
0000
0001
0000
1000
0002
,
0000
0003
0000
0000
0000
0000
1000
0000
,
1000
0000
0100
1000
0000
0001
0000
0100
,
0000
1000
0100
0010
,
1000
0000
0001
1000
0000
0010
0000
1000
,
0000
0010
0001
0010
0100
1000
0100
0010
,
0000
0000
1000
0100
1000
0000
0001
0100
,
0000
0010
0000
1000
0000
0001
0010
0100
,
1000
0001
1000
0001
0000
1000
0100
0001
,
0000
0000
0000
0000
0000
0001
1000
0010
,
0000
0010
0100
0000
0001
1000
0001
0010
,
0000
0001
0000
0010
0000
0100
0000
1000
,
0000
0000
0010
0100
0001
0010
0100
0010
,
0000
0000
0000
0000
0000
1000
0100
1000
,
0000
0000
0000
0010
1000
0000
1000
0001
,
0000
0000
0000
0000
0000
0000
0001
0010
,
1000
0100
1000
0001
1000
0100
0010
0001
,
0000
0000
0000
0000
0000
0001
1000
0010
,
0000
0000
0000
0100
0001
0000
1000
0001
,
0000
0000
0000
0001
,
0010
0100
0010
0200
0000
0300
0000
0000
,
0000
0001
1000
0001
,
0010
0000
0000
0000
0000
0000
0000
0000
1000
0000
0000
0000
0002
0000
0000
0000
0000
0000
0000
0000
0000
0000
0000
0000
0000
0000
0000
0000
0000
0003
0000
0000
,
0000
0000
0000
0000
0000
0001
1000
0010
,
0000
0010
0100
0000
0001
1000
0000
0010
,
0000
0100
0010
0000
0000
1000
0100
1000
,
0000
0010
0100
0000
0001
1000
0000
0001
,
0010
0100
0000
0000
0000
1000
0100
1000
,
0000
0000
0000
0000
0001
0000
0000
0000
2000
0000
0000
0000
0000
0000
0000
0000
0000
0000
0000
0000
0000
0000
0000
0000
0000
3000
0000
0000
0000
0000
0000
0000
,
0000
0010
0100
0001
,
0001
0010
0100
1000
,
0002
0000
0000
0000
0000
0000
0000
0000
0000
0000
0000
0000
0000
0000
0000
0003
0000
0000
0000
0000
0010
0000
0000
0000
0100
0000
0000
0000
0001
0000
0000
0000
,
0000
0000
1000
0100
1000
0100
0000
0001
,
0000
0100
1000
0000
0000
1000
0100
0010
,
0000
0001
0010
0100
1000
0100
0000
0100
,
0000
0001
0010
0000
0000
1000
0100
1000
,
0000
0000
0002
0000
0000
0000
0000
0000
0000
0003
1000
0000
0100
0000
0010
0000
,
0000
0000
0000
0001
1000
0010
0100
0002
,
0000
0000
0000
0003
0000
0000
0000
0000
,
0000
0000
0000
0000
,
0010
1000
0001
0000
,
0010
0000
0000
1010
0000
0101
0000
0000
,
0000
0001
1000
0000
,
0010
0000
0000
0110
0000
0110
0000
0000
,
0000
0001
1000
0000
,
0010
0000
0000
0100
0000
0010
0000
0000
;

//---------------dance-single - MANIAC----------------
#NOTES:
     dance-single:
     MANIAC:
     Hard:
     8:
     0.601,0.533,0.402,0.497,0.000,346.000,42.000,52.000,0.000,0.000:
0010
1000
0010
0000
0100
0001
0000
2000
,
0000
0000
3000
0000
0001
0000
0000
0000
0020
0000
0000
0000
0000
0000
0000
0030
0000
0000
0000
0000
0001
0000
0000
0000
0010
0000
0000
0000
0200
0000
0000
0000
,
0000
0000
0000
0300
0001
0000
0000
0000
0100
0000
0000
0000
0001
0000
0000
0000
1000
0000
0000
0000
0100
0000
0000
0000
0000
0000
0000
0000
0020
0000
0000
0000
,
0000
0030
0001
0000
0100
0000
0000
0000
0000
0000
0001
0000
1000
0000
0002
0000
,
0000
0003
0200
0000
0000
0300
0000
0000
0001
0000
0010
0000
0100
0000
1000
0000
,
1100
0000
0001
0010
1100
0000
0101
0000
,
0010
0000
1000
0000
0002
0000
0000
0003
0010
0000
0001
0000
1000
0000
0002
0000
,
0000
0003
1000
0000
0001
0010
0100
2000
,
0000
3000
0000
0000
0000
0000
0000
0000
0001
0000
0000
0000
0100
0000
0000
0000
0001
0000
0000
0000
1000
0000
0000
0000
0000
0000
0000
0000
0002
0000
0000
0000
,
0000
0003
0000
0000
0010
0000
0000
0000
0100
0000
0000
0000
0000
0000
0000
0000
1000
0000
0000
0000
0100
0000
0000
0000
0010
0000
0000
0000
0002
0000
0000
0000
,
0000
0003
0010
0000
0100
0000
1000
0000
0001
0000
0010
0000
0000
0000
0200
0000
,
0000
0300
0010
0000
0100
0000
0000
0000
0000
0000
0001
0000
1000
0000
0020
0000
,
0000
0000
0030
0000
0100
0000
0000
0000
0002
0000
0000
0000
0000
0000
0000
0003
0000
0000
0000
0000
1000
0000
0000
0000
0001
0000
0000
0000
0200
0000
0000
0000
,
0000
0000
0300
0000
0010
0000
0000
0000
1001
0000
0000
0000
0000
0000
0000
0000
0120
0000
0000
0000
0000
0030
0000
0000
1000
0000
0000
0000
0002
0000
0000
0000
,
0000
0000
0000
0003
1010
0000
0000
0000
0101
0000
0000
0000
0000
0000
0000
0000
,
1000
0000
0100
0010
0000
1000
0100
0010
,
0000
0100
0010
0000
0001
0010
0100
2000
,
0000
3000
0010
0001
1000
0001
0110
0000
,
1010
0000
0001
0010
0100
1000
0001
2000
,
0000
3000
0010
0000
0000
0000
0101
0000
0000
0000
1010
0000
0100
0000
0000
0000
,
0001
0100
0010
1000
0001
1010
0100
0002
,
0000
0000
0000
0003
0000
0000
0000
0000
0010
0000
0000
0000
0100
0000
0000
0000
1000
0000
0000
0000
0001
0000
0000
0000
0100
0000
0000
0000
0010
0000
0000
0000
,
1000
0100
1000
0010
0000
0101
0000
0020
,
0000
0030
0000
0000
0100
0000
0000
0000
1001
0000
0010
0000
0100
0000
0000
0000
,
0001
0010
0100
1000
0000
0001
0000
2000
,
0000
3000
0001
0000
1000
0000
0010
0000
0100
0000
0001
0000
0100
0000
0001
0000
,
1010
0000
0001
0010
0100
1000
0001
2000
,
0000
3000
0010
0000
0000
0000
0101
0000
0000
0000
0010
0000
0100
0000
0001
0000
,
1000
0000
0100
0000
1000
0000
0020
0000
0000
0030
0001
0000
0010
0000
0200
0000
,
0000
0300
0001
0000
0100
0000
0001
0000
0000
0000
1000
0000
0100
0000
0020
0000
,
0000
0030
1000
0000
0100
0000
0010
0000
0001
0000
1000
0000
0100
0000
0020
0000
,
0000
0030
1000
0000
0000
0000
0101
0000
0000
0000
1010
0000
0001
0000
0200
0000
,
0000
0300
0000
0000
0000
0000
0000
0000
0010
0000
0000
0000
0100
0000
0000
0000
0001
0000
0000
0000
1000
0000
0000
0000
0010
0000
0000
0000
0200
0000
0000
0000
,
0000
0300
1010
0000
0000
0000
0101
0000
0000
0000
0110
0000
1000
0000
0200
0000
,
0000
0000
0000
0300
0000
0000
0000
0000
0100
0000
0000
0000
0010
0000
0000
0000
1000
0000
0000
0000
0001
0000
0000
0000
0100
0000
0000
0000
0002
0000
0000
0000
,
0000
0003
0000
0000
1000
0000
0000
0000
0100
0000
0010
0000
0001
0000
0010
0000
,
0100
1000
0001
0010
1000
0100
0001
0020
,
0000
0000
0000
0030
0000
0000
0000
0000
0100
0000
0000
0000
0000
0000
0000
0000
0001
0000
0000
0000
1000
0000
0000
0000
0100
0000
0000
0000
0020
0000
0000
0000
,
0000
0030
0000
0000
0000
0000
1000
0000
0100
0000
0010
0000
0001
0000
2000
0000
,
0000
3000
0001
0010
0100
1000
0010
0000
,
1000
0000
0100
0000
0010
0000
0002
0000
0000
0003
0000
0000
0000
0000
0010
0000
,
1010
0000
0001
0010
0100
0010
0001
0000
,
1000
0000
0000
0000
0001
0000
0000
0000
0010
0000
0000
0000
0200
0000
0000
0000
0000
0000
0000
0000
0000
0000
0000
0000
0000
0000
0000
0300
0000
0000
0000
0000
,
1000
0000
0100
0000
1000
0000
0202
0000
0000
0303
1000
0000
0000
0000
0002
0000
,
0000
0003
0010
0000
0100
0000
0010
0000
0001
0000
1000
0000
0000
0000
0020
0000
,
0000
0030
0100
0000
0001
0000
0000
0000
0000
0000
1000
0000
0100
0000
0020
0000
,
0000
0030
0001
0000
0010
0000
0100
0000
1000
0000
0001
0000
0000
0000
0020
0000
,
0000
0030
0001
0000
0100
0000
0000
0000
0000
0000
0001
0000
0010
0000
0200
0000
,
0000
0000
0300
0000
0001
0000
0000
0000
2000
0000
0000
0000
0000
3000
0000
0000
0100
0000
0000
0000
0000
0000
0000
0000
0001
0000
0000
0000
0000
0000
0000
0000
,
1100
0000
0001
0010
0100
0000
1100
0000
,
0001
0010
0100
0000
0010
0100
1000
0002
,
0000
0000
0000
0000
0000
0003
0000
0000
0000
0000
0000
0000
0000
0000
0000
0000
0000
0000
0000
0000
0100
0000
0000
0000
0010
0000
0000
0000
0001
0000
0000
0000
,
0000
0000
0010
0100
0001
1000
0000
0002
,
0000
0003
0010
0000
0100
0000
0000
0000
1000
0000
0100
0000
0010
0000
0002
0000
,
0000
0003
0010
0000
0100
0000
0001
0000
0100
0000
0001
0000
0000
0000
2000
0000
,
0000
0000
0000
3000
0010
0000
0000
0000
0100
0000
0000
0000
0000
0000
0000
0000
1000
0000
0000
0000
0001
0000
0000
0000
1000
0000
0000
0000
0200
0000
0000
0000
,
0000
0000
0300
0000
0020
0000
0000
0000
0000
0000
0000
0030
0000
0000
0000
0000
0000
0000
0000
0000
1000
0000
0000
0000
0100
0000
0000
0000
0020
0000
0000
0000
,
0000
0000
0000
0000
0000
0030
0000
0000
1000
0000
0000
0000
0001
0000
0000
0000
0100
0000
0000
0000
0010
0000
0000
0000
0100
0000
0000
0000
0002
0000
0000
0000
,
0000
0003
1010
0000
0101
0000
0000
0000
,
0010
0000
0100
1100
0000
0101
0000
0000
,
0010
0101
1100
0000
,
1000
0000
1000
0101
0000
1100
0000
0000
,
0010
0110
1001
0000
,
0100
0000
0100
1001
0000
1001
0000
0000
,
0010
1100
0011
0000
,
0110
0000
0000
0110
0000
1001
0000
0000
;

//---------------dance-single - BEGINNER----------------
#NOTES:
     dance-single:
     BEGINNER:
     Beginner:
     1:
     0.094,0.124,0.029,0.000,0.000,66.000,3.000,0.000,0.000,0.000:
0010
0000
0000
0000
,
0100
0000
0000
0000
,
0001
0000
0000
0000
,
1000
0000
0000
0000
,
0010
0000
0000
0000
,
0001
0000
0000
0000
,
1000
0000
0000
0000
,
1000
0000
0000
0000
,
0001
0000
0000
0000
,
1000
0000
0000
0000
,
0010
0000
0000
0000
,
1000
0000
0000
0000
,
0010
0000
0000
0000
,
0001
0000
0000
0000
,
0010
0000
0000
0000
,
1000
0000
0000
0000
,
1001
0000
0000
0000
,
1000
0000
0000
0000
,
1000
0000
0000
0000
,
0001
0000
0000
0000
,
0010
0000
0000
0000
,
0001
0000
0000
0000
,
0100
0000
0000
0000
,
1000
0000
0000
0000
,
0010
0000
0000
0000
,
1000
0000
0000
0000
,
0001
0000
0000
0000
,
0100
0000
0000
0000
,
0001
0000
0000
0000
,
0010
0000
0000
0000
,
1000
0000
0000
0000
,
0100
0000
0000
0000
,
1000
0000
0000
0000
,
0100
0000
0000
0000
,
0001
0000
0000
0000
,
1000
0000
0000
0000
,
0001
0000
0000
0000
,
0100
0000
0000
0000
,
1000
0000
0000
0000
,
0010
0000
0000
0000
,
1000
0000
0000
0000
,
0100
0000
0000
0000
,
0001
0000
0000
0000
,
0110
0000
0000
0000
,
1000
0000
0000
0000
,
0010
0000
0000
0000
,
1000
0000
0000
0000
,
0100
0000
0000
0000
,
0001
0000
0000
0000
,
0100
0000
0000
0000
,
0001
0000
0000
0000
,
1000
0000
0000
0000
,
1000
0000
0000
0000
,
0010
0000
0000
0000
,
0001
0000
0000
0000
,
0010
0000
0000
0000
,
0001
0000
0000
0000
,
1000
0000
0000
0000
,
0010
0000
0000
0000
,
0100
0000
0000
0000
,
1000
0000
0000
0000
,
0001
0000
0000
0000
,
0100
0000
0000
0000
,
0010
0000
0000
0000
,
0100
0000
0000
0000
,
1001
0000
0000
0000
;
