#TITLE:Who;
#SUBTITLE:;
#ARTIST:KaW;
#TITLETRANSLIT:;
#SUBTITLETRANSLIT:;
#ARTISTTRANSLIT:;
#CREDIT:;
#BANNER:Who-banner.PNG;
#BACKGROUND:Who-bg.PNG;
#LYRICSPATH:;
#CDTITLE:;
#MUSIC:Who.mp3;
#OFFSET:0.000;
#SAMPLESTART:48.040;
#SAMPLELENGTH:13.500;
#SELECTABLE:YES;
#BPMS:0.000=140.000;
#STOPS:;
#BGCHANGES:;
// cache tags:
#FIRSTBEAT:16.000;
#LASTBEAT:336.000;
#SONGFILENAME:Songs/StepMix 1.0/Who (2)/Who.sm;
#HASMUSIC:1;
#HASBANNER:1;
#MUSICLENGTH:144.753;
// end cache tags

//---------------dance-single - ----------------
#NOTES:
     dance-single:
     :
     Easy:
     5:
     0.445,0.580,0.173,0.622,0.000,336.000,25.000,90.000,0.000,0.000:  // measure 1
0000
0000
0000
0000
,  // measure 2
0000
0000
0000
0000
,  // measure 3
0000
0000
0000
0000
,  // measure 4
0000
0000
0000
0000
,  // measure 5
2000
3001
0002
1003
,  // measure 6
2000
3001
0002
1003
,  // measure 7
0200
0310
0020
0130
,  // measure 8
0200
0310
0020
0130
,  // measure 9
1000
0100
1000
0010
,  // measure 10
1000
0100
1000
0010
,  // measure 11
0100
0001
0010
0100
,  // measure 12
1000
0010
0100
0001
,  // measure 13
0010
0001
0100
0001
,  // measure 14
0010
0001
0100
0001
,  // measure 15
0010
0100
1000
0010
,  // measure 16
0100
0001
1000
1001
,  // measure 17
0001
0100
1000
0100
,  // measure 18
0001
0100
1000
0100
,  // measure 19
0001
0010
1000
0100
,  // measure 20
0001
0010
1000
0100
,  // measure 21
0001
0010
1000
0010
,  // measure 22
0001
0010
1000
0010
,  // measure 23
0001
0100
1000
0010
,  // measure 24
0001
0100
1000
0110
,  // measure 25
2001
0001
0001
3001
,  // measure 26
0120
0100
0100
0130
,  // measure 27
1002
1000
1000
1003
,  // measure 28
0210
0010
0010
0310
,  // measure 29
2000
3100
0002
0103
,  // measure 30
2000
3010
0002
0013
,  // measure 31
0200
1300
0020
0031
,  // measure 32
0200
0301
0020
1030
,  // measure 33
1001
0000
1000
0100
0010
0000
0001
0010
,  // measure 34
0100
0000
1000
0100
0010
0000
0001
0010
,  // measure 35
0100
0000
1000
0010
0100
0000
0001
0100
,  // measure 36
0010
0000
1000
0010
0100
0000
0001
0100
,  // measure 37
0010
0000
1000
0100
1000
0000
0001
0100
,  // measure 38
0001
0000
1000
0010
1000
0000
0001
0010
,  // measure 39
0001
0000
1000
0001
1000
0000
0010
0100
,  // measure 40
0010
0000
0001
1000
0001
0000
0100
0010
,  // measure 41
0200
0001
0010
0301
,  // measure 42
0020
1000
0100
1030
,  // measure 43
0002
0010
1000
0103
,  // measure 44
2000
0100
0001
3010
,  // measure 45
0200
0000
0000
0000
,  // measure 46
0320
0000
0000
0000
,  // measure 47
2030
0000
0000
0000
,  // measure 48
3002
0000
0000
0000
,  // measure 49
2003
0000
0001
0001
3001
0000
1001
0000
,  // measure 50
0020
0000
0100
0100
0130
0000
0110
0000
,  // measure 51
0002
0000
1000
1000
1003
0000
1001
0000
,  // measure 52
0210
0000
0010
0010
0310
0000
0110
0000
,  // measure 53
2000
0100
3100
0000
0002
0100
0103
0000
,  // measure 54
2000
0010
3010
0000
0002
0010
0013
0000
,  // measure 55
2200
3300
0202
0303
,  // measure 56
2020
3030
0022
0033
,  // measure 57
1000
0100
0010
0002
1000
0000
1003
0000
,  // measure 58
0001
1000
0010
0200
0010
0000
0310
0000
,  // measure 59
0001
0010
0100
2000
0001
0000
3001
0000
,  // measure 60
1000
0001
0100
0020
0100
0000
0130
0000
,  // measure 61
1000
0001
1000
0010
1000
0100
1000
0010
,  // measure 62
0001
1000
0001
0100
0001
0010
0001
0100
,  // measure 63
0010
0001
0010
0100
0010
1000
0010
0110
,  // measure 64
0100
1000
0100
0010
0100
0001
0100
0220
,  // measure 65
0330
2002
3003
0210
,  // measure 66
0302
0000
2000
3003
,  // measure 67
0200
0020
0330
0002
,  // measure 68
0023
0230
2000
3300
,  // measure 69
0002
2000
3003
0120
,  // measure 70
2030
0000
0002
3003
,  // measure 71
0020
0200
0330
2000
,  // measure 72
3200
0320
0002
0033
,  // measure 73
2200
3300
0022
0033
,  // measure 74
2020
3030
0202
0303
,  // measure 75
2000
3002
0203
0320
,  // measure 76
0032
2003
3020
0230
,  // measure 77
0310
1000
0010
0001
,  // measure 78
0010
1000
0010
0001
,  // measure 79
0100
1000
0100
0001
,  // measure 80
0100
1000
0100
0001
,  // measure 81
0010
0100
1000
0001
,  // measure 82
0100
0010
1000
0100
,  // measure 83
0010
0001
1000
0010
,  // measure 84
0100
0002
2000
0000
,  // measure 85
3003
0000
0000
0000
;

//---------------dance-single - ----------------
#NOTES:
     dance-single:
     :
     Medium:
     7:
     0.506,0.665,0.166,0.366,0.204,436.000,24.000,53.000,0.000,0.000:  // measure 1
0000
0000
0000
0000
,  // measure 2
0000
0000
0000
0000
,  // measure 3
0000
0000
0000
0000
,  // measure 4
0000
0000
0000
0000
,  // measure 5
1000
0000
0100
0000
0001
0000
0010
1000
,  // measure 6
0100
0000
0001
0000
0010
0000
1000
0100
,  // measure 7
0001
0000
0010
0000
1000
0000
0100
0001
,  // measure 8
0010
0000
1000
0000
0100
0000
0001
0010
,  // measure 9
0100
0010
0000
0000
0100
0010
0000
0000
0100
0000
0010
0000
0110
0000
0000
0000
,  // measure 10
1000
0100
1100
0000
0001
0100
0101
0000
,  // measure 11
1000
0001
0000
0000
1000
0001
0000
0000
1000
0000
0001
0000
1001
0000
0000
0000
,  // measure 12
0010
1000
1010
0000
0010
0001
0011
0000
,  // measure 13
0010
0100
0000
0000
0010
0100
0000
0000
0010
0000
0100
0000
0110
0000
0000
0000
,  // measure 14
1000
0010
1010
0000
0001
0010
0011
0000
,  // measure 15
0001
1000
0000
0000
0001
1000
0000
0000
0001
0000
1000
0000
1001
0000
0000
0000
,  // measure 16
0100
1000
1100
0000
0100
0001
0101
0000
,  // measure 17
1000
0100
0000
0000
0001
0100
0000
0000
1000
0000
0100
0000
0001
0000
0000
0000
,  // measure 18
0001
0100
1000
0000
1000
0001
1001
0000
,  // measure 19
0001
0010
0000
0000
1000
0010
0000
0000
0001
0000
0010
0000
1000
0000
0000
0000
,  // measure 20
1000
0010
0001
0000
0001
1000
1001
0000
,  // measure 21
0100
1000
0000
0000
0010
1000
0000
0000
0100
0000
1000
0000
0010
0000
0000
0000
,  // measure 22
0010
1000
0100
0000
0100
0010
0110
0000
,  // measure 23
0010
0001
0000
0000
0100
0001
0000
0000
0010
0000
0001
0000
0100
0000
0000
0000
,  // measure 24
0100
0001
0010
0000
0010
0100
0110
0000
,  // measure 25
2000
0001
3200
0001
0320
0031
0011
0000
,  // measure 26
0002
0100
0023
0100
2030
3100
1100
0000
,  // measure 27
2000
0010
3200
0010
0302
0013
0011
0000
,  // measure 28
0002
1000
0023
1000
0230
1300
1100
0000
,  // measure 29
1000
0100
0010
0001
1000
0010
0100
0001
,  // measure 30
0010
0100
1000
0001
0100
0010
1000
0100
,  // measure 31
0010
0001
1000
0010
0100
0001
0010
0100
,  // measure 32
0220
0000
0330
0000
,  // measure 33
0000
1000
0000
0100
0000
0001
0000
0010
,  // measure 34
0000
1000
0000
0100
0000
1000
0000
0010
,  // measure 35
0000
0001
0000
0010
0000
1000
0000
0100
,  // measure 36
0000
0001
0000
0010
0000
0001
0000
0100
,  // measure 37
1000
0100
0000
0100
0001
0100
0000
0100
,  // measure 38
0020
0200
0000
0000
0030
0300
0000
0010
,  // measure 39
0001
0010
0000
0010
1000
0010
0000
0010
,  // measure 40
0200
0020
0000
0000
0300
0030
0000
1000
,  // measure 41
0100
1000
0000
1000
0010
1000
0000
1000
,  // measure 42
0002
2000
0000
0000
0003
3000
0000
0001
,  // measure 43
0010
0001
0000
0001
0100
0001
0000
0001
,  // measure 44
2000
0002
0000
0000
3000
0003
0000
0000
,  // measure 45
2000
0010
0100
0010
,  // measure 46
3002
1000
0100
0010
,  // measure 47
0203
1000
0010
0001
,  // measure 48
0320
1000
0100
0001
,  // measure 49
0130
0000
0000
0001
0000
0000
1000
0000
0010
0000
0000
0100
0000
0000
0001
0000
,  // measure 50
1000
0000
0000
0010
0000
0000
0100
0000
0001
0000
0000
1000
0000
0000
0010
0000
,  // measure 51
1000
0000
0000
0100
0000
0000
0010
0000
0001
0000
0000
0010
0000
0000
0100
0000
,  // measure 52
1000
0000
0000
0100
0000
0000
0010
0000
0001
0000
0011
0000
0011
0000
0000
0000
,  // measure 53
0010
0000
0000
1000
0000
0000
0001
0000
0100
0000
0000
0010
0000
0000
1000
0000
,  // measure 54
0001
0000
0000
0100
0000
0000
0010
0000
1000
0000
0000
0001
0000
0000
0100
0000
,  // measure 55
0001
0000
0000
0010
0000
0000
0100
0000
1000
0000
0000
0100
0000
0000
0010
0000
,  // measure 56
0002
0000
0000
0000
0000
0000
0013
0000
0200
0000
0000
1300
0000
0000
1100
0000
,  // measure 57
1000
0100
0000
0000
0100
1000
0000
0000
1000
0010
0000
0000
0010
0100
0000
0000
,  // measure 58
0100
0001
0000
0000
0001
1000
0000
0000
1000
0001
0000
0000
0001
0010
0000
0000
,  // measure 59
0010
0100
0000
0000
0100
1000
0000
0000
0100
0001
0000
0000
0010
1000
0000
0000
,  // measure 60
0010
0001
0000
0000
0001
0100
0000
0000
0100
1000
0000
0000
1000
0010
0000
0000
,  // measure 61
0010
1000
0000
0000
1000
0100
0000
0000
0100
0001
0000
0000
0001
0010
0000
0000
,  // measure 62
1000
0100
0000
0000
0001
0100
0000
0000
1000
0010
0000
0000
0001
0010
0000
0000
,  // measure 63
0100
1000
0000
0000
0100
0001
0000
0000
0010
1000
0000
0000
0010
0001
0000
0000
,  // measure 64
2000
0000
0000
0000
0000
0000
3002
0000
0203
0000
0000
0020
0000
0000
0330
0000
,  // measure 65
1000
0000
0100
0000
1000
0000
0010
1000
,  // measure 66
0100
0000
1000
0000
0010
0000
1000
0100
,  // measure 67
0001
0000
0010
0000
0001
0000
0100
0001
,  // measure 68
0010
0000
0001
0000
0100
0000
0001
0010
,  // measure 69
0100
0000
1000
0100
0010
0000
0001
0100
,  // measure 70
0010
0000
1000
0010
0100
0000
0010
0100
,  // measure 71
1000
0000
0100
0010
0001
0000
0100
0010
,  // measure 72
1000
0000
0010
0100
0001
0000
1000
0100
,  // measure 73
0001
0000
0010
1000
0100
0000
0001
0010
,  // measure 74
1000
0000
0100
0001
0010
0000
0100
1000
,  // measure 75
0010
0000
0001
0100
1000
0000
0010
0001
,  // measure 76
0100
0000
1000
0020
0002
0000
0033
0000
,  // measure 77
2000
3200
0320
0032
,  // measure 78
2003
3020
0230
0302
,  // measure 79
0023
0230
2300
3002
,  // measure 80
0203
0320
2030
3002
,  // measure 81
2000
0000
0000
0003
,  // measure 82
0020
0000
0000
3000
,  // measure 83
0200
0000
0000
0030
,  // measure 84
0000
0000
0000
0300
;

//---------------dance-single - ----------------
#NOTES:
     dance-single:
     :
     Hard:
     11:
     0.984,1.000,0.781,1.000,0.687,716.000,113.000,168.000,0.000,37.000:  // measure 1
0000
0000
0000
0000
,  // measure 2
0000
0000
0000
0000
,  // measure 3
0000
0000
0000
0000
,  // measure 4
0000
0000
0000
0000
,  // measure 5
1000
0100
1000
0010
0001
0100
0001
0010
,  // measure 6
1000
0100
0001
0010
0001
0100
1000
0010
,  // measure 7
0001
0100
0010
1000
0001
0010
0100
1000
,  // measure 8
0001
0100
0010
1000
0100
0010
0001
0010
,  // measure 9
0100
1000
0000
1000
0100
0000
0100
0010
0000
0001
0000
0010
0100
0010
0100
0010
,  // measure 10
0100
1000
0100
1000
0100
0000
0100
1000
0000
0001
0000
2002
0000
0000
3003
0000
,  // measure 11
0010
0100
0000
0100
1000
0000
1000
0001
0000
0100
0000
0010
0100
0010
0100
0010
,  // measure 12
0100
0001
0100
0001
0100
0001
0100
0001
0010
0010
0000
0010
0000
0020
0000
0000
,  // measure 13
1030
0100
0000
0100
0001
0000
0001
0010
0000
0100
0000
1000
0001
1000
0001
1000
,  // measure 14
0010
1000
0010
1000
0010
0000
0010
0100
0000
0010
0000
0220
0000
0000
0330
0000
,  // measure 15
0001
1000
0000
1000
0100
0000
0100
0010
0000
1000
0000
0001
1000
0001
1000
0001
,  // measure 16
1000
0001
0010
0001
0010
0001
0010
0001
0100
0100
0000
0100
0000
0200
0000
0000
,  // measure 17
0310
1000
0010
0000
1010
0000
0100
0001
0100
0001
0100
0000
0101
0000
0000
0000
,  // measure 18
0010
0001
0010
0000
0011
0000
0100
1000
0100
1000
0100
0000
1100
0000
0000
0000
,  // measure 19
1000
0100
0010
0000
0220
0000
0330
0011
0000
0011
0000
0001
0010
0100
1000
0001
,  // measure 20
0100
0010
1000
0100
0020
0000
0031
0010
0000
0010
0100
0000
0110
0220
0330
0000
,  // measure 21
1000
0100
1000
0000
1100
0000
0001
0100
0001
0100
0001
0000
0101
0000
0000
0000
,  // measure 22
1000
0010
1000
0000
1010
0000
0001
0010
0001
0010
0001
0000
0011
0000
0000
0000
,  // measure 23
0001
0010
0100
0000
0220
0000
0330
1100
0000
1100
0000
1000
0100
0010
0001
1000
,  // measure 24
0010
0100
0001
0010
0100
1000
0001
0100
0010
0000
0110
0220
0000
0330
0000
0000
,  // measure 25
1001
0000
1000
0000
1100
0000
0100
0000
0110
0000
0001
0000
0101
0000
0010
0100
,  // measure 26
1000
0000
0001
0000
0011
0000
0100
0000
1100
0000
0010
0000
1010
0000
0100
0010
,  // measure 27
0001
0000
0010
0000
0110
0000
1000
0000
1001
0000
0100
0000
0011
0000
0100
0010
,  // measure 28
0001
0000
1000
0000
0101
0000
0001
0000
1100
0000
0100
0000
0011
0000
0010
0100
,  // measure 29
1000
0000
0010
0000
1100
0000
0001
0000
0110
0000
1000
0000
0101
0000
0010
0100
,  // measure 30
0001
0000
1000
0000
0110
0000
0001
0000
1100
0000
1000
0000
0011
0000
0100
0010
,  // measure 31
1000
0100
0011
0100
1010
0100
1001
0220
,  // measure 32
2002
0000
3333
0000
,  // measure 33
2002
3003
0000
2200
3300
0000
1001
0000
0202
0303
0000
0220
0330
0000
1100
0000
,  // measure 34
0220
0330
0000
0202
0303
0000
1001
0000
2200
3300
0000
2002
3003
0000
0101
0000
,  // measure 35
0220
0330
0000
2020
3030
0000
0110
0000
0022
0033
0000
2002
3003
0000
1010
0000
,  // measure 36
2002
3003
0000
0022
0033
0000
0110
0000
1010
0000
0110
0000
0011
0000
0000
0000
,  // measure 37
2002
0000
0000
0220
0330
0000
0010
0000
0020
0030
0000
0220
0330
0000
3003
0000
,  // measure 38
0220
0000
0000
2002
3003
0000
1000
0000
2000
3000
0000
2002
3003
0000
0330
0000
,  // measure 39
2002
0000
0000
0220
0330
0000
0100
0000
0200
0300
0000
0220
0330
0000
3003
0000
,  // measure 40
0220
0000
0000
2002
3003
0000
0001
0000
0002
0003
0000
2002
3003
0000
0330
0000
,  // measure 41
1000
0100
0010
0001
1000
0010
0100
0001
,  // measure 42
0010
0100
1000
0001
0100
0010
1000
0100
,  // measure 43
0001
0100
1000
0010
0001
0010
1000
0100
,  // measure 44
0001
0010
1000
0010
0001
0100
2000
0002
,  // measure 45
3213
0010
0001
0001
1000
1300
2200
3300
,  // measure 46
0120
0100
1000
1000
0001
0031
0022
0033
,  // measure 47
2100
0100
0001
0001
0010
3010
2020
3030
,  // measure 48
0012
0010
1000
1000
0100
0103
0202
0303
,  // measure 49
1000
0000
0100
0000
0010
0000
0001
0010
0100
0000
1000
0000
0100
0010
0001
0010
,  // measure 50
0100
0000
1000
0000
0100
0000
0010
0001
0010
0000
0100
0000
1000
0100
0010
0001
,  // measure 51
0010
0000
1000
0000
0001
0000
0100
0010
1000
0000
0001
0000
0100
0010
1000
0001
,  // measure 52
0100
0000
0010
0000
1000
0000
0001
0100
0010
0000
1000
0000
0001
0100
0010
1000
,  // measure 53
0001
0000
0100
0000
0001
0000
0010
0001
0100
0000
0001
0000
0010
0001
0100
0001
,  // measure 54
1000
0000
0010
0000
1000
0000
0100
1000
0010
0000
1000
0000
0100
1000
0010
1000
,  // measure 55
0001
0000
0010
0000
1000
0000
0010
0001
0100
0000
1000
0000
0100
0001
0010
1000
,  // measure 56
0010
0000
0001
0000
0010
0000
1000
0001
0020
0000
0000
0200
0000
0000
0330
0000
,  // measure 57
2200
0000
0000
0022
0033
0000
0011
0000
0022
0033
0000
0022
0033
0000
3300
0000
,  // measure 58
0022
0000
0000
2200
3300
0000
1100
0000
2200
3300
0000
2200
3300
0000
0033
0000
,  // measure 59
1000
0100
0010
0000
0001
0010
0100
0000
0010
0100
0001
0000
0100
0010
1000
0000
,  // measure 60
0001
0010
0100
0010
0001
1000
0100
0010
0200
2000
0000
0000
3311
0000
0000
0000
,  // measure 61
0202
0000
0000
2020
3030
0000
1010
0000
2020
3030
0000
2020
3030
0000
0303
0000
,  // measure 62
2020
0000
0000
0202
0303
0000
0101
0000
0202
0303
0000
0202
0303
0000
3030
0000
,  // measure 63
0001
0100
0010
0000
1000
0010
0100
0000
0010
0100
1000
0000
0100
0010
0001
0000
,  // measure 64
1000
0100
0010
0100
1000
0001
0010
0100
0020
0002
0000
0000
1133
0000
0000
0000
,  // measure 65
2000
0100
3002
0010
0100
1000
0203
1000
,  // measure 66
0320
1000
0001
0001
0230
0001
1000
1000
,  // measure 67
0302
0010
2003
0100
0010
0010
3002
0010
,  // measure 68
0203
0010
2300
0010
3002
0100
0023
0100
,  // measure 69
0032
1000
0203
1000
0010
0010
0302
0010
,  // measure 70
2003
0010
0010
0100
3200
0010
0010
0001
,  // measure 71
0302
0010
0203
1000
0010
0010
2300
0001
,  // measure 72
3020
0100
0032
1000
0203
0010
2300
0001
,  // measure 73
3020
0100
0100
1000
2030
0100
0100
0001
,  // measure 74
3002
0010
0010
0100
0203
0010
0302
0010
,  // measure 75
2003
0010
3200
0001
0320
0001
0001
0100
,  // measure 76
0230
0001
2300
0010
0002
0000
0220
3003
,  // measure 77
0330
2002
0000
0000
0000
0000
0000
3003
,  // measure 78
1000
0100
1000
0000
0001
0010
0001
0000
1000
0010
1000
0000
0001
0100
0001
0000
,  // measure 79
0010
1000
0010
0000
0100
0001
0100
0000
0010
0001
0010
0000
0100
1000
0100
0000
,  // measure 80
1000
0100
0010
0000
0001
0010
0100
0000
0010
0100
0001
0000
0100
0010
1000
0000
,  // measure 81
0100
0010
0100
0010
1000
0001
1000
0001
0100
0001
0100
0001
0100
0010
0100
0010
,  // measure 82
1000
0010
1000
0010
1000
0100
1000
0100
0010
0100
0010
0100
0010
1000
0010
1000
,  // measure 83
0001
1000
0001
0010
0001
0010
0101
0010
0100
0010
0100
1000
0100
1000
0010
1000
,  // measure 84
0010
1000
0010
0100
0010
0100
0001
0100
0001
0100
0001
0010
0002
0020
0000
0000
,  // measure 85
0033
0000
0000
0000
;
