#TITLE:Shinobi 3;
#SUBTITLE:- Whirlwind [Galeforce OC Remix];
#ARTIST:Sega;
#TITLETRANSLIT:;
#SUBTITLETRANSLIT:;
#ARTISTTRANSLIT:;
#CREDIT:;
#BANNER:ShinobiLogo.png;
#BACKGROUND:ShinobiBG.png;
#LYRICSPATH:;
#CDTITLE:;
#MUSIC:Shinobi Remix.mp3;
#OFFSET:-0.220;
#SAMPLESTART:75.330;
#SAMPLELENGTH:15.000;
#SELECTABLE:YES;
#BPMS:0.000=134.000;
#STOPS:296.000=1.320
;
#BGCHANGES:;
// cache tags:
#FIRSTBEAT:32.000;
#LASTBEAT:299.000;
#SONGFILENAME:Songs/Games/Shinobi Remix/Shinobi.sm;
#HASMUSIC:1;
#HASBANNER:1;
#MUSICLENGTH:138.164;
// end cache tags

//---------------dance-single - BASIC----------------
#NOTES:
     dance-single:
     BASIC:
     Easy:
     3:
     0.204,0.271,0.116,0.217,0.000,151.000,16.000,30.000,0.000,0.000:


0000
0000
0000
0000
,
0000
0000
0000
0000
,
0000
0000
0000
0000
,
0000
0000
0000
0000
,
0000
0000
0000
0000
,
0000
0000
0000
0000
,
0000
0000
0000
0000
,
0000
0000
0000
0000
,
0002
0000
0000
0000
0000
0000
0000
0003
,
2000
0000
0000
0000
,
3000
0002
0000
0000
0000
0000
0000
0003
,
2000
0000
0000
0000
0000
0000
0000
3000
,
0020
0000
0000
0000
0000
0000
0000
0030
,
0200
0000
0000
0000
,
0300
0020
0000
0000
0000
0000
0030
0000
,
0010
0000
0000
0010
0000
0000
0010
0000
,
0010
0001
0100
0010
,
0100
0001
1000
0100
,
0000
0001
1000
0010
,
0001
0010
1000
0100
,
0001
0001
0010
0000
,
0010
0100
1000
0100
,
0010
0001
0001
0001
,
0001
0001
0001
0001
,
2002
0000
0000
0000
,
0000
0000
0000
3003
,
0200
0000
0000
0002
0000
0000
0000
0000
,
0000
0000
0303
0000
2000
0000
3000
0200
,
0000
0000
0000
0302
0000
0000
0000
0000
,
0000
0000
0000
0003
,
2000
0000
0000
0002
3000
0003
0002
0000
,
0000
0000
0000
0003
0001
0000
0000
0001
,
0000
0000
0000
0000
,
0000
0000
0000
0000
,
2000
0000
3000
2000
0000
0000
0000
0000
,
3200
0000
0300
2000
0000
0000
3000
0200
,
0000
0000
0300
0020
0000
0000
0000
0030
,
2000
0000
0000
0000
0000
0000
3002
0000
0000
0000
0000
0003
0000
0000
0000
0000
,
2000
0000
0000
3020
0000
0000
0000
0000
,
0032
0000
0000
0000
0003
0020
0000
0000
,
0031
0000
1000
0000
,
0100
0000
0110
0000
,
1001
0100
0001
0000
,
0100
0100
0001
0001
,
0010
0100
0100
0000
,
0001
1000
0010
1000
,
0001
0100
0010
0000
,
0001
0001
0100
0010
,
0100
0010
0010
0000
,
1000
0010
0001
0001
,
1000
0001
1000
0000
,
0100
0100
0010
0001
,
0000
1000
1000
0100
,
0100
0010
0001
0100
,
0010
0100
0010
0000
,
0001
1000
0100
1000
,
0001
0100
1000
0000
,
0001
0100
0010
0001
,
0020
0000
0000
0000
,
0000
0000
0000
0030
,
1001
0000
0010
0000
,
1001
0000
0100
1100
,
0100
0100
0010
0000
,
0100
1000
1000
0100
,
0000
0110
0000
1001
,
0000
1001
0000
0110
,
0100
0000
0000
0000
,
0001
0000
0000
0000
,
0100
0000
0000
0000
,
1000
0000
0000
0000
,
0011
0000
0000
0000
,
1100
0000
0000
0000
,
0101
0000
0000
0000
,
1010
0000
0000
0010
,
1001
0000
0000
0101;

//---------------dance-single - ANOTHER----------------
#NOTES:
     dance-single:
     ANOTHER:
     Medium:
     5:
     0.239,0.298,0.130,0.224,0.004,182.000,18.000,31.000,0.000,0.000:

0000
0000
0000
0000
,
0000
0000
0000
0000
,
0000
0000
0000
0000
,
0000
0000
0000
0000
,
0000
0000
0000
0000
,
0000
0000
0000
0000
,
0000
0000
0000
0000
,
0000
0000
0000
0000
,
0010
0000
0000
0101
0000
0000
0000
0001
,
0001
0000
0000
0010
0000
0000
1000
0000
,
0000
0100
0000
0000
1001
0000
0000
1000
,
1000
0000
0000
1010
0000
0000
1100
0000
,
0001
0000
0000
0100
0000
0000
0000
0010
,
0010
0000
0000
0100
0000
0000
1001
0000
,
0000
0001
0000
0000
1000
0000
0000
0000
,
1001
0000
0000
0110
0000
0000
1001
0000
,
0010
0100
0010
1000
,
0100
0000
0010
0000
0001
0000
1000
0001
,
1000
0010
1000
0100
,
0001
0000
0010
0000
0100
0000
0001
1000
,
0001
0100
0100
0010
,
1000
0000
0001
0000
1000
0000
1000
0001
,
1000
0001
0001
0100
,
0100
0000
1000
0000
0001
2000
0002
0000
,
0000
0000
0000
0000
,
0000
0000
3003
0000
,
2000
0000
0000
0002
0000
3000
0000
0000
,
0000
0000
0000
0003
0100
0100
0000
0020
,
0000
0000
0000
0230
0000
0000
0000
0000
,
0000
0000
0000
0300
,
2000
0000
0000
0002
3000
0000
0200
0000
,
0000
0303
0100
0100
,
0100
1001
0000
0110
,
0000
1100
0010
0101
,
0002
0000
0000
2000
0003
0000
0000
0000
,
3200
0000
0000
0302
0000
0000
0000
0203
,
0000
0000
0000
0000
0000
0000
2300
0000
0000
0000
0000
0000
0100
0000
0000
3000
,
0200
0000
0000
0000
0000
0300
0020
0000
0000
0000
0000
0030
0000
0000
0000
0000
,
2000
0000
0000
0020
3000
0000
0000
0000
,
2030
0000
0000
0000
0000
0000
0000
0000
0000
3000
0020
0000
0000
0000
0002
0000
,
0000
0000
0000
0033
0000
0000
1000
0000
,
0000
0001
0110
1001
,
0010
0000
0000
0010
0000
0000
0000
1000
,
1000
0000
0000
0100
0000
0000
0100
0000
,
0000
0010
0000
0000
0001
0000
0000
0100
,
0100
0000
0000
1000
0000
0000
0001
0000
,
1000
0000
0000
0010
0000
0000
0000
1000
,
1000
0000
0000
0100
0000
0000
1001
0000
,
0000
0100
0000
0000
0100
0000
0000
0001
,
1000
0000
0000
0010
0000
0000
0010
0000
,
0110
0000
0000
0100
0000
0000
0000
1000
,
0001
0000
0000
0100
0000
0000
1000
0000
,
0000
0001
0000
0000
0001
0000
0000
1000
,
0100
0000
0000
0010
0000
0000
0011
0000
,
0010
0000
0000
0010
0000
0000
0000
0001
,
0001
0000
0000
0100
0000
0000
1000
0000
,
0000
0100
0000
0000
0010
0000
0000
0001
,
0001
0000
0000
0010
0000
0000
0010
0000
,
0020
1000
0100
1000
,
0001
0100
1000
0031
,
0100
0100
0000
0000
0100
0000
0000
0001
,
0001
0000
0000
0100
0000
0000
0100
0000
,
0010
0000
0000
0001
0000
0000
0000
0001
,
0010
0000
0000
0100
0000
0000
1000
0000
,
0000
0100
0000
0000
0100
0000
0000
0010
,
0010
0000
0000
0001
0000
0000
1000
0000
,
0200
0000
0000
0000
,
0302
0000
0000
0000
,
0203
0000
0000
0000
,
2300
0000
0000
0000
,
3020
0000
0000
0000
,
0230
0000
0000
0000
,
0302
0000
0000
0000
,
2003
0000
0000
0000
0000
0000
0000
3000
,
1001
0000
0000
0000
1000
0000
0000
0001
0000
0000
1000
0000
0001
0000
0000
0000;

//---------------dance-single - MANIAC----------------
#NOTES:
     dance-single:
     MANIAC:
     Hard:
     8:
     0.398,0.433,0.304,0.181,0.326,318.000,42.000,25.000,0.000,0.000:





0000
0000
0000
0000
,
0000
0000
0000
0000
,
0000
0000
0000
0000
,
0000
0000
0000
0000
,
0000
0000
0000
0000
,
0000
0000
0000
0000
,
0000
0000
0000
0000
,
0000
0000
0000
0000
,
1010
0000
0000
0010
0000
0000
0011
0000
0000
0000
0000
0000
0000
0000
0001
0000
,
0001
0000
0000
0001
0000
0000
1000
0000
0000
0001
0000
0000
1000
0000
0011
0000
,
0011
0000
0100
0000
0000
0010
0000
0000
1100
0000
0000
0000
0000
0000
0001
0000
,
0001
0000
0000
0001
0000
0000
1010
0000
0000
0001
0000
0000
0101
0000
0100
0000
,
0001
0000
0000
0001
0000
0000
0001
0000
0000
0000
0000
0000
0000
0000
0001
0000
,
0001
0000
0000
1000
0000
0000
0110
0000
0000
1000
0000
0000
0001
0000
0000
0000
,
0000
0000
0001
0000
0000
0100
0000
0000
0001
0000
0000
0000
0000
0000
0010
0000
,
1001
0000
0000
1000
0000
0000
0110
0000
0000
1000
0000
0000
1001
0000
0000
0000
,
1001
0000
0000
0100
0000
0000
0001
0000
0000
0000
0000
0000
0000
0000
0100
0000
,
0100
0000
0000
0010
0000
0000
0001
0000
0000
1000
0000
0000
0100
0000
0100
0000
,
1000
0000
1000
0000
0000
0001
0000
0000
1000
0000
0000
0000
0000
0000
0001
0000
,
0001
0000
0000
1000
0000
0000
0100
0000
0000
1000
0000
0000
0001
0000
0001
0000
,
0001
0000
0000
0010
0000
0000
0001
0000
0000
0000
0000
0000
0000
0000
0010
0000
,
0010
0000
0000
0100
0000
0000
1000
0000
0000
0010
0000
0000
0100
0000
0010
0000
,
0001
0000
0001
0000
0000
0001
0000
0000
0001
0000
0000
0000
0000
0000
1000
0000
,
1000
0000
0000
0001
0000
0000
1000
0000
0000
0001
0000
0000
1000
0000
0000
0001
,
0000
0000
1000
0000
0000
0001
0000
0000
1000
0000
0000
0001
0000
0000
1000
0000
,
0000
0001
0000
0000
1000
0000
0000
0001
0000
0000
1000
0000
0000
0000
0100
0010
,
0200
0000
0000
0002
0000
0300
0000
0000
,
0000
0000
0000
0003
1000
2000
0000
3020
,
0000
0000
0000
0032
0000
0000
0000
0000
,
0000
0000
0000
0000
0000
0000
0000
0000
0000
0000
0000
0000
0003
0000
1000
0100
,
2000
0000
0000
0002
3000
0000
0200
0000
,
0003
0000
0000
0000
0000
0300
0000
0000
0001
0000
1000
0000
0000
0000
0101
0000
,
1000
0000
0000
1000
0000
0000
1000
0000
0000
0000
0001
0000
0000
0000
0010
0000
,
0100
0000
0000
0010
0000
0000
0100
0000
0010
0100
0000
0010
0000
0000
0001
0100
,
0002
0000
0000
2000
0003
0000
0000
0000
,
3200
0000
0000
0300
0020
0000
0002
0030
0000
0003
2000
0000
0000
3000
0200
0000
,
0000
0000
0000
0302
0000
0000
2000
0003
,
0200
0000
0000
3000
0000
0300
0002
0000
0000
0000
0000
0003
0000
0000
1000
0100
,
2000
0000
0000
0020
3000
0000
0000
0000
,
0032
0000
0000
0003
0200
0000
2000
0300
0000
3000
0020
0000
0000
0000
0031
0000
,
0001
0000
0000
0001
0000
0000
0001
0000
0000
0000
0100
0000
0000
0000
1000
0000
,
0100
0000
0000
0001
0000
0000
0100
0000
0010
0010
0000
0100
0000
0000
1001
0000
,
1001
0000
0000
0110
0000
0000
1001
0000
0000
0000
0000
0000
0000
0000
1000
0000
,
1000
0000
0000
0100
0000
0000
0001
0000
0000
0100
0000
0000
0001
0000
0001
0000
,
0100
0000
0100
0000
0000
0010
0000
0000
0100
0000
0000
0000
0000
0000
0001
0000
,
0001
0000
0000
1000
0000
0000
1001
0000
0000
0110
0000
0000
0101
0000
1000
0000
,
0100
0000
0000
0010
0000
0000
0100
0000
0000
0000
0000
0000
0000
0000
0010
0000
,
0010
0000
0000
1000
0000
0000
0110
0000
0000
0010
0000
0000
1001
0000
0100
0000
,
0010
0000
0100
0000
0000
0010
0000
0000
0100
0000
0000
0000
0000
0000
1000
0000
,
1000
0000
0000
0100
0000
0000
0010
0000
0000
0100
0000
0000
0011
0000
0010
0000
,
0110
0000
0000
1001
0000
0000
0110
0000
0000
0000
0000
0000
0000
0000
0001
0000
,
0100
0000
0000
0010
0000
0000
0100
0000
0000
1000
0000
0000
1100
0000
1000
0000
,
1000
0000
0001
0000
0000
0100
0000
0000
0001
0000
0000
0000
0000
0000
0100
0000
,
0100
0000
0000
0100
0000
0000
0010
0000
0000
1100
0000
0000
0101
0000
0100
0000
,
0010
0000
0000
0100
0000
0000
0100
0000
0000
0000
0000
0000
0000
0000
0001
0000
,
0001
0000
0000
0100
0000
0000
1000
0000
0000
0100
0000
0000
1000
0000
1001
0000
,
0001
0000
0001
0000
0000
0100
0000
0000
1000
0000
0000
0000
0000
0000
0001
0000
,
0001
0000
0000
1000
0000
0000
1010
0000
0000
1000
0000
0000
0101
0000
0001
0000
,
0100
0000
0000
0010
0000
0000
0100
0000
0000
0000
0000
0000
0000
0000
0010
0000
,
0010
0000
0000
0100
0000
0000
0001
0000
0000
0010
0000
0000
1000
0000
0010
0000
,
0110
0000
0010
0000
0000
0010
0000
0000
0100
0000
0000
0000
0000
0000
0001
0000
,
0001
0000
0000
1000
0000
0000
0100
0000
0000
0010
0000
0000
1001
0000
0001
0000
,
0100
0000
0000
0010
0000
0000
0100
0000
0000
0000
0000
0000
0000
0000
0001
0000
,
0001
0000
0000
0100
0000
0000
0011
0000
0000
0001
0000
0000
1100
0000
0001
0000
,
0010
0000
0100
0000
0000
0010
0000
0000
0100
0000
0000
0000
0000
0000
0010
0000
,
0010
0000
0000
1000
0000
0000
0001
0000
0000
1000
0000
0000
0110
0000
0010
0000
,
0100
0000
0000
0100
0000
0000
0100
0000
0000
0000
0000
0000
0000
0000
0001
0000
,
0001
0000
0000
0001
0000
0000
0001
0000
0000
0001
0000
0000
0001
0000
0000
0000
,
0000
0000
0100
0000
0000
0100
0000
0000
0100
0000
0000
0000
0000
0000
1000
0000
,
1000
0000
0000
1000
0000
0000
1000
0000
0000
1000
0000
0000
1000
0000
0000
0000
,
0010
0000
0000
0100
0000
0000
0010
0000
0000
0000
0000
0000
0000
0000
0010
0000
,
0010
0000
0000
0010
0000
0000
0100
0000
0000
0100
0000
0000
0100
0000
0000
0000
,
0000
0000
0001
0000
0000
0010
0000
0000
0001
0000
0000
0000
0000
0000
0010
0000
,
0010
0000
0000
1000
0000
0000
0001
0000
0000
1000
0000
0000
0010
0000
0000
0000
,
1001
0000
0000
0000
1100
0000
0000
0110
0000
0000
1100
0000
0101
0000
0000
0000;
