#TITLE:Pokémon;
#SUBTITLE:- Mezase Pokemon Master [Eurobeat mix];
#ARTIST:Nintendo;
#TITLETRANSLIT:Pokemon;
#SUBTITLETRANSLIT:;
#ARTISTTRANSLIT:;
#CREDIT:Anime Toshokan;
#BANNER:Pokemon - Mezase Pokemon Master [Eurobeat mix].png;
#BACKGROUND:Pokemon - Mezase Pokemon Master [Eurobeat mix] bg.png;
#LYRICSPATH:;
#CDTITLE:dejiko.png;
#MUSIC:Pokemon - Mezase Pokemon Master [Eurobeat mix].mp3;
#OFFSET:-3.108;
#SAMPLESTART:27.950;
#SAMPLELENGTH:12.100;
#SELECTABLE:YES;
#BPMS:0.000=308.020;
#STOPS:;
#BGCHANGES:;
// cache tags:
#FIRSTBEAT:0.000;
#LASTBEAT:599.000;
#SONGFILENAME:Songs/DDR Anime 4th Mix/Pokemon - Mezase Pokemon Master [Eurobeat mix]/Pokemon - Mezase Pokemon Master [Eurobeat mix].sm;
#HASMUSIC:1;
#HASBANNER:1;
#MUSICLENGTH:119.883;
// end cache tags

//---------------dance-single - BASIC----------------
#NOTES:
     dance-single:
     BASIC:
     Easy:
     4:
     0.229,0.375,0.033,0.117,0.000,174.000,4.000,14.000,0.000,0.000:
0010
0000
0000
0000
,
1000
0000
0000
0000
,
0001
0000
0000
0000
,
1000
0000
0010
0000
,
0001
0000
0000
0000
,
1000
0000
0000
0000
,
0010
0000
0000
0000
,
0010
0000
0100
0000
,
1000
0000
0000
0000
,
0001
0000
0000
0000
,
1000
0000
0010
0000
,
0001
0000
0010
0000
,
1000
0000
0000
0000
,
0010
0000
0000
0000
,
0100
0000
0000
0000
,
0002
0000
0000
0000
0000
0000
0000
0003
,
1000
0000
0000
0000
,
0001
0000
0000
0000
,
0010
0000
0010
0000
,
2000
0000
0000
0000
0000
0000
0000
0000
0000
0000
0000
0000
0000
3000
0000
0000
,
0001
0000
1000
0000
,
0001
0000
1000
0000
,
0010
0000
0100
0000
,
0002
0000
0000
0000
0000
0000
0000
0000
0000
0000
0000
0000
0000
0003
0000
0000
,
0010
0000
0000
0000
,
1000
0000
0000
0000
,
0010
0000
0000
0000
,
0001
0000
0000
0000
,
1000
0000
0001
0000
,
1000
0000
0001
0000
,
1000
0000
0001
0000
,
1001
0000
0000
0000
,
0001
0000
0000
0000
,
1000
0000
0000
0000
,
0010
0000
0010
0000
,
0000
0000
0000
0000
,
1000
0000
0000
0000
,
0001
0000
0000
0000
,
0010
0000
0000
0000
,
0100
0000
0000
0000
,
1000
0000
0000
0000
,
0001
0000
0000
0000
,
0010
0000
0000
0000
,
0100
0000
0000
0000
,
1000
0000
0001
0000
,
0010
0000
0100
0000
,
0001
0000
1000
0000
,
1001
0000
0000
0000
,
0010
0000
0000
0000
,
0000
0001
0000
0000
,
0000
0100
0000
0000
,
1000
0000
0000
0000
,
0010
0000
0000
0000
,
0001
0000
0000
0000
,
0001
0000
0000
0000
,
1000
0000
0000
0000
,
0010
0000
0000
0000
,
0100
0000
0000
0000
,
0001
0000
0000
0000
,
1000
0000
0000
0000
,
0001
0000
1000
0000
,
0010
0000
0100
0000
,
2002
0000
0000
0000
,
0000
0000
0000
0000
,
0000
0000
0000
0000
,
0000
0000
0000
0000
0000
0000
0000
3003
,
0010
0000
0000
0000
,
0010
0000
0100
0000
,
0002
0000
0000
0000
0000
0000
0000
0000
0000
0000
0000
0000
0000
0000
0000
0000
0000
0000
0000
0003
0000
0000
0000
0000
,
0000
0000
0000
0000
,
1000
0000
0000
0000
,
0001
0000
0200
0000
,
0000
0000
0000
0000
,
0000
0000
0000
0000
0000
0000
0000
0300
,
0010
0000
0000
0000
,
1000
0000
0000
0000
,
0100
0000
0000
0000
,
0001
0000
0000
0000
,
0100
0000
0000
0000
,
0001
0000
0000
0000
,
2000
0000
0000
0000
,
0000
0000
0000
0000
,
0000
0000
0000
3000
,
0000
0000
0000
0000
,
0010
0000
0001
0000
,
0010
0000
1000
0000
,
0010
0000
0000
0000
,
0100
0000
0000
0000
,
0001
0000
1000
0000
,
0100
0000
0010
0000
,
0001
0000
0000
0000
,
1000
0000
0000
0000
,
0010
0000
0100
0000
,
0001
0000
1000
0000
,
0100
0000
0000
0000
,
0001
0000
0000
0000
,
1000
0000
0010
0000
,
0001
0000
0100
0000
,
1000
0000
0000
0000
,
0010
0000
1001
0000
,
0010
0000
0000
0000
,
1000
0000
0000
0000
,
0001
0000
0000
0000
,
1000
0000
0001
0000
,
0100
0000
0000
0000
,
0001
0000
0000
0000
,
1000
0000
0000
0000
,
0001
0000
1000
0000
,
0100
0000
0000
0000
,
0001
0000
0000
0000
,
1000
0000
0000
0000
,
0001
0000
0100
0000
,
1000
0000
0000
0000
,
0100
0000
0000
0000
,
0010
0000
0001
0000
,
0100
0000
0010
0000
,
0002
0000
0000
0000
0000
0000
0000
0000
0000
0000
0000
0003
,
0020
0000
0000
0030
,
2000
0000
0000
0000
0000
0000
0000
0000
0000
0000
0000
0000
0000
0000
0000
0000
0000
0000
0000
0000
0000
0000
0000
0000
0000
0000
0000
0000
0000
0000
0000
0000
0000
0000
0000
0000
0000
0000
0000
0000
0000
3000
0000
0000
0000
0000
0000
0000
,
0200
0000
0000
0000
0000
0000
0000
0300
,
0010
0000
0000
0000
,
0001
0000
0000
0000
,
1000
0000
0000
0000
,
0000
0000
0000
0000
,
0010
0000
0000
0000
,
1000
0000
0000
0000
,
0001
0000
0000
0000
,
0010
0000
0000
0000
,
0100
0000
0010
0000
,
1000
0000
0001
0000
,
0002
0000
0000
0000
,
0000
0000
0000
0000
0000
0000
0000
0000
0000
0000
0000
0003
0000
0000
0000
0000
,
0001
0000
0000
0000
,
0010
0000
0000
0000
,
1000
0000
0000
0000
,
0100
0000
0000
0000
,
0010
0000
0000
0000
,
1000
0000
0000
0000
,
0001
0000
0000
0000
,
0100
0000
0000
0000
,
1000
0000
0000
0000
,
0001
0000
0000
0000
,
0010
0000
0100
0000
,
0001
0000
1000
0000
,
0010
0000
0100
0000
,
1000
0000
0001
0000
,
0020
0000
0000
0000
,
0000
0000
0000
0000
,
0000
0000
0000
0000
,
0000
0000
0000
0000
0000
0000
0000
0000
0000
0000
0000
0000
0000
0000
0000
0000
0000
0000
0000
0000
0000
0000
0000
0000
0000
0000
0000
0000
0000
0000
0000
0000
0000
0000
0000
0030
0000
0000
0000
0000
0000
0000
0000
0000
0000
0000
0000
0000
;

//---------------dance-single - ANOTHER----------------
#NOTES:
     dance-single:
     ANOTHER:
     Medium:
     8:
     0.573,0.562,0.083,0.259,0.000,440.000,10.000,31.000,0.000,0.000:
1000
0010
0100
0001
,
0010
1000
0001
0100
,
0001
0010
0001
1000
,
1000
0100
1000
0001
,
1000
0010
0100
0001
,
0100
0001
1000
0010
,
1000
0100
0010
0001
,
0010
0001
1000
0100
,
1000
0010
0100
0001
,
0010
0100
0010
1000
,
1000
0010
1000
0010
,
0001
0010
0001
0010
,
0010
0010
0100
0100
,
1000
0001
0010
1000
,
0010
0100
0001
0100
,
2000
0000
0000
0000
0000
0000
0000
0000
0000
0000
0000
0000
0000
0000
0000
3000
,
0010
0010
0100
0100
,
1000
0001
0010
0100
,
0010
0010
1000
0100
,
0002
0000
0000
0000
0000
0000
0000
0000
0000
0000
0000
0000
0000
0000
0000
0000
0000
0000
0000
0000
0000
0000
0000
0000
0000
0000
0000
0000
0000
0000
0000
0000
0000
0000
0000
0000
0000
0000
0000
0000
0000
0003
0000
0000
0000
0000
0000
0000
,
1000
1000
0001
0001
,
0010
0010
0100
0100
,
1000
0010
0100
0001
,
2000
0000
0000
3000
,
0001
1000
0010
0100
,
1000
0000
0000
0002
0000
0000
0000
0000
0000
0000
0000
0003
,
0010
0000
0000
0000
0000
0000
0000
0000
0000
0000
0000
0000
0200
0000
0000
0000
0000
0000
0000
0000
0000
0000
0000
0000
0000
0000
0000
0000
0000
0000
0000
0000
0000
0000
0000
0000
0000
0000
0000
0000
0000
0300
0000
0000
0000
0000
0000
0000
,
1000
0100
0010
0001
,
0001
1000
0001
1000
,
0010
0100
0010
0100
,
1000
0001
1000
0001
,
0220
0000
0000
0000
0000
0000
0000
0000
0000
0000
0000
0000
0000
0000
0000
0000
0000
0000
0000
0000
0000
0000
0000
0000
0000
0000
0000
0000
0000
0000
0000
0000
0000
0000
0000
0330
0000
0000
0000
0000
0000
0000
0000
0000
0000
0000
0000
0000
,
1000
1000
0010
0100
,
0001
0000
1000
0010
,
0001
0100
0000
0000
,
0001
0100
0001
0100
,
0010
0100
1000
0001
,
0010
0000
1000
0100
,
0001
0000
0001
0100
,
0010
0000
0000
0000
,
0010
0100
0001
0010
,
1000
0002
0000
0003
,
0001
0010
0100
1000
,
0020
0000
0000
0000
0000
0000
0000
0000
0000
0000
0000
0000
0000
0000
0000
0000
0000
0000
0000
0000
0000
0000
0000
0000
0000
0000
0000
0000
0000
0000
0000
0000
0000
0000
0000
0030
0000
0000
0000
0000
0000
0000
0000
0000
0000
0000
0000
0000
,
1000
0100
0010
0001
,
0001
0010
0100
1000
,
0010
1000
0100
0001
,
0011
0000
0000
0000
,
0010
1000
0001
0100
,
0010
0100
0100
0001
,
0001
0010
0100
1000
,
1001
0000
0010
0100
,
0001
1000
0010
0100
,
0001
0010
1000
0100
,
0010
0000
0000
0200
0000
0000
0000
0000
0000
0000
0000
0300
,
0000
0000
0010
0100
,
1000
0001
0010
0100
,
0010
0100
0100
0001
,
1000
0001
1000
0010
,
0010
1000
0100
0001
,
0001
0000
1000
0000
,
0010
0000
0100
0000
,
2002
0000
0000
0000
,
0000
0000
0000
0000
,
0000
0000
0000
0000
0000
0000
0000
0000
0000
0000
0000
0000
0000
0000
0000
0000
0000
0000
0000
0000
0000
0000
0000
0000
0000
0000
0000
0000
0000
0000
0000
0000
0000
0000
0000
3003
0000
0000
0000
0000
0000
0000
0000
0000
0000
0000
0000
0000
,
0000
0000
0000
0000
,
0010
0000
0000
0000
,
1000
0000
0001
0000
0010
0100
0000
0000
,
1001
0000
0000
0000
,
0000
0000
0000
0010
,
0010
0010
0100
0100
,
1000
1000
0001
0200
,
0000
0000
0000
0000
0000
0000
0000
0300
,
0000
0000
0000
0001
,
1000
0100
0001
0020
,
0000
0000
0000
0000
0000
0000
0000
0000
0030
0100
0000
0000
,
1000
0001
0100
0020
,
0000
0000
0000
0000
0000
0000
0000
0000
0000
0000
0000
0000
0000
0000
0000
0000
0000
0000
0000
0000
0000
0000
0000
0000
0000
0000
0000
0000
0000
0030
0000
0000
0000
0000
0000
0000
0100
0000
0000
0000
0000
0000
0000
0000
0000
0000
0000
0000
,
0001
1000
0001
0200
,
0000
0000
0000
0000
0000
0300
0000
0000
0010
0000
0000
0000
2002
0000
0000
0000
,
0000
0000
0000
0000
,
0000
0000
0000
0000
,
0000
0000
0000
0000
,
0000
0000
0000
0000
0000
0000
0000
0000
0000
0000
0000
0000
0000
0000
0000
0000
0000
0000
0000
0000
0000
0000
0000
0000
0000
0000
0000
0000
0000
0000
0000
0000
0000
0000
0000
0000
0000
0000
0000
0000
0000
3003
0000
0000
0000
0000
0000
0000
,
0001
0010
0100
1000
,
0001
0000
0020
0000
0000
0030
1000
0000
,
0010
0000
0100
0001
,
0000
0010
0100
0000
,
1000
0100
0010
0001
,
1000
0000
0000
0002
0000
0000
0000
0000
0003
0100
0000
0000
,
0010
0000
0000
0100
,
0000
0010
0000
0000
,
1000
0100
0010
0001
,
0010
0000
0000
0000
0200
0000
0000
0000
0000
0000
0000
0300
0010
0000
0000
0000
,
1000
0000
0001
0100
,
0000
0010
0100
0000
,
0001
1000
0010
0100
,
0001
0000
0000
0000
2000
0000
0000
0000
0000
3000
0000
0000
0001
0000
0000
0000
,
0010
0000
1000
0000
,
0010
0100
1001
0000
,
1000
0010
0001
0100
,
0001
1000
0100
0001
,
0010
0100
0001
1000
,
0010
1000
0001
0010
,
1000
1000
0001
0001
,
0010
0100
1000
0001
,
0010
1000
0001
0100
,
1000
0001
1000
0100
,
0010
1000
0100
0001
,
0001
1000
0100
0001
,
1000
0001
0010
0100
,
0010
0001
1000
0100
,
1000
0100
0010
0001
,
0001
0010
0100
1000
,
0010
0100
0010
0100
,
1000
0001
1000
0010
,
0002
0000
0000
0000
0000
0000
0000
0003
1000
0000
0000
0000
0000
0000
0000
0000
,
2000
0000
0000
0000
0000
3000
0001
0000
0000
0000
0000
0000
,
0020
0000
0000
0000
0000
0030
0100
0000
0000
0000
0000
0000
,
1001
0000
0010
0100
,
1000
1000
0100
0010
,
0001
0001
0010
0100
,
0010
0000
0000
0000
0200
0000
0000
0000
0000
0000
0000
0300
0000
0000
0000
0000
,
0000
0000
0010
1000
,
0001
0010
0010
0100
,
1000
0001
0001
0100
,
0010
0100
0100
1000
,
1000
1000
0010
0100
,
0001
0000
1000
0000
,
0010
0000
0100
0000
,
2002
0000
0000
0000
0000
0000
0000
0000
0000
0000
0000
0000
0000
0000
0000
0000
0000
0000
0000
0000
0000
0000
0000
0000
0000
0000
0000
0000
0000
0000
0000
0000
0000
0000
0000
3003
0000
0000
0000
0000
0000
0000
0000
0000
0000
0000
0000
0000
,
0000
0000
0000
0000
,
0010
1000
0100
0001
,
0001
0010
0100
1000
,
1000
0100
0010
0001
,
1000
0000
0001
0010
,
0010
0100
1000
0001
,
0001
0010
0100
1000
,
0100
0000
0000
0000
0020
0000
0000
0000
0000
0000
0000
0030
0000
0000
0000
0000
,
0000
0000
0100
0010
,
1000
0001
0010
0100
,
0010
0100
0100
0010
,
0001
1000
1000
0100
,
1000
1000
0010
0100
,
0001
0000
0010
0000
,
1000
0000
0100
0000
,
0220
0000
0000
0000
,
0000
0000
0000
0000
,
0000
0000
0000
0000
,
0000
0000
0000
0330
;

//---------------dance-single - MANIAC----------------
#NOTES:
     dance-single:
     MANIAC:
     Hard:
     10:
     0.980,1.000,0.467,0.676,0.000,685.000,56.000,81.000,0.000,0.000:
1000
0100
0010
0100
0001
0000
1000
0000
,
0001
1000
0001
0010
,
1000
0100
1000
0001
0010
0000
0001
0000
,
0010
1000
0001
0100
0010
1000
0001
0100
,
1000
0001
0010
0100
0001
0000
1000
0000
,
0010
0001
0010
0100
,
0010
0100
1000
0010
0001
0000
1000
0000
,
0010
1000
0001
0100
0010
0100
0001
1000
,
0001
0100
1000
0100
0001
0000
0010
0000
,
0001
0010
0100
0010
,
0001
0010
0001
0010
0100
0010
0100
0010
,
1000
0001
0010
0100
0001
0010
0100
0010
,
1000
0100
1000
0100
0001
0010
0001
0010
,
0100
0010
0100
0010
1000
0001
0000
0000
,
0001
0000
0010
0000
0100
0010
0000
0000
,
2000
0000
0001
3000
0010
0000
0100
0000
,
1000
0100
1000
0100
0001
0010
0001
0010
,
1000
0001
0000
0001
0010
0000
0000
0100
,
1010
0000
0011
0000
0010
0100
0000
0000
,
2000
0000
0000
0000
0000
0000
0000
0000
0000
0000
0000
0000
0001
0000
0000
0000
0000
3000
0000
0000
0000
0000
0000
0000
0010
0000
0000
0000
0000
0000
0000
0000
0000
0000
0000
0000
0100
0000
0000
0000
0000
0000
0000
0000
0000
0000
0000
0000
,
1000
0001
1000
0001
1000
0001
1000
0001
,
0010
0100
0010
0100
0010
0100
0010
0100
,
0010
0000
1000
0000
1000
0001
0000
0000
,
2000
0000
0000
0000
0000
0000
0000
0000
0000
0000
0000
0000
0001
0000
0000
0000
0000
3000
0000
0000
0000
0000
0000
0000
0010
0000
0000
0000
0000
0000
0000
0000
0000
0000
0000
0000
0100
0000
0000
0000
0000
0000
0000
0000
0000
0000
0000
0000
,
1000
0100
0000
0000
0001
0000
0010
0000
,
0010
0000
0000
0000
0000
0000
2000
0000
0000
0000
0000
0000
0000
0000
0000
0000
0000
0000
0000
0000
0000
0000
0000
3000
0000
0000
0000
0000
0000
0000
0000
0000
0000
0000
0000
0000
0100
0000
0000
0000
0000
0000
0000
0000
0000
0000
0000
0000
,
0002
0000
0000
0000
0000
0000
0000
0000
0000
0000
0000
0000
1000
0000
0000
0000
0000
0003
0000
0000
0000
0000
0000
0000
2000
0000
0000
0000
0000
0000
0000
0000
0000
0000
0000
0000
0001
0000
0000
0000
0000
3000
0000
0000
0000
0000
0000
0000
,
0002
0003
0020
0030
0200
0300
2000
3000
,
0020
0030
0200
0300
0020
0030
0200
0300
,
2000
3000
0002
0003
2000
3000
0002
0003
,
2000
3000
0002
0003
0200
0300
0020
0030
,
2002
0000
0000
3003
0010
0000
0000
0000
,
0010
0100
0010
0000
1000
0000
0010
0000
,
0011
0000
0000
0000
0010
1000
0100
0001
,
0110
0000
1001
0000
0010
0100
0010
0100
,
1000
0001
0010
0100
,
1000
0001
0010
0000
1000
0100
1000
0001
,
0110
0000
0000
0000
0001
0010
0100
1000
,
1001
0000
0010
1000
,
0110
1000
0001
0010
,
1000
0010
0001
0100
,
0001
0010
1000
0100
,
0010
0100
0001
1000
,
0002
0000
0000
0000
0000
0000
0000
0000
0000
0000
0000
0000
1000
0000
0000
0000
0000
0003
0000
0000
0000
0000
0000
0000
0100
0000
0000
0000
0000
0000
0000
0000
0000
0000
0000
0000
0010
0000
0000
0000
0000
0000
0000
0000
0000
0000
0000
0000
,
0001
0001
0010
0100
,
1000
0100
0010
0100
,
1010
0000
0000
0101
0000
0000
1010
0000
,
0110
0001
1000
0010
,
1000
0010
0010
0001
,
0001
0100
0100
1000
,
1000
0001
0110
1001
,
0220
0000
0000
0000
0000
0000
0000
0000
0000
0000
0000
0000
0000
0000
0000
0000
0000
0330
0000
0000
0000
0000
0000
0000
1000
0000
0000
0000
0000
0000
0000
0000
0000
0000
0000
0000
0001
0000
0000
0000
0000
0000
0000
0000
0000
0000
0000
0000
,
0001
0010
0010
0001
,
1000
0010
0100
0001
,
2000
0000
0000
3000
0010
0000
0000
0000
1000
0000
0000
0000
0001
0000
0000
0000
,
0001
1000
0010
0100
,
1000
0001
0010
0100
,
0100
0010
1000
0100
,
0001
0000
1000
0100
0010
0000
1000
0000
,
1000
0000
0010
0100
0010
0000
1000
0000
,
0012
0000
0000
0003
1000
0000
0000
0000
2100
0000
0000
3000
0001
0000
0000
0000
,
1002
0000
0000
0003
0010
0000
0000
0000
0120
0000
0000
0030
1000
0000
0000
0000
,
2010
0000
0000
0000
0000
0000
0000
0000
0000
0000
0000
0000
0001
0000
0000
0000
0000
3000
0000
0000
0000
0000
0000
0000
0010
0000
0000
0000
0000
0000
0000
0000
0000
0000
0000
0000
0100
0000
0000
0000
0000
0000
0000
0000
0000
0000
0000
0000
,
1001
0010
0100
0001
,
1000
0001
1000
0001
0010
0100
0010
0100
,
1000
0100
1000
0100
0001
0010
0001
0010
,
0012
0000
0000
0000
0000
0000
0000
0000
0000
0000
0000
0000
0100
0000
0000
0000
0000
0003
0000
0000
0000
0000
0000
0000
1000
0000
0000
0000
0000
0000
0000
0000
0000
0000
0000
0000
0010
0000
0000
0000
0000
0000
0000
0000
0000
0000
0000
0000
,
0011
0000
1100
0000
0010
0100
0000
0000
,
2001
0000
0000
0000
0000
0000
0000
0000
0000
0000
0000
0000
0010
0000
0000
0000
0000
3000
0000
0000
0000
0000
0000
0000
0100
0000
0000
0000
0000
0000
0000
0000
0000
0000
0000
0000
0001
0000
0000
0000
0000
0000
0000
0000
0000
0000
0000
0000
,
0001
0010
0100
1000
,
2000
0000
0000
0000
0000
0000
0000
0000
3000
0000
0000
0000
0002
0000
0000
0000
0000
0000
0000
0000
0000
0003
0000
0000
2000
0000
0000
0000
0000
0000
0000
0000
3000
0000
0000
0000
0002
0000
0000
0000
0000
0000
0000
0000
0003
0000
0000
0000
,
0020
0000
0000
0030
0200
0000
0000
0300
0001
0000
2000
0000
0000
0000
3000
0000
,
0010
1000
0001
0100
,
0110
0010
1000
0001
,
0001
1000
0010
0200
,
0000
0300
0001
0000
0010
0000
1000
0000
,
0100
1000
0001
2000
,
0000
3000
0010
0000
0100
0000
0001
0000
,
1000
0100
1000
0002
,
0000
0000
0003
0000
0010
0000
0000
0000
2020
0000
0000
3030
0202
0000
0000
0000
,
0000
0000
0000
0000
0000
0000
0000
0000
0000
0000
0000
0303
0000
0000
0000
0000
0000
0000
0000
0000
0000
0000
0000
0000
0010
0000
0000
0000
0000
0000
0000
0000
0000
0000
0000
0000
1000
0000
0000
0000
0000
0000
0000
0000
0000
0000
0000
0000
,
0010
1000
0100
0010
,
0001
0010
0001
0000
1000
0100
1000
0000
,
0010
0100
0001
1000
,
1000
0100
0010
0100
,
0010
0000
0000
0200
0000
0000
0000
0000
0300
0001
0000
0000
,
2000
0000
0000
0000
0000
3000
0000
0000
0001
0000
0000
0000
0020
0000
0000
0000
,
0000
0000
0030
0100
0000
0000
0010
0000
0000
0000
0000
0000
,
0001
1000
0010
0100
,
1000
0000
0020
0000
0000
0030
0100
0000
,
2020
0000
0000
0000
0000
3030
0001
0000
,
0000
1010
0010
1000
,
0001
1000
0010
0100
,
0010
0000
0200
0000
0000
0300
0001
0000
,
2000
0000
0000
0000
0000
3000
0001
0000
0000
0020
0000
0000
,
0000
0000
0030
1000
0000
0000
0001
0000
0000
0100
0000
0000
,
0010
0100
0001
1000
,
0010
0000
0000
0000
0200
0000
0000
0000
0000
0000
0000
0300
0001
0000
0000
0000
,
1000
0000
0001
0000
1000
0000
0010
0100
,
1000
0000
0000
0000
0000
0000
0001
0000
0000
0000
0000
0000
0010
0000
0000
0000
0000
0000
0100
0000
0000
0000
0000
0000
2002
0000
0000
0000
0000
0000
0000
0000
0000
0000
0000
0000
0000
0000
0000
0000
0000
3003
0000
0000
0000
0000
0000
0000
,
0001
0010
0100
0010
1000
0000
0001
0000
,
1000
0001
1000
0100
,
0001
0010
0001
1000
0100
0000
1000
0000
,
0100
0001
1000
0010
0100
0001
1000
0010
,
0100
0001
1000
0010
0100
0000
0010
0000
,
0100
1000
0100
0010
,
0100
0010
0001
0100
1000
0000
0001
0000
,
0100
0001
1000
0010
0100
0010
1000
0001
,
1000
0010
0001
0010
1000
0000
0100
0000
,
1000
0100
0010
0100
,
1000
0100
1000
0100
0010
0000
0100
0000
,
1000
0100
1000
0100
0010
0100
0010
0100
,
0010
0100
0001
1000
0010
0000
1000
0000
,
0001
0010
1000
0100
,
1000
0100
1000
0010
1000
0001
1000
0100
,
0010
0100
0001
0100
1000
0000
0001
0000
,
2010
0000
0100
3000
0001
0000
0010
0000
,
1000
0010
0010
0100
,
0001
1000
1000
0100
,
1001
0010
1000
0010
,
0100
0100
0010
1000
,
0001
0001
1000
0100
,
1000
0000
0000
0002
0000
0003
0010
0000
0000
0100
0000
0000
,
1000
0100
1010
0001
,
1000
0010
0010
1000
,
0001
0010
0010
0100
,
0010
1000
1000
0001
,
0010
0010
1000
0001
,
2010
0000
0000
3000
0001
0000
0000
0000
0102
0000
0000
0003
1000
0000
0000
0000
,
2001
0000
0000
0000
0000
0000
0000
0000
0000
3000
0000
0000
0010
0000
0000
0000
0000
0000
0000
0000
0000
0000
0000
0000
0120
0000
0000
0000
0000
0000
0000
0000
0030
0000
0000
0000
0001
0000
0000
0000
0000
0000
0000
0000
0000
0000
0000
0000
,
1000
0100
1000
0000
0001
0010
0001
0000
,
0010
0100
0010
0100
1000
0001
1000
0001
,
0011
0010
1100
0100
,
0110
0100
1001
0001
,
1100
0100
0011
0010
,
2002
0000
0000
3003
0010
0000
0000
0000
0100
0000
0000
0000
0010
0000
0000
0000
,
2001
0000
0000
3000
0010
0000
0000
0000
0120
0000
0000
0030
1000
0000
0000
0000
,
2001
0000
0000
0000
0000
0000
0000
0000
0000
3000
0000
0000
0001
0000
0000
0000
0000
0000
0000
0000
0000
0000
0000
0000
0012
0000
0000
0000
0000
0000
0000
0000
0003
0000
0000
0000
0100
0000
0000
0000
0000
0000
0000
0000
0000
0000
0000
0000
,
0010
0000
0000
0000
0200
0000
0000
0300
1000
0000
0000
0000
0001
0000
0000
0000
,
1000
0001
0010
0100
,
2100
0000
0000
3000
0010
0000
0000
0000
0120
0000
0000
0030
0001
0000
0000
0000
,
0012
0000
0000
0003
0100
0000
0000
0000
0210
0000
0000
0300
1000
0000
0000
0000
,
1000
0000
0001
0000
0010
0100
0010
0100
,
1000
0100
1000
0000
0001
0010
0001
0000
,
0012
0000
0000
0000
0003
0000
0010
0000
0000
0100
0000
0000
1000
0000
0000
0000
0000
0000
0001
0000
0000
0000
0000
0000
,
0001
0010
0001
0000
0010
0100
0010
0000
,
0010
0000
0100
0010
1000
0000
0001
0000
,
1000
0000
0001
0000
1000
0001
1000
0001
,
0220
0000
0000
0000
,
0000
0000
0000
0000
0000
0000
0000
0000
0000
0000
0000
0330
0000
0000
0000
0000
;

//---------------dance-single - BEGINNER----------------
#NOTES:
     dance-single:
     BEGINNER:
     Beginner:
     2:
     0.179,0.250,0.033,0.083,0.000,136.000,4.000,10.000,0.000,0.000:
0010
0000
0000
0000
,
1000
0000
0000
0000
,
0001
0000
0000
0000
,
1000
0000
0000
0000
,
0001
0000
0000
0000
,
1000
0000
0000
0000
,
0010
0000
0000
0000
,
0010
0000
0000
0000
,
1000
0000
0000
0000
,
0001
0000
0000
0000
,
1000
0000
0000
0000
,
0001
0000
0000
0000
,
1000
0000
0000
0000
,
0010
0000
0000
0000
,
0100
0000
0000
0000
,
0002
0000
0003
0000
,
1000
0000
0000
0000
,
0001
0000
0000
0000
,
0010
0000
0000
0000
,
2000
0000
3000
0000
,
0001
0000
0000
0000
,
0001
0000
0000
0000
,
0010
0000
0000
0000
,
0002
0000
0003
0000
,
0010
0000
0000
0000
,
1000
0000
0000
0000
,
0010
0000
0000
0000
,
0001
0000
0000
0000
,
1000
0000
0000
0000
,
1000
0000
0000
0000
,
1000
0000
0000
0000
,
1001
0000
0000
0000
,
0001
0000
0000
0000
,
1000
0000
0000
0000
,
0010
0000
0000
0000
,
0000
0000
0000
0000
,
1000
0000
0000
0000
,
0001
0000
0000
0000
,
0010
0000
0000
0000
,
0100
0000
0000
0000
,
1000
0000
0000
0000
,
0001
0000
0000
0000
,
0010
0000
0000
0000
,
0100
0000
0000
0000
,
1000
0000
0000
0000
,
0010
0000
0000
0000
,
0001
0000
0000
0000
,
1001
0000
0000
0000
,
0010
0000
0000
0000
,
0001
0000
0000
0000
,
0100
0000
0000
0000
,
1000
0000
0000
0000
,
0010
0000
0000
0000
,
0001
0000
0000
0000
,
0001
0000
0000
0000
,
1000
0000
0000
0000
,
0010
0000
0000
0000
,
0100
0000
0000
0000
,
0001
0000
0000
0000
,
1000
0000
0000
0000
,
0001
0000
0000
0000
,
0010
0000
0000
0000
,
2002
0000
0000
0000
,
0000
0000
0000
0000
,
0000
0000
0000
0000
,
3003
0000
0000
0000
,
0100
0000
0000
0000
,
0010
0000
0000
0000
,
0002
0000
0000
0000
0000
0000
0000
0000
0000
0000
0000
0000
0000
0000
0000
0000
0000
0000
0000
0003
0000
0000
0000
0000
,
0000
0000
0000
0000
,
1000
0000
0000
0000
,
0001
0000
0000
0000
,
0200
0000
0000
0000
,
0300
0000
0000
0000
,
0001
0000
0000
0000
,
1000
0000
0000
0000
,
0100
0000
0000
0000
,
0001
0000
0000
0000
,
0100
0000
0000
0000
,
0001
0000
0000
0000
,
2000
0000
0000
0000
,
0000
0000
0000
0000
,
0000
0000
0000
3000
,
0000
0000
0000
0000
,
0010
0000
0000
0000
,
0010
0000
0000
0000
,
0010
0000
0000
0000
,
0100
0000
0000
0000
,
0001
0000
0000
0000
,
0100
0000
0000
0000
,
0001
0000
0000
0000
,
1000
0000
0000
0000
,
0010
0000
0000
0000
,
0001
0000
0000
0000
,
0100
0000
0000
0000
,
0001
0000
0000
0000
,
1000
0000
0000
0000
,
0001
0000
0000
0000
,
1000
0000
0000
0000
,
0010
0000
0000
0000
,
0010
0000
0000
0000
,
1000
0000
0000
0000
,
0001
0000
0000
0000
,
1000
0000
0000
0000
,
0100
0000
0000
0000
,
0001
0000
0000
0000
,
1000
0000
0000
0000
,
0001
0000
0000
0000
,
0100
0000
0000
0000
,
0001
0000
0000
0000
,
1000
0000
0000
0000
,
0001
0000
0000
0000
,
1000
0000
0000
0000
,
0100
0000
0000
0000
,
0010
0000
0000
0000
,
0100
0000
0000
0000
,
0001
0000
0000
0000
,
0010
0000
0000
0000
,
1000
0000
0000
0000
,
0100
0000
0000
0000
,
0010
0000
0000
0000
,
0001
0000
0000
0000
,
1000
0000
0000
0000
,
0000
0000
0000
0000
,
0010
0000
0000
0000
,
1000
0000
0000
0000
,
0001
0000
0000
0000
,
0010
0000
0000
0000
,
0100
0000
0000
0000
,
1000
0000
0000
0000
,
0002
0000
0000
0000
,
0003
0000
0000
0000
,
1001
0000
0000
0000
,
0010
0000
0000
0000
,
1000
0000
0000
0000
,
0100
0000
0000
0000
,
0010
0000
0000
0000
,
1000
0000
0000
0000
,
0001
0000
0000
0000
,
0100
0000
0000
0000
,
1000
0000
0000
0000
,
0001
0000
0000
0000
,
0010
0000
0000
0000
,
0001
0000
0000
0000
,
0010
0000
0000
0000
,
1000
0000
0000
0000
,
0020
0000
0000
0000
,
0000
0000
0000
0000
,
0000
0000
0000
0000
,
0000
0000
0000
0000
0000
0000
0000
0000
0000
0000
0000
0000
0000
0000
0000
0000
0000
0000
0000
0000
0000
0000
0000
0000
0000
0000
0000
0000
0000
0000
0000
0000
0000
0000
0000
0030
0000
0000
0000
0000
0000
0000
0000
0000
0000
0000
0000
0000
;
