#TITLE:Krupa;
#SUBTITLE:;
#ARTIST:Apollo 440;
#TITLETRANSLIT:;
#SUBTITLETRANSLIT:;
#ARTISTTRANSLIT:;
#CREDIT:Plaguefox (gamecast.org/plaguemix);
#BANNER:krupa-bn.png;
#BACKGROUND:krupa-bg.jpg;
#LYRICSPATH:;
#CDTITLE:pm3cd.png;
#MUSIC:Krupa.ogg;
#OFFSET:0.004;
#SAMPLESTART:64.412;
#SAMPLELENGTH:19.540;
#SELECTABLE:YES;
#BPMS:0.000=124.814,146.000=249.628,154.000=124.814;
#STOPS:;
#BGCHANGES:;
// cache tags:
#FIRSTBEAT:22.000;
#LASTBEAT:185.500;
#SONGFILENAME:Songs/Plaguemix Series/Krupa/krupa.sm;
#HASMUSIC:1;
#HASBANNER:1;
#MUSICLENGTH:91.336;
// end cache tags

//---------------dance-single - HEAVY----------------
#NOTES:
     dance-single:
     HEAVY:
     Hard:
     8:
     0.372,0.457,0.055,0.120,0.252,222.000,5.000,11.000,0.000,0.000:
0000
0000
0000
0000
,
0000
0000
0000
0000
,
0000
0000
0000
0000
,
0000
0000
0000
0000
,
0000
0000
0000
0000
,
0000
0000
0010
1000
,
0100
0000
0000
0000
0100
0000
0000
0010
0000
0010
0000
0010
0001
0000
0001
0000
,
0000
0000
0010
0001
,
0100
0000
0000
0000
0100
0000
0000
0010
0000
0010
0000
0010
1000
0000
1000
0000
,
0000
0000
0001
1000
,
0001
0000
0000
0000
1000
0000
0000
0010
0000
0010
0000
0010
0100
0000
0100
0000
,
0000
0000
1000
0100
,
0010
0000
0000
0000
0100
0000
0000
1000
0000
1000
0000
1000
0001
0000
0001
0000
,
0010
0000
0010
0000
0100
0000
0000
0000
0001
0000
0100
0000
0000
0100
0000
0000
,
0010
0000
0000
0010
0000
0000
1010
0000
0000
0000
0100
0000
0000
0100
0000
0000
,
0010
0000
0000
0001
0000
0000
0001
0000
0000
0000
0100
0000
0000
0100
0000
0000
,
0010
0000
0000
0010
0000
0000
1010
0000
0000
0000
0100
0000
0000
0100
0000
0000
,
0010
0000
0000
0001
0000
0000
0001
0000
2000
0000
0000
0000
3000
0000
0000
0000
,
0100
0000
0000
0100
0000
0000
0110
0000
0000
0000
0010
0000
0000
0010
0000
0000
,
0100
0000
0000
1000
0000
0000
1000
0000
0002
0000
0000
0000
0003
0000
0000
0000
,
0100
0000
0000
0100
0000
0000
0110
0000
0000
0000
0010
0000
0000
0010
0000
0000
,
0100
0000
0000
0001
0000
0000
0001
0000
1000
0000
0100
0000
0200
0000
0000
0000
,
0300
0000
0000
0000
0000
0001
0001
1000
,
1000
0100
0100
0010
0020
0000
0030
0000
,
0000
0000
0000
0000
0000
0001
0001
0010
,
0010
0001
0001
0100
0100
0010
0020
0000
,
0030
0000
0000
0000
0000
1000
1000
0010
,
0010
0100
0100
0001
0002
0000
0003
0000
,
0000
0000
0000
0000
0000
0100
0100
0001
,
0001
0010
0010
0100
1000
0000
0001
0000
,
1000
0000
0000
0000
0100
0000
0000
1000
0000
0001
0000
1000
0100
0000
1000
0000
,
0001
1000
0100
0000
0001
0000
1000
0000
,
0001
0000
0000
0000
0100
0000
0000
0001
0000
1000
0000
0001
0100
0000
0001
0000
,
1000
0001
0100
0000
2000
0000
0010
0000
,
0001
0000
0000
0000
3100
0000
0000
0001
0000
0002
0000
0000
1000
0000
1000
0000
,
1000
1000
1003
0000
2000
0000
0100
0000
,
0001
3010
2002
0000
,
0000
0000
0000
0000
,
0000
0000
3003
0000
1000
1000
1000
0100
,
1000
0000
0010
0000
1000
0000
0100
0010
0000
0001
0000
0010
0100
0000
1000
0000
,
0010
0100
0001
0010
0001
0001
0001
0100
,
0001
0000
0010
0000
0001
0000
0100
0010
0000
1000
0000
0010
0100
0000
0001
0000
,
0010
0100
1000
0010
0100
0100
0100
0001
,
0010
0000
0100
0000
1000
0000
0001
1000
0000
0010
0000
1000
0001
0000
0010
0000
,
0100
1000
0001
0100
0010
0010
0010
1000
,
0100
0000
0010
0000
0001
0000
1000
0001
0000
0100
0000
0001
1000
0000
0100
0000
,
0010
0001
1000
0010
0000
0000
0000
0000
;

//---------------dance-single - STANDARD----------------
#NOTES:
     dance-single:
     STANDARD:
     Medium:
     6:
     0.335,0.355,0.131,0.044,0.000,198.000,12.000,4.000,0.000,0.000:

0000
0000
0000
0000
,
0000
0000
0000
0000
,
0000
0000
0000
0000
,
0000
0000
0000
0000
,
0000
0000
0000
0000
,
0000
0000
1000
0001
,
1000
0000
0001
0000
1000
1000
0001
0001
,
0100
1001
0010
0100
,
0010
0000
0100
0000
0010
0010
0100
0100
,
0001
0110
1000
0010
,
0100
0000
0001
0000
0010
0010
0100
0100
,
1000
1001
0001
0100
,
0010
0000
1000
0000
0001
0001
0010
0010
,
0100
0100
1000
0000
1001
0000
0100
0010
,
0100
0000
0000
1001
0000
0000
0100
0010
,
0100
0000
0001
0000
1000
0000
0001
0100
,
0001
0000
0000
1010
0000
0000
0100
0010
,
0100
0000
0001
0000
1000
0000
0001
0010
,
0100
0000
0000
0101
0000
0000
0010
1000
,
0100
0000
0001
0000
0100
0000
0010
1000
,
0001
0000
0010
0000
0100
0000
0010
0100
,
0010
0000
1000
0000
0001
1000
0100
0000
,
0010
0000
0001
0000
1000
0000
0100
0010
,
0001
0000
0010
0100
1000
0000
0001
0000
,
0010
0000
0100
0000
1000
0000
0010
0100
,
0001
0000
0010
0000
1000
0001
0100
0000
,
0010
0000
1000
0000
0001
0000
0010
0100
,
1000
0000
0100
0010
0001
0000
1000
0000
,
0100
0000
0010
0000
0001
0000
0100
0010
,
1000
0001
1001
0100
,
0010
0000
0001
0000
0001
0001
0100
0100
,
0010
1001
0001
0100
,
0010
0000
1000
0000
0001
0001
0010
0010
,
0100
1001
2000
0010
,
0100
0000
3001
0000
0001
1000
0001
1000
,
0001
0110
0002
0010
,
0103
1000
2002
0000
,
0000
0000
0000
0000
,
3003
0000
0000
0000
1000
1000
1000
0000
,
0010
0000
0100
0000
0001
0100
0010
0000
,
0010
0100
0001
0000
0001
0001
0001
0000
,
0100
0000
0010
0000
1000
0010
0100
0000
,
0100
0010
1000
0000
0010
0010
0010
0000
,
0100
0000
0010
0000
1000
0001
1000
0000
,
0001
1000
0001
0000
0010
0010
0010
0000
,
0100
0000
0010
0000
0001
1000
0001
0000
,
0010
0100
1000
0010
0000
0000
0000
0000
,;

//---------------dance-single - LIGHT----------------
#NOTES:
     dance-single:
     LIGHT:
     Easy:
     3:
     0.236,0.253,0.175,0.044,0.000,131.000,16.000,4.000,0.000,0.000:
0000
0000
0000
0000
,
0000
0000
0000
0000
,
0000
0000
0000
0000
,
0000
0000
0000
0000
,
0000
0000
0000
0000
,
0000
0000
1000
0000
,
1000
0000
0001
1001
,
0100
0100
0001
0000
,
0001
0000
1000
1001
,
0100
0100
0010
0000
,
0010
0000
0100
1001
,
0010
0010
0100
0000
,
0100
0000
1000
0001
,
1000
0110
0001
0010
,
0001
1000
0010
1000
,
0001
1001
1000
0001
,
0010
0001
1000
0010
,
1000
1001
0002
0003
,
0010
0100
1000
0100
,
0010
0001
2000
3000
,
0100
0010
0001
0010
,
0100
1000
1001
0000
,
0010
0000
0001
0001
,
0100
0100
0001
0000
,
1001
0000
0010
0100
,
0010
0100
0010
0000
,
1001
0000
0100
0100
,
1000
1000
0100
0000
,
1001
0000
0010
0100
,
0010
0100
1001
0000
,
0100
0000
0010
1001
,
0100
0100
0001
0000
,
0100
0000
0010
1001
,
0100
0100
1000
0000
,
0100
0000
0010
1001
,
0100
0100
0001
0000
,
1000
0000
2002
0000
,
0000
0000
0000
0000
,
3003
0000
1000
0100
,
0010
0001
1000
0100
,
0010
0001
1000
0010
,
0100
0001
1000
0010
,
0100
0001
0001
0010
,
0100
1000
0001
0010
,
0100
1000
0001
0100
,
0010
1000
0001
0100
,
0010
1001
0000
0000
;
