#TITLE:Destiny ~Fate Mix~;
#SUBTITLE:;
#ARTIST:E^2 Feat. CHAO5;
#TITLETRANSLIT:;
#SUBTITLETRANSLIT:;
#ARTISTTRANSLIT:;
#CREDIT:;
#BANNER:destiny.png;
#BACKGROUND:destiny-bg.png;
#LYRICSPATH:;
#CDTITLE:;
#MUSIC:Destiny -fate mix-.mp3;
#OFFSET:0.000;
#SAMPLESTART:78.180;
#SAMPLELENGTH:9.500;
#SELECTABLE:YES;
#BPMS:0.000=175.000;
#STOPS:;
#BGCHANGES:;
// cache tags:
#FIRSTBEAT:4.000;
#LASTBEAT:396.000;
#SONGFILENAME:Songs/StepMix 1/Destiny -Fate Mix-/Destiny.sm;
#HASMUSIC:1;
#HASBANNER:1;
#MUSICLENGTH:139.901;
// end cache tags

//---------------dance-single - E. Holniker----------------
#NOTES:
     dance-single:
     E. Holniker:
     Challenge:
     11:
     0.864,1.000,0.665,0.086,0.493,741.000,93.000,12.000,0.000,3.000:

0000
0000
0000
0000
,
2001
0001
0001
0001
,
0001
0000
0001
0000
0001
0000
0001
3001
,
0120
0100
0100
0100
,
0100
0000
0100
0000
0100
0000
0100
0130
,
1002
1000
1000
1000
,
1000
0000
1000
0000
1000
0000
1000
1003
,
0210
0010
0010
0010
,
0010
0000
0010
0000
0010
0000
0010
0310
,
1000
0000
0100
0000
0010
0000
0100
0001
0000
0001
0010
0000
0100
0000
1000
0000
,
0010
0100
0000
0100
0001
0000
0001
1000
0000
1000
0010
0000
0100
0000
0001
0000
,
1000
0100
0000
0100
0010
0000
0010
0001
0000
0001
0010
0000
0100
0000
1000
0000
,
0010
0100
0000
0100
0001
0000
0001
1000
0000
1000
0010
0000
0100
0000
0001
0000
,
1000
0100
0000
0100
0010
0000
0010
0001
0000
0001
0010
0000
0100
0000
1000
0000
,
0010
0100
0000
0100
0001
0000
0001
1000
0000
1000
0010
0000
0100
0000
0001
0000
,
1000
0100
0000
0100
0010
0000
0010
0001
0000
0001
0010
0000
0100
0000
1000
0000
,
0001
0100
0000
0100
0010
0000
0010
1000
0000
1000
0100
0000
0010
0000
0001
0000
,
1001
0000
0000
0010
,
0101
0000
0000
0010
0000
0000
1000
0000
,
1100
0000
0000
0001
,
0110
0000
0000
0010
0000
0000
1000
0000
,
1100
0000
0000
0001
,
1010
0000
0000
0110
0000
0000
0001
0000
,
1010
0100
0001
1000
,
0010
0100
0001
1000
,
1000
0001
0011
0100
0010
0100
1010
0100
,
0010
0100
0110
0010
1000
0010
0110
0010
,
0001
0010
1100
0100
0001
0010
0011
0100
,
1000
0010
0110
0010
0001
0010
1100
0001
,
0010
0100
1100
0100
0010
0100
0101
0100
,
1000
0001
0101
0010
0100
0010
1010
0010
,
0100
0010
0011
0010
1000
0100
1100
0001
,
0010
0100
0110
0100
1000
0010
0101
0010
,
1000
0100
0010
0001
0000
0001
1000
0010
,
0000
0001
0100
0010
0000
0100
1000
0001
,
0010
0100
1000
0010
0100
0001
1000
0010
,
0100
0010
0001
0010
1000
0100
1000
0001
,
0010
0001
0000
0001
1000
0000
1000
0010
0000
0010
0100
0000
0001
0000
1000
0000
,
0010
0100
0000
0100
0010
0000
0010
0001
0000
0001
0010
0000
1000
0000
0100
0000
,
0010
1000
0001
0010
0100
1000
0010
0100
,
0001
0100
0010
1000
0100
1000
0001
1000
,
1001
0010
0110
0010
,
0011
0100
1100
1001
,
0011
0010
1010
0001
,
0110
0000
0100
0000
1001
0000
1010
0110
,
0011
1000
1001
0110
,
1010
0000
0110
0000
0011
0000
1100
1000
,
0001
0010
0100
1000
0010
0100
0001
1000
,
0010
0100
0001
1000
0010
0100
0001
1000
0010
0100
0010
0001
0010
0100
0010
1000
,
0010
1000
1100
0001
0010
0100
0110
0010
,
1000
0000
0010
0000
0011
0000
0010
0000
0100
0000
0100
0000
1100
0000
0001
1000
,
0001
1000
0110
0010
0001
0010
1100
0100
,
0010
0000
0001
0000
0011
0000
0100
0000
0010
0000
0010
1000
0000
1000
0010
0100
,
0001
0100
0110
0010
1000
0100
1100
0001
,
0010
0000
0100
0000
0110
0000
0100
0000
1000
0000
0010
0000
1000
0000
0001
0100
,
0010
1000
1100
0001
0010
0100
0110
0010
,
1000
0000
0001
0000
1001
0000
0000
0010
1000
0000
0000
1000
0001
0000
0100
0000
,
1000
0000
0100
0000
1000
0000
0100
0000
0010
1000
0000
0100
0010
0000
0010
0000
,
0001
0010
0000
0010
1000
0000
1000
0100
0000
0100
0010
0000
0001
0000
0010
0000
,
0001
0010
0000
0010
0100
0000
0100
1000
0000
1000
0010
0000
0100
0000
0001
0000
,
0101
0000
0010
0000
1000
0000
1000
0100
0000
0100
0010
0000
0001
0000
0010
0000
,
0011
0100
0100
1000
0010
0100
0001
1000
,
1000
0010
1010
0010
0001
0010
1010
0100
,
1000
0010
0110
0000
1010
0010
0110
0000
,
1001
0000
1010
0010
1000
0100
0010
0001
,
0010
0100
2000
0000
0010
0000
0000
0100
0000
0000
0001
0000
3010
0000
0000
0000
,
0100
1000
0002
0000
0010
0000
0100
0000
0000
0000
1000
0000
0010
0003
0000
0000
,
0100
0001
2000
0000
0010
0000
0100
0000
0000
0000
0001
0000
0010
3000
0000
0000
,
0100
1000
0002
0000
0010
0000
0100
0000
0000
0000
1000
0000
0010
0003
0000
0000
,
1000
0100
0010
0001
0020
0000
0000
0000
0100
0000
0000
0000
0001
0030
0000
0000
,
0010
0001
0100
1000
0020
0000
0000
0000
0100
0000
0000
0000
1030
0000
0000
0000
,
2002
0000
0010
0000
,
0010
0000
0010
3003
,
1000
0000
0001
0100
0000
0000
0000
0000
,
0001
0000
0001
1000
0000
0000
0010
0000
,
0011
0000
0010
1000
0000
0000
0100
0000
,
1100
0000
0001
0010
0000
0000
0010
0000
,
0011
0000
0010
1000
0000
0000
0100
0000
,
1100
0000
0001
0010
0000
0000
0100
0000
,
1010
0000
0100
0001
1000
0100
0010
0001
,
0010
0100
1000
0010
0100
0001
1000
0010
,
1000
0000
0100
0010
0001
0000
0010
0100
1000
0000
0010
0100
0001
0000
0100
0010
,
1000
0100
0010
0001
0010
0000
0100
1000
0010
0000
0100
0001
0100
0000
0010
1000
,
0100
0000
0010
0001
0010
0000
0100
1000
0010
0000
0100
0001
1000
0100
0010
0001
,
0010
0100
1000
0010
0100
0000
0001
1000
0100
0000
0010
0001
0010
0000
0100
1000
,
0010
0000
0100
0010
0001
0000
0010
1000
0100
0000
0010
0001
0010
0000
0100
1000
,
0010
0000
0100
0001
1000
0000
0100
0010
0001
0000
0010
0100
1000
0010
0100
0000
,
0001
1000
0100
0010
0001
0100
1000
0010
0100
0010
0001
0010
0100
0010
1000
0100
,
0010
0001
0010
0100
1000
0010
0100
0010
0001
0010
0100
0010
1000
0100
0010
0001
,
0010
0000
1100
0000
0010
0100
0101
0010
,
1000
0100
0010
0000
0011
0000
0100
0000
0010
0000
0010
0000
1010
0000
0110
0000
,
0011
0010
0110
0010
1000
0100
0011
0100
,
1000
0010
0101
0010
1000
0100
1100
0001
,
0010
0100
0010
0000
1100
0000
0010
0000
0100
0001
0100
0000
0110
0000
0010
0000
,
1000
0100
1000
0000
1100
0000
0001
0000
0010
0100
0010
0000
0110
0000
0100
0000
,
1000
0010
0100
0001
1000
0100
0010
0001
1000
0100
0010
0001
0010
0100
1000
0100
,
0010
0001
0010
0100
1000
0100
0010
0001
0010
0100
1000
0100
0010
0001
0010
1000
,
0010
0000
1010
0000
0001
0100
0110
0010
,
0001
0010
1010
0100
1000
0100
1100
0001
,
1001
0000
0000
0000
;

//---------------dance-single - E. Holniker----------------
#NOTES:
     dance-single:
     E. Holniker:
     Hard:
     9:
     0.643,0.672,0.315,0.000,0.111,584.000,44.000,0.000,0.000,0.000:



0000
0000
0000
0000
,
0010
0000
1000
0000
0001
0000
0100
0010
,
1000
0000
0100
0000
0010
0000
0001
1000
,
0010
0100
0001
1000
,
0010
0000
1000
0000
0100
0000
1000
0001
,
0010
0100
1000
0010
,
0100
0000
0001
0000
1000
0000
0100
1000
,
0001
0010
0100
1000
,
0010
0100
0001
1000
,
1010
0001
0110
0001
,
1100
0001
0011
0100
,
1010
0001
0110
0010
,
1100
0000
0001
0000
1000
0000
0010
0100
,
0001
1000
1100
0001
,
0011
0000
0100
0000
0110
0000
0010
1000
,
0001
0100
0110
0010
,
1100
0001
0011
0100
,
1000
0000
0000
0001
,
0010
0000
0000
0100
0000
0000
0010
0000
,
0001
0000
0000
0010
,
0100
0000
0000
1000
0000
0000
0010
0000
,
0100
0000
0000
0100
,
1000
0000
0001
0010
,
0100
1000
0010
0001
,
0001
1000
0100
0010
,
0001
1000
0100
0010
0001
0010
0100
1000
,
0010
0100
0010
0001
0010
1000
0100
0010
,
0100
1000
0100
0001
0100
0010
0100
1000
,
0001
0100
0010
0001
0010
1000
0100
0010
,
0001
0010
0100
1000
0010
0100
0010
0001
,
0010
1000
0100
0010
0100
0001
0100
0010
,
0100
1000
0001
0100
0010
0001
0010
1000
,
0100
0010
0001
0010
0100
1000
0010
0100
,
0010
0001
0010
1000
0000
0001
0010
0100
,
0000
0010
1000
0000
0010
0100
0001
0000
,
1000
0100
0010
0001
0000
0100
0010
0000
,
0100
1000
0010
0100
0000
0001
1000
0010
,
0000
0100
0010
0001
0000
0010
1000
0100
,
0000
0000
0010
0001
0010
0100
1000
0010
,
0000
0100
0001
1000
0000
0010
0100
0010
,
0000
0001
0010
1000
0000
0100
1000
0001
,
0010
0000
1010
0000
,
0101
0000
0110
1010
,
0011
0000
1100
0000
,
0011
0000
0011
0110
,
1100
0110
0101
0110
,
1010
0110
0011
0110
,
1100
0110
0011
0110
,
0400
0004
0000
0000
0000
0303
0000
0000
4000
0040
0000
0000
0000
0000
3030
0000
,
0101
0000
1000
0000
0010
0000
0100
0000
0001
0000
1000
0000
0100
1000
0001
0000
,
0010
0000
0100
0000
1000
0000
0010
0000
0100
0000
0001
0000
0100
0010
0100
0000
,
0010
0000
1000
0000
0100
0000
0010
0000
0001
0000
0010
0000
0001
0010
0001
0000
,
0010
0000
0100
0000
1000
0000
0010
0000
0100
0000
0010
0000
1000
0010
1000
0000
,
0000
0001
0100
0000
0100
0000
1000
0000
0001
0000
0010
0000
0001
0010
0001
0000
,
0010
0100
1000
0010
0100
0001
0100
0110
,
0010
0000
1000
0000
0100
0000
0010
0000
0001
0000
0010
0000
0100
1000
0100
0000
,
0010
0000
0001
0000
0010
0000
0100
0000
0010
0000
0001
0000
0100
0010
0100
0000
,
0001
0000
1000
0000
0100
0000
0010
0000
0001
0000
0010
0000
0100
1000
0100
0000
,
0010
0000
0001
0000
0010
0000
0100
0000
1000
0000
0010
0000
0100
0010
0100
0000
,
0001
0000
1000
0000
0100
0000
0010
0000
0001
0000
0010
0000
0001
0010
0100
0000
,
1000
0000
0010
0000
0100
0000
0001
0000
0100
0000
0010
0000
1000
0100
0010
0000
,
0001
0000
0010
0000
0100
0000
1000
0000
0010
0000
0100
0000
0010
1000
0001
0000
,
0100
0000
0000
0010
0000
1000
0100
0000
0010
0000
0001
0000
0010
0100
1000
0000
,
0010
0000
0100
0000
0001
0000
0100
0000
0010
0000
0001
0000
0010
0001
0010
0000
,
1000
0100
0010
0001
0010
0100
1000
0010
,
0110
0100
1000
0100
0010
0001
0010
0100
,
0001
0000
0100
0010
1000
0000
0100
0000
0010
0000
0001
0000
0010
0000
0100
0000
,
1000
0100
0010
0000
0100
0000
0010
0000
0001
0000
0010
0000
0100
0000
1000
0000
,
0010
0100
0001
0000
1000
0000
0010
0000
1000
0000
0001
0000
1000
0000
0000
0000
,
0010
0100
0010
0100
0010
0000
0000
0000
0010
0000
0000
0000
1000
0000
0000
0000
,
0100
1000
0100
1000
0100
0000
0000
0000
0001
0000
0000
0000
0010
0000
0000
0000
,
0001
0000
0110
0000
,
1010
0000
0011
0000
,
1000
0000
0000
0000
1000
0000
0001
0000
0000
0000
0001
1000
0100
0000
0000
0000
,
0001
0000
0000
0000
0001
0000
0100
0000
0000
0000
0010
1000
0010
0000
0000
0000
,
0010
0000
0000
0000
0010
0000
1000
0000
0000
0000
0010
1000
0010
0000
0000
0000
,
0001
0000
0000
0000
0001
0000
0100
0000
0000
0000
0010
1000
0010
0000
0000
0000
,
0010
0000
0000
0000
0010
0000
1000
0000
0000
0000
0010
1000
0100
0000
0000
0000
,
0001
0000
0000
0000
0001
0000
0100
0000
0000
0000
0001
1000
0001
0000
0000
0000
,
0010
0000
0010
1000
0000
1000
0001
0000
,
0001
0000
0001
0100
0000
0100
0010
0000
,
0010
0000
0010
1000
0000
1000
0001
0000
,
0001
0100
0000
0100
0010
0100
0010
0100
,
0010
0000
0010
1000
0000
1000
0001
0000
,
0001
0100
0000
0100
0001
0100
0001
0100
,
0010
0000
0010
1000
0000
1000
0100
0000
,
0100
0010
0000
0010
0001
0010
0001
0010
,
0100
0000
0100
1000
0000
1000
0010
0000
,
0010
0100
0000
0100
0001
1000
0001
1000
,
0010
0000
0010
0100
0000
0100
0001
0000
,
0001
1000
0000
1000
0010
1000
0010
1000
,
0001
0000
0001
0100
0000
0100
0010
0000
,
0010
1000
0000
1000
0100
1000
0100
1000
,
0001
0000
0001
0010
0000
0010
0100
0000
,
0100
1000
0000
1000
0001
0100
0010
0100
,
0001
1000
0100
0010
0001
0010
0100
1000
,
0010
0100
0010
0001
0010
1000
0100
1000
,
0001
1000
1001
0000
0010
0100
0001
1000
,
0100
0010
0001
0010
0100
1000
0100
0010
,
1001
0000
0000
0000
;

//---------------dance-single - E. Holniker----------------
#NOTES:
     dance-single:
     E. Holniker:
     Medium:
     5:
     0.462,0.495,0.021,0.000,0.000,449.000,3.000,0.000,0.000,0.000:



0000
0000
0000
0000
,
1000
0010
0100
0001
,
1000
0000
0010
0000
0100
0000
0001
1000
,
0010
0100
0010
1000
,
0100
0000
0010
0000
0001
0000
0010
0001
,
1000
0010
0100
0001
,
1000
0000
0010
0000
1000
0000
0100
1000
,
0001
0010
0100
1000
,
0010
0100
0001
1000
,
0010
1000
0001
0100
,
0010
0000
1000
0000
0100
0000
1000
0001
,
0010
0100
1000
0010
,
0100
0000
0001
0000
1000
0000
0001
0100
,
0010
1000
0100
0010
,
0001
0000
0010
0000
0100
0000
0000
1010
,
0000
0101
1000
0010
0100
0001
1000
0010
,
0100
0010
0001
0010
1000
0100
0010
0001
,
0010
0100
1000
0010
,
0100
0000
0001
0000
1000
0000
0100
1000
,
0001
0010
0100
1000
,
0010
0000
0100
0000
0001
0000
0100
0010
,
1000
0001
0010
0100
,
1000
0000
0001
0000
0100
0000
0010
0100
,
0010
1000
0100
0010
,
0001
0000
0010
0000
0100
0000
1000
0001
,
0100
0010
1000
0100
,
0010
0000
0001
0000
0010
0000
0001
1000
,
0001
0100
0010
0001
,
0010
0000
1000
0000
0100
0000
1000
0100
,
1000
0001
0010
0100
,
0010
0000
0001
0000
0100
0000
0010
1000
,
0001
0100
0010
1000
,
0100
0000
0010
0000
0001
0000
1000
0010
,
0100
0000
0010
0000
0001
0000
0010
1000
,
0100
0000
0010
0000
0001
0000
1000
0010
,
0100
0000
0010
0000
0001
0000
0010
1000
,
0100
0000
0010
0000
0001
0000
0010
0001
,
1000
0000
0100
0000
0010
0000
0001
1000
,
0100
0000
0010
0000
0001
0000
1000
0010
,
0100
0000
0001
0000
1000
0000
0010
0100
,
0010
0001
0010
1000
,
0100
1000
0001
0000
0010
0000
0100
0000
,
1000
0010
0100
0000
0001
0000
1000
0000
,
0100
0010
0001
0000
1000
0000
0010
0000
,
0100
0010
1000
0000
0001
0000
0100
0010
,
1000
0001
0100
0010
,
1000
0100
0010
0001
,
0010
0001
1000
0100
0010
0001
0010
0100
,
1000
0010
0100
0010
0001
0010
0100
0010
,
1000
0001
0100
0010
,
1000
0100
0010
0001
,
0010
0100
1000
0010
,
0100
0001
1000
0010
,
0100
0001
0100
0000
0010
0000
1000
0000
,
0001
1000
0001
0000
0100
0000
0010
0000
,
1000
0100
0010
0001
,
0010
0100
1000
0010
,
0100
0010
0001
0010
,
1000
0000
0100
0000
0010
0000
0100
1000
,
0001
0010
0100
1000
,
0010
0100
0001
1001
,
1000
0010
0100
0000
0001
0000
1000
0000
,
0010
0100
0001
1000
,
0100
0010
0001
0010
,
0100
1000
0010
0100
,
0010
0001
0010
1000
,
0100
0000
0010
0000
0001
0000
0010
0100
,
1000
0010
0100
0001
,
1000
0000
0010
0000
0100
0000
0001
0100
,
0001
0100
0010
1000
,
0010
0000
1000
0000
0001
0000
1000
0001
,
1000
0010
0100
0001
,
1000
0100
0010
0001
,
0010
0100
1000
0010
,
0001
0000
0010
0000
1000
0000
0100
0010
,
0001
0010
0100
1000
,
0010
0000
0100
0000
0001
0000
1000
0100
,
1000
0001
0010
0100
,
0010
0000
0001
0000
1000
0000
0010
0100
,
0010
0001
0010
1000
,
0100
0000
0010
0000
0001
0000
0010
0100
,
1000
0010
0100
0001
,
1000
0000
0100
0000
0010
0000
0001
1000
,
0010
0100
0010
0001
,
0001
0000
1000
0000
0100
0000
0010
0100
,
1000
0010
0100
0001
,
1000
0010
0100
0001
,
1000
0010
0100
0010
,
0001
0010
1000
0100
,
1000
0001
0100
0010
,
1000
0000
0001
0000
0010
0000
0100
1000
,
0001
0100
0010
1000
,
0001
0000
0010
0000
0100
0000
1000
0010
,
0100
0001
1000
0010
,
0100
0001
1000
0010
,
0100
0001
1000
0100
,
0010
0001
0010
0100
,
1000
0010
0100
0001
,
1000
0000
0010
0000
1000
0000
0001
1000
,
0001
0000
0000
0000
;

//---------------dance-single - E. Holniker----------------
#NOTES:
     dance-single:
     E. Holniker:
     Easy:
     3:
     0.366,0.318,0.079,0.000,0.000,347.000,11.000,0.000,0.000,0.000:



0000
0000
0000
0000
,
0001
1000
0010
0100
,
0001
1000
0100
0010
,
0001
0010
0100
1000
,
0010
0100
0001
1000
,
0000
0010
0100
0001
,
0000
1000
0100
0010
,
0000
0001
1000
0010
,
0100
0001
1000
0100
,
0010
0001
0010
0100
,
1000
0010
0100
0001
,
0000
0010
1000
0001
,
0100
0010
1000
0100
,
0000
0001
0010
0100
,
1000
0010
0100
0010
,
0000
0001
0010
1000
,
0100
0010
0001
0010
,
0000
0100
1000
0010
,
0100
0010
0001
0010
,
0000
1000
0100
0010
,
0100
0001
0100
0010
,
0000
0001
1000
0010
,
0100
0010
0001
0010
,
0000
1000
0100
0010
,
0001
0010
0100
1000
,
0010
0100
0001
1000
,
0010
0100
0001
1000
,
0010
0010
0100
1000
,
0001
0100
0100
0010
,
1000
0001
1000
1000
,
0001
0100
0001
0001
,
0100
0010
0010
1000
,
1000
0001
0001
0100
,
0010
1000
0100
0010
,
0001
0010
0100
1000
,
0010
0010
1000
1000
,
0001
0001
0100
0100
,
1000
0010
0001
0100
,
1000
0010
0001
0100
,
1000
0010
0001
0100
,
1000
0010
0100
0001
,
1000
0100
0010
0001
,
0010
0100
1000
0100
,
0010
1000
0001
0100
,
0010
1000
0001
0100
,
0010
1000
0100
0010
,
0001
0010
0100
1000
,
0010
0100
0001
1000
,
0010
0100
0010
0001
,
0011
0000
0000
0000
,
1001
0000
0100
0000
,
0110
0000
0001
0000
,
1001
0000
0010
0000
,
0011
0000
0100
0000
,
1100
0000
0001
0000
,
0110
0000
0001
0000
,
1010
0000
0011
0000
,
1100
0000
0001
0010
,
0100
1000
0010
0100
,
0010
0001
0010
1000
,
0100
0010
0100
0001
,
0100
0010
0100
1000
,
0001
0100
0010
0001
,
0010
1000
0100
1000
,
0001
0010
0100
0010
,
0100
1000
0001
0100
,
0010
1000
0001
0100
,
0010
0000
0000
0000
,
1000
0001
0100
0010
,
0100
0000
0000
0000
,
1000
0001
0100
0010
,
1000
0100
0010
0001
,
0010
0100
1000
0010
,
0100
0000
0000
0001
,
1000
0000
0000
0010
,
0100
0000
0000
0001
,
1000
0000
0000
0010
,
1000
0000
0000
1000
,
0100
0000
0000
0001
,
0010
0100
1000
0010
,
0100
0010
0001
0010
,
1000
0100
0010
0100
,
1000
0100
0001
0100
,
0010
0100
1000
0001
,
0100
0010
0001
0010
,
1000
0100
0010
0001
,
0010
0100
1000
0010
,
0100
0010
0001
0010
,
1000
0100
0010
0001
,
0010
0100
1000
0010
,
0100
0010
0001
0010
,
1000
0100
0010
0100
,
0001
0100
0010
0100
,
1000
0001
0100
0010
,
0001
0010
1000
0100
,
0010
0001
0010
0100
,
1000
0010
0100
0001
,
1000
0010
1000
0001
,
0100
0010
1000
0001
,
1001
0000
0000
0000
;

//---------------dance-single - E. Holniker----------------
#NOTES:
     dance-single:
     E. Holniker:
     Beginner:
     1:
     0.166,0.212,0.050,0.000,0.000,156.000,7.000,0.000,0.000,0.000:



0000
0000
0000
0000
,
1000
0000
0000
0000
,
0001
0000
0000
0000
,
0100
0000
0010
0000
,
1000
0000
0001
0000
,
0100
0000
0000
0000
,
0010
0000
0000
0000
,
1000
0000
0001
0000
,
0100
0000
0010
0000
,
1000
0000
0000
0000
,
0001
0000
0100
0000
,
0010
0000
1000
0000
,
0001
0000
0100
0000
,
0010
0000
0000
0000
,
1000
0000
0001
0000
,
0100
0000
0000
0000
,
0010
0000
1000
0000
,
0001
0000
0000
0000
,
0100
0000
0010
0000
,
1000
0000
0000
0000
,
0100
0000
0001
0000
,
0100
0000
0000
0000
,
0010
0000
1000
0000
,
0001
0000
0100
0000
,
0010
0000
1000
0000
,
0001
0000
0000
0000
,
0100
0000
0000
0000
,
0010
0000
0000
0000
,
1000
0000
0000
0000
,
0001
0000
1000
0000
,
0010
0000
0100
0000
,
0001
0000
1000
0000
,
0100
0000
0010
0000
,
0001
0000
0000
0000
,
1000
0000
0000
0000
,
0010
0000
0000
0000
,
0100
0000
0000
0000
,
0001
0000
0000
0000
,
1000
0000
0000
0000
,
0010
0000
0100
0000
,
0001
0000
1000
0000
,
1010
0000
0000
0000
,
0001
0000
0000
0000
,
0110
0000
0000
0000
,
1000
0000
0000
0000
,
1010
0000
0000
0000
,
0001
0000
0000
0000
,
0110
0000
0000
0000
,
1010
0000
0000
0000
,
0101
0000
0010
0000
,
1000
0000
0001
0000
,
0100
0000
0010
0000
,
1000
0000
0001
0000
,
0100
0000
0000
0000
,
0010
0000
1000
0000
,
0001
0000
0000
0000
,
0100
0000
0010
0000
,
0001
0000
0000
0000
,
1000
0000
0100
0000
,
0001
0000
0000
0000
,
0010
0000
0001
0000
,
1000
0000
0000
0000
,
0100
0000
1000
0000
,
0010
0000
0001
0000
,
0100
0000
1000
0000
,
0010
0000
0000
0000
,
0001
0000
0000
0000
,
1000
0000
0000
0000
,
0010
0000
0000
0000
,
0100
0000
0000
0000
,
0001
0000
0000
0000
,
1000
0000
0000
0000
,
0010
0000
0000
0000
,
1000
0000
0010
0000
,
1000
0000
0001
0000
,
0100
0000
0001
0000
,
1000
0000
0010
0000
,
0100
0000
0001
0000
,
1000
0000
0010
0000
,
0100
0000
0001
0000
,
1000
0000
0010
0000
,
0001
0000
0100
0000
,
1000
0000
0001
0000
,
0010
0000
0100
0000
,
1000
0000
0010
0000
,
0100
0000
0001
0000
,
1000
0000
0010
0000
,
0100
0000
0001
0000
,
1000
0000
0010
0000
,
0100
0000
0001
0000
,
1000
0000
0010
0000
,
0100
0000
0001
0000
,
1000
0000
0010
0000
,
0100
0000
0001
0000
,
1000
0000
0010
0000
,
0001
0000
0010
0000
,
1000
0000
0100
0000
,
0010
0000
0001
0000
,
1000
0000
0010
0000
,
1001
0000
0000
0000
;
