#TITLE:baSel;
#SUBTITLE:;
#ARTIST:Yawaraka;
#TITLETRANSLIT:;
#SUBTITLETRANSLIT:;
#ARTISTTRANSLIT:;
#CREDIT:;
#BANNER:baSel.png;
#BACKGROUND:baSel- bg.png;
#LYRICSPATH:;
#CDTITLE:HS3logo.png;
#MUSIC:baSel.mp3;
#OFFSET:0.000;
#SAMPLESTART:52.200;
#SAMPLELENGTH:12.000;
#SELECTABLE:YES;
#BPMS:0.000=147.000;
#STOPS:;
#BGCHANGES:;
// cache tags:
#FIRSTBEAT:16.000;
#LASTBEAT:256.000;
#SONGFILENAME:Songs/StepMix 1.0/baSel/baSel.sm;
#HASMUSIC:1;
#HASBANNER:1;
#MUSICLENGTH:104.940;
// end cache tags

//---------------dance-single - Song by Chuck----------------
#NOTES:
     dance-single:
     Song by Chuck:
     Hard:
     9:
     0.574,0.579,0.133,0.496,0.381,356.000,14.000,52.000,0.000,0.000:
0000
0000
0000
0000
,
0000
0000
0000
0000
,
0000
0000
0000
0000
,
0000
0000
0000
0000
,
0001
1000
0010
1000
0001
0010
0001
1000
,
0010
0100
0010
0100
0001
1000
0010
1000
,
0100
0010
0001
1000
0010
0100
0100
0000
,
2002
0000
3003
0000
1000
0100
0020
0030
,
0100
0010
0100
0010
0200
0000
0310
1000
,
0200
0001
0020
0330
,
1000
0001
1000
0001
2000
0000
3001
0010
,
0200
0010
0002
0303
,
0010
0100
0010
0100
0020
0000
0130
0001
,
0020
1000
0200
0330
,
1000
1000
0001
0001
0020
0000
0031
0100
,
0101
0000
2002
0000
3003
0000
1001
1001
,
1000
0100
0010
0001
1000
0000
0010
0100
,
0002
1000
0020
0033
,
1000
0010
0100
0001
1000
0000
0010
0100
,
0020
1000
0002
0033
,
0001
0010
0100
1000
0001
0000
0100
0010
,
2000
0001
0200
3300
,
0001
0100
0010
1000
0001
0000
0100
0010
,
0100
0100
2002
3003
,
1000
0100
1000
0010
0100
0010
0100
0001
0000
0000
0000
0000
,
0000
0000
0000
0000
,
0001
0010
0001
0100
0010
0100
0001
1000
0000
0000
0000
0000
,
0000
0000
0000
0000
,
1000
0000
0100
0000
1000
0000
0100
1000
0000
0100
1000
0000
0100
0000
1000
0000
,
0010
0000
0100
0000
0010
0000
0100
0010
0000
0100
0010
0000
0100
0000
0010
0000
,
0100
0001
0100
0001
0100
0001
0100
0001
,
0010
0100
0001
1000
0100
0001
0100
1000
0010
0100
0000
0000
,
1000
0000
0000
1000
0010
0000
0000
0010
1000
0000
0000
1000
0001
0000
0000
0001
,
0010
0000
0000
0010
0100
0000
0000
0100
0020
0000
0001
0000
0031
0000
0000
0000
,
1000
0000
0000
1000
0010
0000
0000
0010
0100
0000
0000
0100
0010
0000
0000
0010
,
0100
0000
0000
0100
0001
0000
0000
0001
2000
0000
0100
0000
3100
0000
0000
0000
,
0001
0000
0000
0001
0100
0000
0000
0100
0001
0000
0000
0001
1000
0000
0000
1000
,
0100
0000
0000
0100
0010
0000
0000
0010
0200
0000
1000
0000
1300
0000
0000
0000
,
0001
0000
0000
0001
0100
0000
0000
0100
0010
0000
0000
0010
1000
0000
0000
1000
,
0001
1000
0010
0100
0001
1000
0100
0000
0000
0110
0000
0000
,
0010
0001
0010
0001
0200
0000
0310
1000
,
0002
0010
2000
3003
,
0100
1000
0100
1000
0020
0000
0130
0001
,
2000
0100
0002
3003
,
0001
0100
0001
0100
2000
0000
3001
0010
,
0200
0001
0020
0330
,
1000
1000
0001
0001
2000
0000
3010
0100
,
0001
0100
0001
0100
0001
0100
0001
0000
0000
1100
0000
0000
,
0001
0000
0000
0001
0100
0000
0000
0100
0001
0000
0000
0001
1000
0000
0000
1000
,
0100
0000
0000
0100
0010
0000
0000
0010
0200
0000
0000
0000
2300
0000
0000
0000
,
3001
0000
0000
0001
0100
0000
0000
0100
0010
0000
0000
0010
0100
0000
0000
0100
,
0010
0000
0000
0010
1000
0000
0000
1000
0002
0000
0010
0000
0013
0000
0000
0000
,
1000
0000
0000
1000
0010
0000
0000
0010
1000
0000
0000
1000
0001
0000
0000
0001
,
0010
0000
0000
0010
0100
0000
0000
0100
0020
0000
0000
0000
0032
0000
0000
0000
,
1003
0000
0000
1000
0010
0000
0000
0010
0100
0000
0000
0100
0010
0000
0000
0010
,
1000
0100
0010
0001
1000
0100
0010
0000
0000
0101
0000
0000
,
2000
0100
0010
0100
,
0001
3100
2002
3003
,
0002
0010
0100
0010
,
1000
0103
0220
0330
,
2001
0100
0010
3100
,
1002
0100
0010
0103
,
2002
0000
0000
3003
,
0010
0100
0010
0100
0010
0100
0010
0000
0000
0200
0000
0000
,
0300
0000
0000
0000
;

//---------------dance-single - Chuck----------------
#NOTES:
     dance-single:
     Chuck:
     Easy:
     3:
     0.222,0.274,0.114,0.114,0.000,139.000,12.000,12.000,0.000,0.000:
0000
0000
0000
0000
,
0000
0000
0000
0000
,
0000
0000
0000
0000
,
0000
0000
0000
0000
,
1000
0000
0100
0000
,
0010
0000
0001
0000
,
1000
0000
0100
0000
,
0010
0010
0010
0000
,
1000
0000
0100
0000
,
0010
0000
0110
0000
,
0010
0000
1000
0000
,
0100
0000
0110
0000
,
0001
0000
1000
0000
,
0010
0000
1001
0000
,
0100
0000
0010
0000
,
2000
0000
0000
3000
,
0001
0001
1000
0000
,
0010
0000
0100
0000
,
0010
0010
0100
0000
,
0001
0000
1000
0000
,
0100
0100
0001
0000
,
1000
0000
0010
0000
,
0001
1000
0001
1000
,
0100
0000
0100
0000
,
0010
0010
0000
0000
,
0010
0000
0000
0000
,
1000
1000
0000
0000
,
0110
0000
0000
0000
,
0000
0001
0000
1000
,
0000
0001
0000
1000
,
0000
0001
0000
1000
,
0001
0001
0002
1003
,
1000
0000
0100
0000
,
0001
0000
1001
0000
,
0010
0000
1000
0000
,
0100
0000
1001
0000
,
0010
0000
0001
0000
,
1000
0000
1001
0000
,
0100
0100
0100
0010
,
0100
0010
0100
0000
,
1000
0010
0100
0000
,
0001
0000
0110
0000
,
1000
0100
0010
0000
,
0001
0000
0110
0000
,
0001
1000
0010
0000
,
0100
0000
0110
0000
,
0001
1000
0100
0010
,
0001
0001
0001
1000
,
0100
0000
0100
0000
,
0100
0100
0100
0000
,
0010
0000
0010
0000
,
0010
0010
0010
0000
,
0100
0000
0010
0000
,
0100
0010
0100
0000
,
1000
0000
0001
0000
,
1000
1000
1001
0000
,
0200
0000
0310
0000
,
0002
0000
1003
0000
,
0020
0000
0130
0000
,
2000
0000
3001
0000
,
0002
0000
0000
0003
,
2000
3000
0002
0003
,
0200
0300
0000
0000
,
0001
1000
0001
2002
,
3003
0000
0000
0000
;

//---------------dance-single - Chuck----------------
#NOTES:
     dance-single:
     Chuck:
     Medium:
     6:
     0.354,0.518,0.114,0.191,0.000,228.000,12.000,20.000,0.000,0.000:
0000
0000
0000
0000
,
0000
0000
0000
0000
,
0000
0000
0000
0000
,
0000
0000
0000
0000
,
0001
0101
0000
0000
,
1000
1100
0000
0000
,
0001
0011
1000
1010
,
0001
0001
1000
0010
,
0200
0000
0310
0100
,
0001
1000
0010
0000
,
0100
0001
0010
0100
,
1000
0010
0010
0000
,
1000
0010
0001
0100
,
1000
0010
0100
0000
,
0001
1000
0100
0010
,
0001
1000
0001
1000
0001
0000
0000
0000
,
1000
0000
0100
0000
0010
0000
0001
1000
,
0100
0010
0001
0000
,
1000
0010
0100
0001
,
1000
0010
0100
0000
0001
0000
0000
0000
,
1000
0100
0010
0001
,
0001
0010
0100
1000
0010
0000
0000
0000
,
0100
0001
1000
0100
,
0210
0010
0310
0000
,
1000
0001
1000
0001
1000
0000
0000
0000
,
0000
0000
0000
0000
,
0001
0010
0001
0010
0001
0000
0000
0000
,
0000
0000
0000
0000
,
1000
0100
2000
0000
3001
0010
0002
0000
,
1003
0100
2000
0000
3001
0010
0002
0000
,
1003
0001
1000
0001
1000
0001
0100
0000
,
0100
1001
2002
3003
,
0010
0100
0010
0000
1000
0000
1000
0000
,
0010
0100
0010
0000
0001
0000
0001
0000
,
1000
1000
1000
0000
0001
0000
0001
0000
,
0010
0010
0010
0000
0100
0000
0100
0000
,
1000
1100
0001
0101
,
2000
0000
3002
0000
,
0203
0310
0200
0310
,
0100
0001
0100
0001
0100
0000
0000
0000
,
1000
0100
0010
0001
,
1000
0010
0200
0000
,
0301
1000
0010
0100
,
0001
1000
0200
0000
,
0310
0001
0010
0001
,
1000
0100
0020
0000
,
0031
0101
1000
1100
,
0010
0100
0010
0100
0010
0000
1000
0000
,
0100
0010
0000
0100
,
0000
1000
0010
0100
,
0001
1000
0000
0010
,
0000
0100
0001
0010
,
0100
1000
0000
0010
,
0000
0100
0000
0001
,
0010
0100
0000
1000
,
0001
0100
0010
1000
0100
0000
0010
0000
,
0001
0001
1000
0100
,
0010
0001
2000
0000
,
3001
0010
0100
1000
,
0010
0100
0002
0000
,
1003
0010
0100
0001
,
0010
0100
2000
0000
,
3010
0010
0010
0100
,
0001
1000
0001
1000
0001
0000
0220
0000
,
0330
0000
0000
0000
;

//---------------dance-single - ----------------
#NOTES:
     dance-single:
     :
     Beginner:
     1:
     0.113,0.151,0.000,0.000,0.000,83.000,0.000,0.000,0.000,0.000:
0000
0000
0000
0000
,
0000
0000
0000
0000
,
0000
0000
0000
0000
,
0000
0000
0000
0000
,
1000
0000
0000
0000
,
0010
0000
0000
0000
,
0010
0000
0000
0000
,
0100
0000
0001
0000
,
1000
0000
0000
0000
,
0010
0000
0000
0000
,
0100
0000
0000
0000
,
0010
0000
0000
0000
,
1000
0000
0000
0000
,
0001
0000
0000
0000
,
0010
0000
0000
0000
,
0100
0000
0100
0000
,
1000
0000
0000
0000
,
0010
0000
0000
0000
,
0100
0000
0000
0000
,
0001
0000
0000
0000
,
0010
0000
0000
0000
,
1000
0000
0000
0000
,
0010
0000
0000
0000
,
0100
0000
0100
0000
,
0001
0000
0000
0000
,
1000
0000
0001
0000
,
1000
0000
0000
0000
,
0010
0000
0010
0000
,
0100
0000
0001
0000
,
1000
0000
0001
0000
,
1000
0000
0001
0000
,
1000
0000
0001
0000
,
0010
0000
0010
0000
,
0010
0000
0000
0000
,
0010
0000
0000
0000
,
0010
0000
0010
0000
,
0001
0000
0001
0000
,
0001
0000
0000
0000
,
0001
0000
0000
0000
,
0001
0000
1000
0000
,
0100
0000
0000
0000
,
0010
0000
0001
0000
,
0100
0000
0000
0000
,
0010
0000
1000
0000
,
0100
0000
0000
0000
,
0001
0000
1000
0000
,
0010
0000
0000
0000
,
0100
0000
0100
0000
,
0001
0000
0001
0000
,
1000
0000
1000
0000
,
0010
0000
0010
0000
,
0100
0000
0001
0000
,
0100
0000
0000
0000
,
0100
0000
0000
0000
,
0010
0000
0000
0000
,
0010
0000
0010
0000
,
0001
0000
0000
0000
,
1000
0000
0000
0000
,
0100
0000
0000
0000
,
0010
0000
0000
0000
,
0001
0000
0000
0000
,
1000
0000
0000
0000
,
0010
0000
0000
0000
,
0100
0000
0001
0000
;
