#TITLE:Akira;
#SUBTITLE:- Kaneda's Theme;
#ARTIST:Geinoh Yamashirogumi;
#TITLETRANSLIT:;
#SUBTITLETRANSLIT:;
#ARTISTTRANSLIT:;
#CREDIT:Anime Toshokan;
#BANNER:Akira - Kaneda's Theme.png;
#BACKGROUND:Akira - Kaneda's Theme bg.png;
#LYRICSPATH:;
#CDTITLE:dejiko.png;
#MUSIC:Akira - Kaneda's Theme.mp3;
#OFFSET:-9.102;
#SAMPLESTART:47.980;
#SAMPLELENGTH:16.000;
#SELECTABLE:YES;
#DISPLAYBPM:240.000;
#BPMS:0.000=240.180,540.000=240.260;
#STOPS:;
#BGCHANGES:;
// cache tags:
#FIRSTBEAT:3.000;
#LASTBEAT:711.000;
#SONGFILENAME:Songs/DDR Anime 4th Mix/Akira - Kaneda's Theme/Akira - Kaneda's Theme.sm;
#HASMUSIC:1;
#HASBANNER:1;
#MUSICLENGTH:189.813;
// end cache tags

//---------------dance-single - BASIC----------------
#NOTES:
     dance-single:
     BASIC:
     Easy:
     5:
     0.297,0.421,0.321,0.300,0.000,277.000,61.000,57.000,0.000,0.000:
0000
0000
0000
2000
,
0000
0000
0000
0000
,
0000
0000
0000
0000
,
0000
0000
0000
0000
,
0000
0000
0000
3002
,
0000
0000
0000
0000
,
0000
0203
0000
0000
,
0000
0300
0000
0000
,
0000
0000
0000
0000
,
0000
0000
0000
0000
,
0000
1000
0001
0000
,
0001
1000
0000
0000
,
0000
0001
1000
0000
,
1000
0001
0000
0000
,
0000
1000
0010
0000
,
0010
1000
0000
0000
,
0000
0001
0100
0000
,
0100
0001
0000
0000
,
0000
1000
0010
0000
,
0010
0100
0000
0000
,
0000
0001
0100
0000
,
0010
1000
0000
0000
,
0000
0100
0010
0000
,
0100
0001
0000
0000
,
0000
0001
0100
0000
,
0010
1000
0000
0000
,
0000
0001
1000
0000
,
0100
0001
0000
0000
,
0000
1000
0010
0000
,
0010
0001
1001
0000
,
0000
0000
1001
0000
,
0000
0000
1001
0000
,
0000
0000
1001
0000
,
0000
0000
0110
0000
,
0000
0000
0110
0000
,
0000
0000
0110
0000
,
0000
0000
0110
0000
,
0000
0000
1100
0000
,
0000
0000
0101
0000
,
0110
0002
0000
0000
,
0000
0000
0000
0003
,
0110
2000
0000
0000
,
0000
0000
0000
3000
,
1001
0020
0000
0000
,
0000
2030
0000
3000
,
1001
0100
0010
0100
,
0020
0000
0000
0000
,
0000
2030
0000
0000
,
0000
0000
0000
0000
,
0000
3002
0000
0000
,
0000
0000
0000
0000
,
1003
0200
0000
0000
,
1300
0020
0000
0000
,
0130
0001
0200
0000
,
0310
2000
0000
0000
,
3001
0100
0002
0000
,
1003
0100
0020
0000
,
0031
0100
0010
1000
,
0100
1000
0020
0000
,
0130
1001
0000
0000
,
0010
1100
0000
0000
,
0001
0100
0001
1000
,
0001
0110
0000
0000
,
1000
0101
0000
0000
,
0100
0011
0000
0000
,
1000
0100
0010
0001
,
0010
1100
0000
0000
,
0100
1010
0000
0000
,
0001
0110
0000
0000
,
0100
0010
0100
0001
,
0100
1001
0000
0000
,
1000
0000
0001
0000
,
0100
0000
0011
0000
,
0010
0000
0001
0000
,
1000
0000
1100
1001
,
0000
0000
0000
1000
0000
1001
0000
0000
,
0000
0000
0000
0001
0000
1001
0000
0000
,
0000
0000
0000
0100
0000
0110
0000
0000
,
0000
0000
0000
0010
0000
0110
0000
0000
,
0000
0000
0000
1100
0000
0010
0100
0000
,
0000
0000
0000
0101
0000
1000
0001
0000
,
0000
0000
0000
1010
0000
1000
0100
0000
,
0000
0000
0000
0011
0000
0001
0100
0000
,
0000
1000
0001
1000
,
0000
0001
0010
0001
,
0000
0100
0010
0100
,
0000
1000
0100
1000
,
0000
0020
0000
0000
,
0000
0000
0000
0000
,
0030
0200
0000
0000
,
0000
0000
0000
0000
,
0300
0002
0000
0000
,
0003
2000
0000
0000
,
3000
0002
0003
2000
,
0000
0000
0000
0000
,
3000
0002
0000
0000
,
0000
0000
0000
0000
,
0003
2000
0000
0000
,
0000
0000
0000
0000
,
3000
0020
0000
0000
,
0030
0200
0000
0000
,
0300
0002
0000
0000
,
0000
0000
0000
0003
,
1000
0000
1001
0000
,
0100
0000
1100
0000
,
0010
0000
0100
0000
,
0001
0000
0101
0000
,
1000
0000
0011
0000
,
0100
0000
1010
0000
,
0010
0000
0100
0000
,
0001
0000
1001
0000
,
0100
0000
0101
0000
,
0010
0000
0110
0000
,
1000
0000
0001
0000
,
0010
0000
1010
0000
,
0100
0000
1100
0000
,
0001
0000
1010
0000
,
0100
0000
0001
0000
,
0001
0000
1010
0000
,
0000
1000
0000
0001
,
0000
1000
0000
0001
,
0000
0100
0000
0010
,
0000
0100
0000
1001
,
0000
1000
0000
0001
,
0000
1000
0000
0010
,
0000
0100
0000
1100
,
0000
0101
0000
0000
,
0000
0100
0000
0001
,
0000
1000
0000
0010
,
0000
0100
0000
0001
,
0000
1000
0000
1000
,
0000
0001
0000
0100
,
0000
0010
0000
0001
,
0000
0100
0000
1010
,
0000
0011
0000
0000
,
0000
2000
0000
0000
,
0000
0000
0000
0000
,
3000
0002
0000
0000
,
0000
0000
0000
0000
,
0003
0200
0000
0000
,
0300
0020
0000
0000
,
0030
2000
3000
0002
,
0203
0000
0000
0000
,
0300
0020
0000
0000
,
0000
0000
0000
0000
,
0030
2000
0000
0000
,
0000
0000
0000
0000
,
3000
0002
0000
0000
,
0003
0200
0000
0000
,
0300
0020
0000
0000
,
0030
2000
0000
0000
,
3000
0002
0000
0000
,
0000
0000
0000
0000
,
0003
2000
0000
0000
,
0000
0000
0000
0000
,
3000
0200
0000
0000
,
0300
0020
0000
0000
,
0030
0002
2003
0000
,
3002
0000
0000
0000
,
0003
2000
0000
0000
,
0000
0000
0000
0000
,
3020
0000
0000
0000
,
0000
0000
0000
0000
,
0030
2000
0000
0000
,
3000
0002
0000
0000
,
0003
2000
3020
0000
,
0230
0000
0300
0000
,
0001
1001
0000
0110
,
0000
0000
1001
0000
,
0100
1100
0000
0101
,
0000
0000
0010
1000
,
0001
0100
0000
0000
,
1001
0000
0010
1100
,
0000
0110
0000
0000
,
1001
0000
0000
0000
0000
0000
0000
2002
,
0000
0000
0000
0000
,
0000
0000
0000
0000
,
0000
0000
0000
3003
;

//---------------dance-single - ANOTHER----------------
#NOTES:
     dance-single:
     ANOTHER:
     Medium:
     8:
     0.461,0.702,0.306,0.263,0.000,505.000,58.000,50.000,0.000,0.000:
0000
0000
0000
2200
,
0000
0000
0000
0000
,
0000
0000
0000
0000
,
0000
0000
0000
0000
,
0000
0000
0000
0000
0000
3300
0022
0000
,
0000
0000
0000
0000
,
0000
0033
2002
0000
0000
0000
0000
0000
,
0000
3003
0000
0000
,
0000
0000
0000
0000
,
0000
0000
0000
0000
,
0000
1000
0001
1000
,
1000
0001
0100
0000
,
0000
0100
0010
0100
,
0100
0010
1000
0000
,
0000
0001
0100
0001
,
0001
0100
0001
0000
,
0000
0010
1000
0010
,
0010
1000
0010
0000
,
0000
1000
1001
0010
,
0010
1001
0100
0000
,
0000
0001
0110
0010
,
0010
0110
1000
0000
,
0000
0100
1100
0010
,
0010
1100
1000
0000
,
0000
0001
0101
0010
,
0010
0101
1000
0000
,
0000
0010
1001
0100
,
0100
1001
0110
0000
,
0000
1000
0001
1100
,
0101
0110
1001
0000
,
0000
0000
0000
0000
,
1000
0001
1000
0001
1000
0000
1000
0010
,
0000
0010
0100
0000
0100
0001
0000
0001
,
0010
0000
0010
0100
0010
0100
1000
0000
,
1000
0001
0000
0001
0100
0000
0100
0010
,
0000
0010
1000
0010
1000
0100
0000
0100
,
1000
0000
1000
0010
0000
0010
1000
0000
,
1000
0100
0000
0100
0010
0100
0010
0001
,
0000
0001
1000
0000
1000
0010
0000
0000
,
0001
1000
0002
0000
0000
0000
0000
0000
,
0000
0000
0000
0000
0000
0000
0000
0003
,
1000
0020
0000
0000
,
0000
0000
0000
0000
0000
0000
0000
0030
,
0100
0000
0002
0000
0000
0000
0000
0003
,
1000
0000
0200
0000
0000
0000
0000
0300
,
1000
0010
0100
0001
,
2000
0000
0000
0000
,
0000
3000
0020
0000
0000
0000
0000
0000
,
0000
0000
0000
0000
,
0000
0030
0200
0000
0000
0000
0000
0000
,
0000
0000
0000
0000
0000
0000
0000
0300
,
0001
0000
0020
0000
0000
0000
0000
0030
,
0100
0000
0200
0000
0000
0000
0000
0300
,
1000
0000
0001
0000
2000
0000
0000
3000
,
1001
0000
0020
0000
0000
0000
0000
0030
,
1000
0001
0100
0000
,
1000
0000
0001
0010
0000
0000
0000
0000
,
0001
0000
1000
0010
0000
0001
1000
0000
,
0000
0000
0001
0100
0000
0010
1000
0000
,
1000
0000
0001
0100
0000
0000
0000
0000
,
0010
0000
0100
0001
0000
0000
0000
0000
,
0100
0000
0010
1000
0000
0100
0010
0000
,
0000
0000
0010
0100
0000
0010
0001
0000
,
1000
0001
0100
0010
0000
0000
0000
0000
,
0001
1000
0010
0100
0000
0000
0000
0000
,
1000
0100
0010
0001
0010
0000
1000
0010
,
1000
0000
0001
0010
0100
0010
0000
0000
,
1000
0100
1000
0001
0000
0000
0000
0000
,
0001
0010
0001
0100
0000
0000
0000
0000
,
0010
0100
0010
1000
0001
0000
0100
0010
,
1000
0000
1000
0100
0010
0001
0000
0000
,
1000
0100
1000
0000
0001
0100
0001
0000
,
1000
0010
1000
0000
0001
0010
0001
0000
,
1000
0001
1000
0000
0001
1000
0001
0000
,
0100
0010
0100
0000
0010
0100
0010
0000
,
1001
0000
1000
0001
0000
0001
1000
0000
,
0110
0000
1000
0001
0000
0001
0100
0000
,
1100
0000
0100
1000
0010
0100
0001
0000
,
0101
0000
0001
0100
0000
1000
0010
0000
,
0011
0000
0010
0001
0000
0100
0010
0000
,
1010
0000
1000
0010
0000
0010
0001
0000
,
1001
0000
1000
0001
0000
0001
0010
0000
,
0110
0000
0100
1000
0000
0100
0001
0000
,
0110
0000
1000
0001
0000
0001
1000
0000
,
1100
0000
0010
0001
0000
0001
0010
0000
,
0011
0000
0001
1000
0100
0010
0100
0000
,
1001
0000
1000
0001
1000
0001
1000
0000
,
0010
0200
0000
0000
,
0000
0000
0000
0000
0000
0000
0000
0300
,
0010
2000
0000
0000
,
0000
0000
0000
0000
0000
0000
0000
3000
,
0001
0000
0002
0000
0000
0000
0000
0003
,
1000
0100
0020
0000
0000
0000
0000
0030
,
0001
1000
0010
0100
,
0002
0000
0000
0000
0000
0000
0000
0003
,
1000
0020
0000
0000
,
0000
0000
0000
0000
0000
0000
0000
0030
,
1000
0200
0000
0000
,
0000
0000
0000
0000
0000
0000
0000
0300
,
1000
0000
2000
0000
0000
0000
0000
3000
,
0100
0000
0020
0000
0000
0000
0000
0030
,
0001
0200
0000
0000
,
0000
0000
0000
0300
,
0001
1000
0001
0000
,
1000
0001
1000
0000
,
1000
0010
0100
0001
,
1000
0100
0010
0000
,
0001
1000
0010
0000
,
0010
0100
0001
0000
,
1000
0100
1000
0010
,
0100
0001
1000
0000
,
0100
0010
1000
0000
,
1000
0001
0010
0000
,
0001
0100
0001
0010
,
0100
0010
0001
0000
,
1000
0001
1001
0000
,
0010
0100
0110
0000
,
1000
0001
0100
0010
,
0100
0010
1001
0000
,
1000
0001
0001
0100
,
0100
0010
0010
1000
,
1000
0001
0001
1000
,
1000
0010
0100
1001
,
0100
0001
0001
0010
,
0010
0100
0100
1000
,
1000
0010
0010
0100
,
0100
0010
0001
0000
,
1000
0100
0010
0001
,
0010
0100
1000
0010
,
0100
0001
0100
0010
,
1000
0001
1000
0001
,
0100
0010
0100
0010
,
1000
0001
0100
0010
,
0100
0001
1000
0100
,
0010
0001
1000
0000
,
1001
0020
0000
0000
,
0000
0000
0000
0000
0000
0000
0000
0030
,
1000
0002
0000
0000
,
0000
0000
0000
0000
0000
0000
0000
0003
,
0010
0000
0200
0000
0000
0000
0000
0300
,
1000
0000
0020
0000
0000
0000
0000
0030
,
1000
0010
0100
0001
,
2000
0000
0000
0000
0000
0000
0000
3000
,
0001
0200
0000
0000
,
0000
0000
0000
0000
0000
0000
0000
0300
,
0010
2000
0000
0000
,
0000
0000
0000
0000
0000
0000
0000
3000
,
0100
0000
0020
0000
0000
0000
0000
0030
,
0001
0000
0200
0000
0000
0000
0000
0300
,
0010
2002
0000
0000
,
0000
0000
0000
3003
,
1000
0001
0200
0000
0000
0000
0000
0000
,
0000
0000
0000
0000
0000
0000
0000
0300
,
0010
2000
0000
0000
,
0000
0000
0000
0000
0000
0000
0000
3000
,
0001
0000
0002
0000
0000
0000
0000
0003
,
0010
0000
0200
0000
0000
0000
0000
0300
,
1000
0100
0010
0100
,
2000
0000
0000
0000
0000
0000
0000
3000
,
0010
0100
0002
0000
0000
0000
0000
0000
,
0000
0000
0000
0000
0000
0000
0000
0003
,
0100
0020
0000
0000
,
0000
0000
0000
0000
0000
0000
0000
0030
,
1000
0000
0200
0000
0000
0000
0000
0300
,
1000
0000
0020
0000
0000
0000
0000
0030
,
0100
0001
0100
0010
,
0200
0000
0000
0300
,
0001
1000
1100
0101
,
0000
1001
0000
1001
0000
0000
0000
0100
,
0000
0010
0000
0011
0000
1010
0000
0000
,
0000
1001
0110
1001
,
1100
0000
0101
0000
1001
0000
0000
0110
,
0000
0000
0000
1001
0000
0110
0000
1001
,
0000
0110
0000
0000
0000
1001
0000
0110
,
0000
0000
0000
1001
0000
0000
0000
2002
,
0000
0000
0000
0000
,
0000
0000
0000
0000
,
0000
0000
0000
3003
;

//---------------dance-single - MANIAC----------------
#NOTES:
     dance-single:
     MANIAC:
     Hard:
     10:
     0.776,0.843,0.827,0.126,0.021,850.000,157.000,24.000,0.000,0.000:
0000
0000
0000
0000
0000
0000
0000
0000
0000
0000
0000
0000
0001
1000
0002
0000
,
0000
0000
0000
0000
,
0000
0000
0000
0000
,
0000
0000
0000
0000
,
0000
0000
0000
0000
0000
0000
0000
0000
0000
0000
0003
0000
1000
0001
2000
0000
,
0000
0000
0000
0000
,
0000
0000
3000
0000
0010
0100
0020
0000
0000
0000
0000
0000
0000
0000
0000
0000
,
0000
0000
0000
0030
0000
0000
0000
0000
,
0000
0000
0000
0000
,
0000
0000
0000
0000
,
0000
1000
0001
1000
,
1000
0001
1000
1000
,
1000
0010
0100
0010
,
0010
0100
0010
0010
,
0010
0001
1000
0001
,
0001
1000
0001
0001
,
0001
0100
0010
0100
,
0100
0010
0100
0100
,
0100
0001
1000
1001
,
1001
0001
1001
1001
,
1001
0010
0100
0011
,
0011
0100
0011
0011
,
0011
0001
1000
0110
,
0110
1000
0110
0110
,
0110
0100
0010
1100
,
1100
0010
1100
1100
,
1100
1001
0110
1001
,
1001
0110
1001
1001
,
1001
0011
1010
0011
,
0011
1010
0011
0011
,
0011
0000
1000
0100
0010
0001
1000
0010
,
0100
0001
1000
0001
1000
0001
0010
0100
,
1000
0100
0010
0001
1000
0001
0100
0010
,
1000
0010
0100
0010
1000
0001
0010
0100
,
0010
0001
0100
0010
1000
0100
0010
0100
,
1000
0001
0100
0010
0100
0001
1000
0100
,
0010
0001
0010
0100
1000
0010
0100
0001
,
0100
0010
1000
0010
0100
0010
0100
0010
,
0100
0001
0010
0100
1000
0001
1000
0100
,
0000
1001
0000
1001
0000
0001
0100
0001
,
0010
0100
0010
0100
1000
0001
1000
0010
,
0100
0001
0010
0100
1000
0010
0100
0001
,
0010
0100
1000
0100
0010
0001
0100
0010
,
1000
0100
0010
0001
0010
0100
1000
0001
,
1000
0001
0100
0010
0100
0001
1000
0001
,
1000
0010
0100
0010
0100
0001
0010
0001
,
1000
0100
1000
0001
1000
0010
0100
0001
,
0100
0010
1000
0100
0010
0001
0010
0100
,
1000
0100
1000
0100
1000
0010
1000
0010
,
1000
0001
1000
0001
0100
0001
0010
0001
,
1000
0100
1000
0001
0100
0001
1000
0010
,
1000
0001
0010
0001
0100
0010
0100
0001
,
1000
0100
0010
0001
0010
0100
0010
0001
,
1000
0010
0100
0001
0010
0100
1000
0010
,
0100
0010
1000
0001
1000
0001
1000
0010
,
1000
0100
1000
0001
0100
0001
0010
0001
,
1000
0000
0001
1000
0001
1000
0000
0000
,
0110
0000
1000
0001
1000
0001
0000
0000
,
1100
0000
1000
0100
0010
0001
0000
0000
,
0011
0000
0001
0010
0100
1000
0000
0000
,
1010
0000
1000
0010
0100
0001
0000
0000
,
0101
0000
0001
0100
0010
1000
0010
0100
,
0001
1000
0001
0010
0100
1000
0000
0000
,
1000
0100
0010
0001
0010
0100
0000
0000
,
0100
0010
0001
0010
0100
1000
0000
0000
,
0001
1000
0010
0100
0010
1000
0001
1000
,
0100
0010
0001
0100
0010
0100
0000
0000
,
1000
0001
1000
0010
0100
0110
0000
0000
,
0001
0010
0100
1000
0001
1001
0000
0000
,
1000
0100
1000
0100
0010
0001
0010
0001
,
1000
0100
0010
0001
0010
0011
0000
0000
,
1000
0100
0010
0001
1000
0010
0100
0001
,
1000
0100
0010
0001
1000
0010
0100
0001
,
0010
0100
1000
0001
0100
0010
1000
0001
,
0010
0100
1000
0001
1000
0000
1001
0000
,
1000
0010
1000
0010
1000
0010
1000
0010
,
1000
0010
1000
0010
1000
0010
1000
0010
,
0100
0001
0100
0001
0100
0001
0100
0001
,
0100
0001
0100
0001
0100
0001
0100
0001
,
1000
0100
0010
0001
0100
0010
1000
0100
,
0010
0001
0100
0010
1000
0100
0010
0001
,
0100
0010
1000
0100
0010
0001
0100
0010
,
1000
0100
0010
0001
0100
0010
1000
0100
,
1000
0001
1000
0001
1000
0001
1000
0001
,
1000
0001
1000
0001
1000
0001
1000
0001
,
0010
0100
1000
0010
0100
0001
0010
0100
,
1000
0010
0100
0001
0010
0100
1000
0100
,
1000
0002
0000
0000
,
0000
0000
0000
0000
,
1003
0002
0000
0000
,
0000
0000
0000
0000
,
1003
0002
0000
0000
,
1003
0001
2000
0000
0000
0000
0000
0000
,
3010
0000
1000
0000
0001
0000
0100
0010
,
0200
0000
0000
0000
,
0301
1000
0020
0000
0000
0000
0000
0000
,
0000
0000
0000
0000
,
1030
0100
2000
0000
0000
0000
0000
0000
0000
0000
0000
0000
0000
0000
0000
0000
,
0000
0000
0000
0000
,
3100
0020
0000
0000
,
0031
2000
0000
0000
,
3010
0200
0000
0000
,
0000
0000
0000
0300
,
0110
1001
0110
0000
,
1100
0101
1001
0000
,
1100
0101
1010
0011
,
0110
0110
1001
0000
,
1100
0011
1001
0000
,
1010
0101
0110
0000
,
1001
0110
1001
0110
,
1001
1100
0101
0000
,
1001
1100
0110
0000
,
1001
0011
0110
0000
,
1001
1100
1001
0101
,
0110
0000
1010
0000
1001
0000
0000
1000
,
1001
1100
1001
0000
,
0110
1001
0101
0000
,
1001
0110
0011
1001
,
1100
0110
0101
0000
,
1000
1100
0100
0110
,
0010
0011
0001
1001
,
1000
1010
0010
0011
,
0001
0101
1001
0110
,
1000
1100
1000
1100
,
0100
0101
0001
0101
,
0001
0011
0010
0110
,
0100
0110
1001
0000
,
1100
1001
0101
1001
,
0011
1001
1010
1001
,
0101
0110
0011
0110
,
1100
0110
1010
0110
,
1001
0110
1001
0110
,
1001
1100
0101
1100
,
0101
0110
1010
0011
,
1010
0011
1001
0000
,
1000
0100
1000
0100
0010
0100
0010
0100
,
0010
0001
0010
0001
1000
0001
1000
0001
,
0010
0100
1000
0100
0010
0001
0010
0100
,
1000
0100
0010
0001
1000
0010
0100
0001
,
0100
0010
1000
0010
0100
0001
0100
0010
,
1000
0001
0010
0100
0010
0001
1000
0100
,
0010
0100
1000
0001
0100
0010
0100
0001
,
1000
0010
0100
0010
1000
0010
0100
0001
,
0010
0100
1000
0100
0010
0001
0100
0010
,
1000
0001
1000
0001
1000
0100
1000
0001
,
0010
0001
1000
0010
1000
0001
0100
0001
,
0010
0100
1000
0010
0100
0001
0100
0010
,
1000
0100
0010
0001
1000
0100
0010
0100
,
1000
0010
0100
0010
1000
0001
0100
0010
,
0100
0001
0010
0100
0010
0001
1000
0001
,
1000
0001
1000
0001
1000
0001
1000
0001
,
1000
0002
0000
0000
0000
0000
0000
0000
,
0000
0000
0000
0000
,
1003
0002
0000
0000
,
0000
0000
0000
0000
,
1003
0010
2000
0000
0000
0000
0000
0000
,
3001
0100
0002
0000
0000
0000
0000
0000
,
1003
0000
0000
0000
0011
0000
0000
0000
0001
1000
0000
0000
0000
1000
0002
0000
,
0000
0000
0000
0000
,
1003
0010
0200
0000
0000
0000
0000
0000
,
0000
0000
0000
0000
,
0301
0010
0200
0000
0000
0000
0000
0000
,
0000
0000
0000
0000
,
1300
0001
2000
0000
0000
0000
0000
0000
,
3100
0020
0000
0000
,
0130
0000
0000
0000
1000
0000
0000
0000
0001
1000
0000
0000
0000
1000
0100
0000
,
0000
1000
0000
0010
0000
0000
0000
0000
,
1000
0100
0010
0001
1000
0010
0100
0000
,
0000
1001
0000
0000
0000
0110
0000
0000
,
0001
0010
0100
1000
0001
0100
0010
0000
,
0000
0110
0000
0000
0000
1001
0000
0000
,
1000
0001
1000
0001
0100
0010
0100
0000
,
0000
1010
0000
0000
0000
0011
0000
0000
,
1000
0100
1000
0001
0010
0001
1000
0000
,
0000
0101
0000
0000
0000
1100
0000
2002
,
0000
0000
0000
0000
,
0000
0000
0000
0000
,
0000
0000
0000
3003
;

//---------------dance-single - BEGINNER----------------
#NOTES:
     dance-single:
     BEGINNER:
     Beginner:
     3:
     0.204,0.281,0.121,0.042,0.000,240.000,23.000,8.000,0.000,0.000:
0000
0000
0000
0000
,
0000
0000
0000
0000
,
0000
0000
0000
0000
,
0000
0000
0000
0000
,
0000
0000
0000
0000
,
0000
0000
0000
0000
,
0000
0000
0000
0000
,
0000
0000
0000
0000
,
0000
0000
0000
0000
,
0000
0000
0000
0000
,
0000
1000
0001
0000
,
1000
0000
0100
0000
,
0000
0100
0010
0000
,
0100
0000
1000
0000
,
0000
0001
0100
0000
,
0001
0000
0001
0000
,
0000
0010
1000
0000
,
0010
0000
0010
0000
,
0000
1000
0001
0000
,
0010
0000
0100
0000
,
0000
0001
0100
0000
,
0010
0000
1000
0000
,
0000
0100
1000
0000
,
0010
0000
1000
0000
,
0000
0001
0100
0000
,
0010
0000
1000
0000
,
0000
0010
0001
0000
,
0100
0000
0110
0000
,
0000
1000
0001
0000
,
0101
0000
1001
0000
,
0000
0000
0000
0000
,
1000
0000
1000
0000
,
0000
0100
0100
0000
,
0010
0000
0010
0000
,
1000
0000
0100
0000
,
0000
1000
1000
0000
,
1000
0000
0000
1000
,
1000
0000
0010
0000
,
0000
1000
1000
0000
,
0001
0000
0000
0000
,
0000
0000
0000
0000
,
1000
0000
0000
0000
,
0000
0000
0000
0000
,
0100
0000
0000
0000
,
1000
0000
0000
0000
,
1000
0000
0100
0000
,
2000
0000
0000
0000
,
0000
3000
0000
0000
0000
0000
0000
0000
,
0110
0000
0000
0000
,
0000
0000
0000
0000
,
1001
0000
0000
0000
,
0001
0000
0000
0000
,
0100
0000
0000
0000
,
1000
0000
0000
0000
2000
0000
0000
3000
,
1001
0000
0000
0000
,
1000
0000
0100
0000
,
1000
0000
0000
0000
,
0001
0000
0000
1000
,
0000
0001
0000
1000
,
1000
0000
0000
0000
,
0010
0000
0000
0000
,
0100
0000
0000
0010
,
0000
0010
0000
0001
,
1000
0000
0000
0000
,
0001
0000
0000
0000
,
1000
0000
0010
0000
,
1000
0000
0100
0000
,
1000
0000
0000
0000
,
0001
0000
0000
0000
,
0010
0000
0001
0000
,
1000
0000
0010
0000
,
1000
0000
0001
0000
,
1000
0000
0001
0000
,
1000
0000
0001
0000
,
0100
0000
0010
0000
,
1001
0000
0000
1000
,
0010
0000
0000
0100
,
1000
0000
0010
0000
,
0101
0000
0000
0010
,
0001
0000
0000
0010
,
1000
0000
0000
0001
,
1000
0000
0000
0010
,
0100
0000
0000
0001
,
0010
0000
0000
1000
,
0100
0000
0000
0010
,
0001
0000
0100
0000
,
1001
0000
1000
0000
,
0010
0000
0000
0000
,
0000
0000
0000
0000
,
0010
0000
0000
0000
,
0000
0000
0000
0000
,
0001
0000
0000
0000
,
1000
0000
0000
0000
,
0001
0000
0010
0000
,
0002
0000
0000
0000
0000
0000
0000
0003
,
1000
0000
0000
0000
,
0000
0000
0000
0000
,
1000
0000
0000
0000
,
0000
0000
0000
0000
,
1000
0000
0000
0000
,
0100
0000
0000
0000
,
0001
0000
0000
0000
,
0000
0000
0000
0000
,
0001
0000
0001
0000
,
1000
0000
1000
0000
,
1000
0000
0100
0000
,
1000
0000
0010
0000
,
0001
0000
0010
0000
,
0010
0000
0001
0000
,
1000
0000
1000
0000
,
0100
0000
1000
0000
,
0100
0000
1000
0000
,
1000
0000
0010
0000
,
0001
0000
0001
0000
,
0100
0000
0001
0000
,
1000
0000
1001
0000
,
0010
0000
0110
0000
,
1000
0000
0100
0000
,
0100
0000
1001
0000
,
1000
0000
0001
0000
,
0100
0000
0010
0000
,
1000
0000
0001
0000
,
1000
0000
0100
0000
,
0100
0000
0001
0000
,
0010
0000
0100
0000
,
1000
0000
0010
0000
,
0100
0000
0001
0000
,
1000
0000
0010
0000
,
0010
0000
1000
0000
,
0100
0000
0100
0000
,
1000
0000
1000
0000
,
0100
0000
0100
0000
,
1000
0000
0100
0000
,
0100
0000
1000
0000
,
0010
0000
1000
0000
,
1001
0000
0000
0000
,
0000
0000
0000
0000
,
1000
0000
0000
0000
,
0000
0000
0000
0000
,
0010
0000
0000
0000
,
1000
0000
0000
0000
,
1000
0000
0100
0000
,
2000
0000
0000
0000
0000
0000
0000
3000
,
0001
0000
0000
0000
,
0000
0000
0000
0000
,
0010
0000
0000
0000
,
0000
0000
0000
0000
,
0100
0000
0000
0000
,
0001
0000
0000
0000
,
0010
0000
0000
0000
,
0000
0000
0000
0000
,
1000
0000
0000
0000
,
0000
0000
0000
0000
,
0010
0000
0000
0000
,
0000
0000
0000
0000
,
0001
0000
0000
0000
,
0010
0000
0000
0000
,
1000
0000
0010
0000
,
2000
0000
0000
0000
0000
0000
0000
3000
,
0010
0000
0000
0000
,
0000
0000
0000
0000
,
0100
0000
0000
0000
,
0000
0000
0000
0000
,
1000
0000
0000
0000
,
1000
0000
0000
0000
,
0100
0000
0100
0000
,
0200
0000
0000
0300
,
0001
0000
1100
0000
,
0000
0000
0011
0000
,
0000
0000
1010
0000
,
0000
0101
0000
0000
,
1100
0000
1001
0000
,
0000
0000
0000
0000
,
0110
0000
0110
0000
,
1001
0000
0000
0000
0000
0000
0000
2002
,
0000
0000
0000
0000
,
0000
0000
0000
0000
,
0000
0000
0000
3003
;
