#TITLE:THE BAD TOUCH;
#SUBTITLE:;
#ARTIST:the BLOODHOUND GANG;
#TITLETRANSLIT:;
#SUBTITLETRANSLIT:;
#ARTISTTRANSLIT:;
#CREDIT:;
#BANNER:THE BAD TOUCH.png;
#BACKGROUND:THE BAD TOUCH-bg.png;
#LYRICSPATH:THE BAD TOUCH.lrc;
#CDTITLE:./CDTITLES/DANCING STAGE PARTY EDITION.PNG;
#MUSIC:THE BAD TOUCH.mp3;
#OFFSET:-0.575;
#SAMPLESTART:55.180;
#SAMPLELENGTH:12.000;
#SELECTABLE:YES;
#DISPLAYBPM:123.000;
#BPMS:0.000=122.990;
#STOPS:;
#BGCHANGES:;
// cache tags:
#FIRSTBEAT:16.000;
#LASTBEAT:187.000;
#SONGFILENAME:Songs/Dancing Stage/THE BAD TOUCH/THE BAD TOUCH.sm;
#HASMUSIC:1;
#HASBANNER:1;
#MUSICLENGTH:94.249;
// end cache tags

//---------------dance-single - ----------------
#NOTES:
     dance-single:
     :
     Easy:
     1:
     0.109,0.149,0.000,0.000,0.000,72.000,0.000,0.000,0.000,0.000:  // measure 1
0000
0000
0000
0000
,  // measure 2
0000
0000
0000
0000
,  // measure 3
0000
0000
0000
0000
,  // measure 4
0000
0000
0000
0000
,  // measure 5
0010
0000
0000
0000
,  // measure 6
0100
0000
0000
0000
,  // measure 7
0001
0001
0000
0000
,  // measure 8
1000
0000
0000
0000
,  // measure 9
0010
0000
0000
0000
,  // measure 10
0100
0000
0000
0000
,  // measure 11
1000
1000
0000
0000
,  // measure 12
0001
0000
0000
0000
,  // measure 13
0010
0000
0001
0000
,  // measure 14
0000
0000
0010
0001
,  // measure 15
0100
0000
0000
0000
,  // measure 16
0000
0000
0000
0000
,  // measure 17
0001
0000
1000
0000
,  // measure 18
0000
0000
0010
1000
,  // measure 19
0100
0000
0000
0000
,  // measure 20
0000
0000
0000
0000
,  // measure 21
0010
0000
0000
0000
,  // measure 22
0000
0000
0010
0001
,  // measure 23
1000
0000
0000
0000
,  // measure 24
0000
0000
0000
0000
,  // measure 25
0010
0000
1000
0000
,  // measure 26
0000
0000
0010
1000
,  // measure 27
0001
0000
0000
0000
,  // measure 28
1000
1000
1000
1000
,  // measure 29
0010
0000
0100
0000
,  // measure 30
0001
0001
0001
0000
,  // measure 31
1000
0000
0001
0000
,  // measure 32
1000
0000
0001
0000
,  // measure 33
0010
0000
0000
0000
,  // measure 34
0100
0000
0000
0000
,  // measure 35
0001
0000
1000
0000
,  // measure 36
0001
0000
1000
0000
,  // measure 37
0001
0001
0000
0000
,  // measure 38
1000
1000
0000
0000
,  // measure 39
0010
0000
0010
0000
,  // measure 40
0010
0001
0100
0000
,  // measure 41
1000
1000
0000
0000
,  // measure 42
0001
0001
0000
0000
,  // measure 43
0010
0000
0010
0000
,  // measure 44
0010
0001
0100
1000
,  // measure 45
0000
0000
0000
0000
,  // measure 46
0100
0000
0000
0000
,  // measure 47
0100
0100
0100
0100
;

//---------------dance-single - ----------------
#NOTES:
     dance-single:
     :
     Medium:
     3:
     0.250,0.298,0.032,0.000,0.000,162.000,3.000,0.000,0.000,0.000:  // measure 1
0000
0000
0000
0000
,  // measure 2
0000
0000
0000
0000
,  // measure 3
0000
0000
0000
0000
,  // measure 4
0000
0000
0000
0000
,  // measure 5
0010
0100
0000
1000
,  // measure 6
0001
0001
0000
0000
,  // measure 7
0001
1000
0100
0000
,  // measure 8
0010
0000
0010
0000
,  // measure 9
1000
0001
0000
0000
,  // measure 10
0010
1000
0001
0000
0000
0000
0100
0000
,  // measure 11
0001
1000
0001
1000
,  // measure 12
0001
1000
0100
0100
,  // measure 13
1000
1000
0001
0001
,  // measure 14
0010
1000
0100
0000
0001
0000
1000
0000
,  // measure 15
0010
0000
0100
0000
,  // measure 16
0001
0001
0100
1000
,  // measure 17
0100
0000
0010
0000
,  // measure 18
0001
0100
0001
0000
1000
0000
0100
0000
,  // measure 19
0001
1000
0001
0000
,  // measure 20
0010
0000
0000
0000
0010
1000
0100
0000
,  // measure 21
1000
0000
0001
0000
,  // measure 22
0001
0100
0001
0000
1000
0000
0010
0000
,  // measure 23
0001
0000
0100
0100
,  // measure 24
0010
0001
1000
1000
,  // measure 25
0001
0000
0001
0000
1000
1000
0001
0000
,  // measure 26
0010
0000
0000
0000
0001
1000
0100
0000
,  // measure 27
0001
0001
1000
1000
,  // measure 28
0010
0100
0001
0000
1000
0000
0110
0000
,  // measure 29
1001
0000
0000
0000
0100
0001
1000
0000
,  // measure 30
0010
0100
0001
1000
0100
0000
0000
0000
,  // measure 31
1000
0010
0001
0100
,  // measure 32
0001
0100
0010
0110
,  // measure 33
0001
0000
0000
0000
0010
0000
0001
0001
,  // measure 34
0010
0010
0100
0100
,  // measure 35
0010
0000
0100
0000
,  // measure 36
1000
0100
0001
0010
,  // measure 37
1000
1000
0001
0100
,  // measure 38
0010
0000
0000
0000
0010
1000
0100
0000
,  // measure 39
0010
0000
1000
0100
,  // measure 40
0001
0000
0001
1000
0001
0000
1000
0000
,  // measure 41
1000
1000
0001
0001
,  // measure 42
1000
0000
0010
0000
0001
0001
1000
0000
,  // measure 43
0010
1000
0100
0001
,  // measure 44
0010
1000
0001
0100
,  // measure 45
0001
1000
0100
0000
0100
0000
0010
0000
,  // measure 46
0001
1000
0100
0100
,  // measure 47
1000
1000
1000
1000
;

//---------------dance-single - ----------------
#NOTES:
     dance-single:
     :
     Hard:
     5:
     0.343,0.347,0.042,0.000,0.005,222.000,4.000,0.000,0.000,0.000:  // measure 1
0000
0000
0000
0000
,  // measure 2
0000
0000
0000
0000
,  // measure 3
0000
0000
0000
0000
,  // measure 4
0000
0000
0000
0000
,  // measure 5
0010
0010
0100
0000
1000
0000
0100
0000
,  // measure 6
1000
1000
0010
0000
0010
0000
0100
0000
,  // measure 7
0001
0100
0010
0000
1000
0000
0101
0000
,  // measure 8
0010
0100
0001
1000
0010
0000
0000
0000
,  // measure 9
0001
0001
0010
0000
1000
0000
0100
0000
,  // measure 10
1000
1000
0100
0000
0100
0000
1000
0000
,  // measure 11
0010
0000
0001
0000
1000
1000
0100
0000
,  // measure 12
0001
0010
0100
1000
0001
1000
0100
0000
,  // measure 13
0010
0000
0100
0000
,  // measure 14
0001
1000
0100
0000
1000
0000
0100
0000
,  // measure 15
0010
0001
0100
0010
1000
0001
0100
0000
,  // measure 16
0001
0001
1000
0100
,  // measure 17
0001
0010
0001
0000
1000
0010
0100
0000
,  // measure 18
0001
0000
1000
0000
0001
1000
0010
0000
,  // measure 19
0001
0100
1000
0010
,  // measure 20
0001
0000
1000
0000
0001
0100
1000
0010
,  // measure 21
0100
0000
0100
0000
0001
1000
0010
0000
,  // measure 22
0100
0001
0100
0010
1000
0000
0101
0000
,  // measure 23
1000
0001
0010
0100
,  // measure 24
1000
0000
0100
0000
0010
0000
0001
0000
1000
0000
0001
0100
0001
0000
0100
0000
,  // measure 25
1000
0000
0100
0000
0010
0001
0100
0000
,  // measure 26
1000
0100
1000
0100
0010
0001
0100
0000
,  // measure 27
0010
0001
1000
0100
,  // measure 28
0001
0000
1000
0110
,  // measure 29
0001
0100
0001
0000
1000
0010
0100
0000
,  // measure 30
0001
0010
0001
1000
0100
0000
0000
0000
,  // measure 31
0010
1000
0100
0010
0001
1000
0100
0000
,  // measure 32
0001
0100
1000
0000
0001
0000
0100
0000
,  // measure 33
1000
1000
0100
0000
0001
0000
0100
0000
,  // measure 34
0010
1000
0100
0000
0100
0000
0001
0000
,  // measure 35
0010
0010
1000
0001
,  // measure 36
0100
0001
1000
0010
0100
0000
1001
0000
,  // measure 37
0100
0100
0001
1000
,  // measure 38
0010
0000
0001
0000
1000
0001
0100
0000
,  // measure 39
0010
1000
0100
0000
0010
0001
1000
0000
,  // measure 40
0100
1000
0001
0010
0100
1000
0001
0000
,  // measure 41
0100
1000
0001
0100
,  // measure 42
0010
0001
1000
0100
,  // measure 43
0001
0001
0100
0000
0010
1000
0001
0100
,  // measure 44
0010
0010
0100
0100
,  // measure 45
0001
1000
0100
0100
,  // measure 46
0010
0001
1000
0000
0010
0000
0010
1000
,  // measure 47
0100
0100
0100
0100
;

//---------------dance-double - ----------------
#NOTES:
     dance-double:
     :
     Easy:
     2:
     0.136,0.187,0.042,0.000,0.000,86.000,4.000,0.000,0.000,0.000:  // measure 1
00000000
00000000
00000000
00000000
,  // measure 2
00000000
00000000
00000000
00000000
,  // measure 3
00000000
00000000
00000000
00000000
,  // measure 4
00000000
00000000
00000000
00000000
,  // measure 5
00000001
00000000
00000000
00000000
,  // measure 6
00001000
00000000
00000000
00000000
,  // measure 7
00000001
00000000
00000000
00000000
,  // measure 8
00000100
00000000
00001000
00010000
,  // measure 9
00001000
00000000
00000000
00000000
,  // measure 10
01000000
00000000
00000000
00000000
,  // measure 11
00010000
00000000
00000000
00000000
,  // measure 12
10000000
00000000
00100000
01000000
,  // measure 13
00010000
00000000
10000000
00000000
,  // measure 14
00100000
00000000
00100000
00000000
,  // measure 15
10000000
01000000
00010000
00010000
,  // measure 16
00001000
00000000
00000000
00000000
,  // measure 17
00000010
00000000
00000001
00000000
,  // measure 18
00000100
00000000
00001000
00000000
,  // measure 19
00000010
00000001
00000100
00001000
,  // measure 20
00010000
00000000
00000000
00000000
,  // measure 21
00011000
00000000
01000000
00000000
,  // measure 22
00100000
10000000
00010000
00000000
,  // measure 23
00100000
01000000
10000000
00100000
,  // measure 24
00010000
00000000
00001000
00000000
,  // measure 25
00010000
00000000
00001000
00000000
,  // measure 26
00000010
00000001
00000010
00000100
,  // measure 27
00001000
00000000
00000001
00000000
,  // measure 28
00000010
00001000
00010000
00000000
,  // measure 29
00001000
00000000
00000000
00000000
,  // measure 30
00010000
00000000
00000000
00000000
,  // measure 31
01000000
10000000
00010000
00010000
,  // measure 32
00100000
01000000
10000000
00000000
,  // measure 33
00010000
00000000
10000000
00000000
,  // measure 34
01000000
00010000
00001000
00000000
,  // measure 35
00000100
00000000
00001000
00000000
,  // measure 36
00000010
00000010
00000100
00000000
,  // measure 37
00001001
00000000
00000000
00000000
,  // measure 38
00000010
00000000
00000000
00000000
,  // measure 39
00000100
00000000
00000000
00000000
,  // measure 40
00011000
00000000
00000000
00010000
,  // measure 41
01000000
00000000
00000000
00100000
,  // measure 42
10000000
00000000
00000000
01000000
,  // measure 43
00010000
00000000
00000000
00001000
,  // measure 44
00000100
00000010
00000001
00000000
,  // measure 45
00001001
00000000
00000000
00000000
;

//---------------dance-double - ----------------
#NOTES:
     dance-double:
     :
     Medium:
     5:
     0.270,0.296,0.053,0.000,0.000,173.000,5.000,0.000,0.000,0.000:  // measure 1
00000000
00000000
00000000
00000000
,  // measure 2
00000000
00000000
00000000
00000000
,  // measure 3
00000000
00000000
00000000
00000000
,  // measure 4
00000000
00000000
00000000
00000000
,  // measure 5
00010000
00010000
00010000
00000000
,  // measure 6
10000000
10000000
10000000
00000000
,  // measure 7
00010000
01000000
10000000
01000000
,  // measure 8
00010000
00000000
00001000
00000000
00001000
00000100
00000001
00000000
,  // measure 9
00000000
00000010
00000010
00000010
,  // measure 10
00000000
00000100
00000100
00000100
,  // measure 11
00000010
00001000
00000010
00000001
,  // measure 12
00000100
00000000
00000000
00000000
00000010
00000100
00000010
00000000
,  // measure 13
00001001
00000100
00001000
00001000
,  // measure 14
00010000
01000000
10000000
10000000
,  // measure 15
00010000
10000000
00010000
00000000
00100000
00000000
00100000
00000000
,  // measure 16
01000000
10000000
00010000
00000000
00100000
00000000
00100000
01000000
,  // measure 17
00100000
00010000
10000000
10000000
,  // measure 18
01000000
00010000
00001000
00001000
,  // measure 19
00000010
00000001
00000001
00001000
,  // measure 20
00000010
00000001
00000100
00000100
,  // measure 21
00001000
00000000
00010000
00100000
,  // measure 22
01000000
00000000
00010000
00000000
00100000
00000000
00100000
01000000
,  // measure 23
00100000
00010000
10000000
00100000
,  // measure 24
01000000
00000000
00010000
10000000
00010000
00000000
01000000
00000000
,  // measure 25
00001000
00000000
00000010
00000000
,  // measure 26
00000001
00000100
00001000
00000100
,  // measure 27
00000010
00000000
00000001
00000100
00001000
00000000
00010000
00000000
,  // measure 28
00100000
01000000
10010000
00000000
,  // measure 29
01000000
01000000
00100000
00100000
,  // measure 30
10000000
00000000
01000000
00010000
00001000
00000000
00001000
00000000
,  // measure 31
00001000
00000100
00000001
00000000
00000010
00000000
00000100
00000000
,  // measure 32
00001000
00000000
00000010
00000100
00000010
00000000
00000010
00000000
,  // measure 33
00001001
00000000
00000010
00000000
,  // measure 34
00000001
00000100
00001000
00010000
,  // measure 35
00100000
00000000
10000000
00010000
,  // measure 36
01000000
00000000
00100000
01000000
00100000
00000000
10010000
00000000
,  // measure 37
00100000
00000000
00000000
00000000
10000000
01000000
00010000
00000000
,  // measure 38
00010000
00000000
00000000
00000000
00010000
00001000
00010000
00000000
,  // measure 39
00001000
00000010
00000001
00000100
,  // measure 40
00000010
00000000
00001000
00000000
00000001
00000100
00001000
00000000
,  // measure 41
00010000
00000000
00100000
00000000
10000000
00010000
01000000
00000000
,  // measure 42
00100000
00000000
10000000
00000000
00010000
00100000
10000000
00000000
,  // measure 43
00100000
00010000
00001000
00000010
,  // measure 44
00001000
00000100
00001000
00000000
00000010
00000100
00000010
00000000
,  // measure 45
00001001
00000100
00000100
00000100
,  // measure 46
00001000
00000000
00010000
00000000
,  // measure 47
00100000
00000000
10000000
00000000
;

//---------------dance-double - ----------------
#NOTES:
     dance-double:
     :
     Hard:
     6:
     0.353,0.397,0.127,0.000,0.005,221.000,12.000,0.000,0.000,0.000:  // measure 1
00000000
00000000
00000000
00000000
,  // measure 2
00000000
00000000
00000000
00000000
,  // measure 3
00000000
00000000
00000000
00000000
,  // measure 4
00000000
00000000
00000000
00000000
,  // measure 5
00100000
00010000
00100000
10000000
,  // measure 6
01000000
00010000
01000000
10000000
,  // measure 7
01000000
00010000
00001000
00000100
,  // measure 8
00000001
00001000
00000100
00000000
00000010
00000001
00000100
00000000
,  // measure 9
00000010
00000000
00001000
00000000
00000100
00000010
00000001
00000000
,  // measure 10
00000001
00001000
00010000
10000000
,  // measure 11
00010000
00100000
01000000
10000000
,  // measure 12
00100000
01000000
00010000
00100000
01000000
10000000
00010000
00000000
,  // measure 13
11000000
00010000
11000000
00010000
,  // measure 14
00100000
10000000
01000000
00010000
,  // measure 15
00001000
00000010
00000100
00000001
,  // measure 16
00001000
00000010
00000100
00000000
00001001
00000000
00000110
00000000
,  // measure 17
00001000
00000000
00001000
00000001
00001000
00000000
00001000
00000000
,  // measure 18
00000001
00000100
00001000
00000000
00010000
00000000
01100000
00000000
,  // measure 19
00010000
00000000
00010000
10000000
00010000
00000000
00010000
00000000
,  // measure 20
00100000
01000000
10000000
00010000
01000000
00100000
01000000
00000000
,  // measure 21
01000000
10010000
01000000
10010000
,  // measure 22
00100000
00000000
00100000
10000000
01000000
00010000
01000000
00000000
,  // measure 23
10000000
00100000
01000000
01000000
,  // measure 24
00100000
00010000
00001000
00000010
00000001
00000000
00001100
00000000
,  // measure 25
00000001
00001000
00000100
00000000
00000001
00001000
00000100
00000000
,  // measure 26
00000010
00000001
00000100
00000010
00001000
00000100
00000100
00000000
,  // measure 27
00010000
00001000
01000000
00100000
,  // measure 28
10000000
00010000
00100000
10000000
00100000
00000000
00010000
00000000
,  // measure 29
10000000
00010000
01000000
00000000
00100000
10000000
01000000
00000000
,  // measure 30
00010000
00000000
00001000
00000100
00000001
00000000
00000010
00000000
,  // measure 31
00000100
00000000
00000100
00000000
00001000
00000001
00000100
00000000
,  // measure 32
00000010
00000000
00001000
00000100
00000001
00000000
00000100
00000000
,  // measure 33
00001000
00000000
00001000
00000001
00001000
00000000
00001000
00000000
,  // measure 34
00010000
00001000
00010000
00000000
00100000
00000000
10000000
00000000
,  // measure 35
01000000
00100000
01000000
10000000
,  // measure 36
01010000
11000000
10010000
00000000
,  // measure 37
01000000
00000000
00010000
00000000
10000000
00100000
00010000
00001000
,  // measure 38
00000010
00000000
00000001
00000000
00001000
00000010
00000100
00000000
,  // measure 39
00000001
00000000
00001000
00000000
00000010
00001000
00000100
00010000
,  // measure 40
00001000
00000000
00010000
00000000
00010000
01000000
10000000
00000000
,  // measure 41
00100000
00000000
01000000
10000000
01000000
00010000
00100000
00001000
,  // measure 42
00000010
00000100
00001000
00000010
00000100
00000001
00000010
00001000
,  // measure 43
00010000
00001000
01000000
00100000
10000000
00010000
00100000
01000000
,  // measure 44
10000000
00000000
00000000
10000000
00000000
00000000
10000000
00000000
00000000
00000000
00100000
00000000
00010000
00000000
00000000
00000000
,  // measure 45
00011000
00000000
00000100
00000000
00000010
00000001
00000100
00000000
,  // measure 46
00000010
00000010
00001000
00000001
,  // measure 47
00000100
00001000
00010000
00001000
;
