#TITLE:Love Hina;
#SUBTITLE:- Koi No Tenshi Mai Orite;
#ARTIST:Yukari Tamura/Yui Horie;
#TITLETRANSLIT:;
#SUBTITLETRANSLIT:;
#ARTISTTRANSLIT:;
#CREDIT:Anime Toshokan;
#BANNER:Love Hina - Koi No Tenshi Mai Orite.png;
#BACKGROUND:Love Hina - Koi No Tenshi Mai Orite bg.png;
#LYRICSPATH:;
#CDTITLE:dejiko.png;
#MUSIC:Love Hina - Koi No Tenshi Mai Orite.mp3;
#OFFSET:1.025;
#SAMPLESTART:78.140;
#SAMPLELENGTH:15.200;
#SELECTABLE:YES;
#DISPLAYBPM:127.000;
#BPMS:0.000=127.240,60.000=126.990,84.000=127.150,152.000=127.080,200.000=127.260,228.000=126.640;
#STOPS:;
#BGCHANGES:;
// cache tags:
#FIRSTBEAT:11.000;
#LASTBEAT:261.000;
#SONGFILENAME:Songs/DDR Anime 3rd Mix/Love Hina - Koi No Tenshi Mai Orite/Love Hina - Koi No Tenshi Mai Orite.sm;
#HASMUSIC:1;
#HASBANNER:1;
#MUSICLENGTH:125.651;
// end cache tags

//---------------dance-single - CHALLENGE----------------
#NOTES:
     dance-single:
     CHALLENGE:
     Challenge:
     8:
     0.458,0.545,0.310,0.302,0.084,326.000,39.000,38.000,0.000,0.000:
0000
0000
0000
0000
,
0000
0000
0000
0000
,
0000
0000
0000
0000
0000
0000
0001
0010
,
0001
0000
1000
0010
1000
0000
0001
0010
,
0001
0000
1000
0100
1010
0010
0101
0000
,
0010
0100
0010
0000
1000
0001
1000
0000
,
0100
0010
0001
0000
1000
0100
0010
0000
,
0010
0001
0100
0010
1000
0001
0000
1000
,
0010
0100
0001
1000
0110
0000
1100
0000
,
0101
0000
0100
0000
0001
0000
0100
0000
0001
0000
0100
0001
0100
0001
0100
0000
,
0000
0000
0100
0000
1000
0000
0100
0000
1000
0000
0100
1000
0100
1000
0100
0000
,
0000
0000
0100
0000
0010
0000
0100
0000
0010
0000
0100
0010
0100
0010
0100
0000
,
0200
0300
0020
0030
0022
0033
2200
3300
,
0000
0000
0001
0000
0010
0000
0001
0000
0010
0000
0001
0010
0001
0010
0001
0000
,
0000
0000
1000
0000
0010
0000
1000
0000
0010
0000
1000
0010
1000
0010
1000
0000
,
0000
0000
1000
0000
0001
0000
1000
0000
0001
0000
1000
0001
1000
0001
1000
0000
,
0020
0030
0200
0300
2002
3003
2002
3003
,
0000
0000
0100
0000
1000
1000
0100
0000
,
0100
0000
1000
0000
0010
0010
0001
0000
,
0010
0000
0100
0000
0001
0001
0100
0000
,
0100
0000
0010
0000
0100
0000
0010
0000
0100
0000
0001
1000
0001
1000
0001
0000
,
0000
0200
2000
3300
,
0020
0000
0002
0000
0033
0000
0001
0001
,
1000
0000
0000
0100
0000
0000
0020
0000
0200
0000
0000
0000
0000
0000
0000
0330
,
0100
0000
0000
0100
0000
0000
0010
0000
0101
0000
0000
0000
0000
0000
0000
0000
,
0000
0000
0100
1000
0100
1000
0100
0100
,
1000
0000
0010
0001
0010
0001
0010
0010
,
0001
0000
0010
0100
0010
0100
0010
0010
,
0100
0000
0000
0000
0010
0000
1000
0000
0001
0000
0010
0100
0010
0100
0010
0000
,
0000
0000
1000
0100
1000
0100
0100
0010
,
0100
0000
0010
0001
0100
1000
0100
0100
,
0020
0000
0030
0100
0000
0000
0100
0000
0200
0000
0000
0000
0300
0000
0000
0000
,
0001
0101
1000
1100
,
0001
0000
0100
0000
1000
0010
0110
0000
,
0001
0000
0100
0000
1000
0010
0110
0000
,
0001
0000
1000
0000
0001
1000
1001
0000
,
0110
0110
1001
1001
,
0010
0100
0001
1000
,
0010
0000
0000
0000
0001
0000
0000
0000
1010
0000
0000
0100
0000
0000
0010
0000
,
0020
0000
0000
0000
0000
0000
0030
1000
,
1000
0000
0000
0010
0000
0000
0001
0000
0100
0000
0000
0000
0000
0000
0000
0000
,
0002
0003
2000
3000
0200
0300
0020
0030
,
0110
0000
1000
0100
1000
0100
0010
0001
,
0100
0010
0100
1000
0100
0010
0100
0100
,
0001
1000
0100
0010
0100
1000
0001
0010
,
0100
0010
1000
0001
0100
0000
0100
0000
,
1000
0100
0010
0001
1000
0100
0010
0001
,
0100
0010
0100
1000
0100
0100
0010
0001
,
1000
0100
0010
0100
0100
0000
0000
0001
,
0001
1000
0001
1000
1001
0000
0110
0000
,
2200
0000
0000
3300
,
0000
0110
0000
1001
,
0000
0010
1000
1100
,
1100
0001
0100
0101
,
0101
0100
0010
0110
,
0200
0300
0200
0300
0200
0300
0200
0300
,
0000
0110
1000
1001
,
1001
0110
0001
1001
,
1001
0110
0010
0100
,
0020
0030
0020
0030
0020
0030
0020
0030
,
0100
0000
0100
0001
0000
1000
0000
0010
,
0000
0010
0000
0002
0000
0003
0000
0000
,
0000
0000
2002
0000
,
0000
0000
0000
0000
,
0000
0000
0000
0000
,
0000
3003
0000
0000
;
