#TITLE:Onegai Teacher;
#SUBTITLE:- Love A Riddle;
#ARTIST:Kotoko;
#TITLETRANSLIT:;
#SUBTITLETRANSLIT:;
#ARTISTTRANSLIT:;
#CREDIT:Anime Toshokan;
#BANNER:Onegai Teacher - Love A Riddle.png;
#BACKGROUND:Onegai Teacher - Love A Riddle bg.png;
#LYRICSPATH:;
#CDTITLE:dejiko.png;
#MUSIC:Onegai Teacher - Love A Riddle.mp3;
#OFFSET:-0.026;
#SAMPLESTART:76.730;
#SAMPLELENGTH:15.400;
#SELECTABLE:YES;
#BPMS:0.000=125.000;
#STOPS:;
#BGCHANGES:;
// cache tags:
#FIRSTBEAT:16.000;
#LASTBEAT:384.000;
#SONGFILENAME:Songs/Anime Mix 2/Onegai Teacher - Love A Riddle/Onegai Teacher - Love A Riddle.sm;
#HASMUSIC:1;
#HASBANNER:1;
#MUSICLENGTH:190.458;
// end cache tags

//---------------dance-single - BASIC----------------
#NOTES:
     dance-single:
     BASIC:
     Easy:
     5:
     0.368,0.428,0.572,0.126,0.005,357.000,109.000,24.000,0.000,0.000:
0000
0000
0000
0000
,
0000
0000
0000
0000
,
0000
0000
0000
0000
,
0000
0000
0000
0000
,
1000
0010
0001
0010
,
0100
0100
0010
1000
,
0001
0001
0110
0010
,
1000
0010
1000
0001
,
1001
1100
0101
1000
,
0100
0001
1000
0001
,
0110
1001
1000
1000
,
0001
0001
0110
1001
,
0000
0001
0100
0010
,
1000
0001
0010
0001
,
1000
1000
0000
0000
0001
0001
0000
0000
,
0100
0100
0000
0000
1001
0000
1001
0000
,
0000
0010
1000
0001
,
0100
1000
0010
1000
,
0100
0001
0100
1000
,
0001
1000
0001
0100
,
1000
0001
0001
1000
,
0001
1000
1000
0010
,
1100
0101
1010
0001
,
1000
1001
1001
0000
,
0010
0001
1000
0100
,
0001
0010
0001
0100
,
1000
0100
1000
0001
,
1000
0001
1000
0100
,
0010
0001
1000
0001
,
0001
1000
0001
1000
,
0001
0001
0110
1100
,
0101
0110
1001
0000
,
0010
0000
0000
0000
1000
0000
0001
0010
0000
0000
0000
0000
1000
0000
0100
0010
,
0000
0001
1100
0010
,
0001
0100
0010
1001
,
0100
0010
0110
0001
,
0101
1000
0100
0010
,
0100
0001
0100
0010
,
1000
0110
1100
0101
,
1001
0000
1100
0000
2002
0000
0000
3003
,
0100
0100
1100
0101
,
1010
1001
0011
1001
,
1010
1001
0100
0010
,
1000
0001
1000
0001
,
0110
1000
1000
0001
,
0100
0010
0001
1000
,
0101
1100
0011
1010
,
0101
0000
0101
0000
2200
0000
0000
3300
,
0001
0010
0202
0303
,
1000
0100
2020
3030
,
0001
0100
0022
0033
,
1000
0010
0100
1001
,
0100
0110
1000
0100
,
1000
0100
0001
0110
,
1001
0110
1001
0110
,
2002
0000
0000
0000
0000
0000
0000
3003
,
0010
1000
0010
0100
,
0001
0010
1000
0010
,
1000
0100
0001
0100
,
0001
0110
1001
1100
,
0010
0100
1000
0100
,
0001
1000
0110
1001
,
0100
0100
0010
0010
,
1000
0001
1000
0001
,
1001
0010
1001
0100
,
1001
0010
1001
0100
,
1001
0010
1001
0100
,
0110
1000
0110
0001
,
0110
1000
0011
1100
,
0011
1100
0010
0001
,
1000
1000
0000
0000
0001
0001
0000
0000
,
0010
0010
0100
0000
0010
0001
0100
0000
,
1000
0001
1000
0110
,
1001
0011
1001
1100
,
0001
0010
1000
0010
,
0001
1000
0001
0100
,
1001
1000
1000
0001
,
0001
1000
0100
0100
,
2000
0000
0000
3000
0002
0000
0000
0003
,
0100
0000
0010
0000
2002
0000
0000
3003
,
0100
0100
0101
1100
,
0011
1001
1010
1001
,
0011
1001
0100
0010
,
0001
1000
0001
1000
,
0110
0001
0001
1000
,
0100
0010
1000
0001
,
1100
0101
1010
0011
,
1100
0000
1100
0000
0202
0000
0000
0303
,
1000
0010
2200
3300
,
0001
0000
0100
0000
0022
0000
0000
0033
,
1000
0000
0100
0000
2020
0000
0000
3030
,
0001
0010
0100
1001
,
0100
0110
0001
0100
,
0001
0100
1000
0110
,
1001
0110
1001
0110
,
0010
1000
0001
0010
0001
0100
0010
0000
,
1001
0000
0000
0000
;

//---------------dance-single - ANOTHER----------------
#NOTES:
     dance-single:
     ANOTHER:
     Medium:
     7:
     0.494,0.529,0.410,0.284,0.047,526.000,78.000,54.000,0.000,0.000:
0000
0000
0000
0000
,
0000
0000
0000
0000
,
0000
0000
0000
0000
,
0000
0000
0000
0000
,
0010
0000
1000
0000
0001
1000
0010
0001
,
0000
0000
0010
0000
1000
0000
0100
0010
,
0000
0000
0100
0000
0001
1000
0100
0000
,
1000
0001
0100
0000
0010
0010
0100
0100
,
0110
0000
1010
0000
0001
1000
0010
0100
,
0000
0000
0101
0000
1000
0001
1000
0010
,
0000
0000
1100
0000
0001
1000
0010
0001
,
0000
0000
0011
0000
1000
0001
0010
1000
,
0000
0000
0110
0000
0010
0001
0100
1000
,
0000
0000
0101
0000
0010
0001
0000
0000
,
1000
1000
0100
0000
0001
0001
0100
0000
,
0010
0100
0010
0000
1001
0100
0110
0000
,
0001
0000
0010
0000
0001
0000
0100
1000
,
0010
0000
0100
0001
1000
0000
0010
0001
,
0010
0000
1000
0100
0100
0000
0001
1000
,
0010
0000
0100
0000
0001
0000
1000
0100
0000
0000
0000
0000
0010
0000
0000
0000
,
0100
0000
0001
0000
1000
0000
0100
0010
,
1000
0001
1000
0010
,
1000
0100
0010
0100
0001
0100
0010
0100
,
2000
0000
3000
0101
,
1001
0000
1000
0000
1000
0000
0001
0010
,
0100
0000
0100
0010
1000
0000
0010
0001
,
0010
0000
1000
0100
0001
0000
0010
0001
,
0010
0000
0001
0000
1000
0000
0001
0100
0000
0000
0000
0000
1000
0000
1000
0000
,
0001
0000
1000
0001
1000
0000
0001
1000
,
0010
0000
0100
0010
0100
0000
1010
0000
,
0101
1100
0110
1001
,
0001
0100
0001
0100
0001
0001
0100
0100
,
0101
0000
0000
0000
1000
0000
0010
0100
0000
0000
0000
0000
0001
0000
1000
0010
,
0000
0000
0000
0000
0100
0000
1000
0001
0000
0000
0000
0000
0010
0000
1000
0000
,
0001
0000
0100
0000
0001
0100
1000
0100
,
0001
0000
0010
0000
0001
0000
0100
0001
0000
0000
0000
0000
0010
0000
0000
0000
,
1000
0000
0000
1000
0000
0000
0100
0000
0010
0000
0000
0010
0000
0000
0100
0000
,
0001
0000
0000
0001
0000
0000
1000
0000
0100
0000
0000
0100
0000
0000
0010
0000
,
1000
0010
0001
0010
1000
0010
0001
0010
,
1000
0100
1000
0100
2002
0000
3003
0000
,
0010
0000
1001
0100
0022
0000
0000
0033
,
1000
0000
0110
1000
0202
0000
0000
0303
,
1000
1000
0100
0100
2020
0000
0000
3030
,
0010
0100
0001
1000
0010
0100
1001
0000
,
0010
0100
0010
0100
2002
0000
0000
3003
,
0001
1000
0100
1000
0220
0000
0000
0330
,
0001
1000
0001
0100
0010
0100
0010
0100
,
0001
1000
0010
0100
0001
1000
0010
0100
,
1001
0000
1001
0010
0220
0000
0000
0330
,
0010
0100
0010
1000
2002
0000
0000
3003
,
0010
0001
0010
1000
0202
0000
0000
0303
,
0010
1000
0010
1000
0010
0100
0001
0000
,
1000
1000
0010
0100
0202
0000
0000
0303
,
0010
1000
0100
1000
2020
0000
0000
3030
,
0100
1000
0001
0100
0010
0100
1000
0100
,
1000
0100
1000
0100
0001
0100
0001
0010
,
0110
0000
1000
0000
0011
1000
0100
0001
,
0000
0000
0001
0000
1100
0000
0010
0100
,
0000
1020
0001
1000
,
0001
0000
1000
0000
0130
0000
1001
0210
,
1000
0001
1000
0001
,
1000
0000
0010
0000
0001
0010
0300
0000
,
1000
1000
1010
0000
0100
0100
0101
0000
,
1000
1000
0001
0100
0010
0010
0100
1000
,
0110
0000
0010
1000
0001
0100
0010
1000
,
0001
0100
0010
1000
0001
0100
1000
0000
,
1100
0001
0010
0100
1000
0001
0010
0100
,
1000
0001
0010
0100
1000
0001
0001
0000
,
0110
0000
1001
0100
0110
0000
0110
1000
,
1001
0000
1001
0010
0110
1000
0000
0000
,
1000
1000
0001
0000
0010
0010
0100
0000
,
1000
0001
0100
0010
1000
0100
0001
0010
,
0110
0000
0000
0000
0001
0000
1000
0010
0000
0000
0000
0000
0100
0000
1000
0001
,
0000
0000
0000
0000
0010
0000
0100
0010
0000
0000
0000
0000
1001
0000
0100
0000
,
1001
0000
0000
0000
0010
0000
1000
0100
0000
0000
0000
0000
0010
0000
0001
0000
,
0010
0000
0001
0000
1000
0000
0100
0010
0000
0000
0000
0000
1001
0000
1001
0000
,
0210
0000
0000
1000
0000
0000
0010
0000
0001
0000
0000
0010
0000
0000
1000
0000
,
0001
0000
0000
0010
0000
0000
0301
0000
0022
0000
0000
0000
0033
0000
0100
0000
,
2020
0000
3030
0001
2200
0000
3300
0010
,
1001
0100
1001
0100
2002
0000
0000
3003
,
0010
0000
1001
0100
2020
0000
0000
3030
,
0001
0000
0110
0001
2200
0000
0000
3300
,
0001
0001
0100
0100
0022
0000
0000
0033
,
0010
0100
1000
0001
0010
0100
1001
0000
,
0010
0100
0010
0100
2002
0000
0000
3003
,
1000
0001
0100
0001
0220
0000
0000
0330
,
1000
0001
1000
0100
0010
0100
0010
0100
,
1000
0001
0010
0100
1000
0001
0010
0100
,
1001
0000
1001
0010
0220
0000
0000
0330
,
0010
0100
0010
0001
2002
0000
0000
3003
,
0010
1000
0010
0001
0202
0000
0000
0303
,
0010
0001
0010
0001
0010
0100
1000
0000
,
0001
0001
0010
0100
2200
0000
0000
3300
,
0010
0001
0100
0001
0022
0000
0000
0033
,
0100
0001
1000
0100
0010
0100
0001
0100
,
0001
0100
0001
0100
1000
0100
1000
0010
,
0110
0000
0000
0000
;

//---------------dance-single - MANIAC----------------
#NOTES:
     dance-single:
     MANIAC:
     Hard:
     8:
     0.448,0.479,0.373,0.530,0.034,425.000,71.000,101.000,0.000,0.000:
0000
0000
0000
0000
,
0000
0000
0000
0000
,
0000
0000
0000
0000
,
0000
0000
0000
0000
,
0100
0000
1000
0000
0001
0100
1000
2000
,
0000
0000
0000
0000
3001
0100
0000
0002
,
0000
0000
0000
0003
1000
0200
0000
0000
,
0310
0002
0000
0000
0103
1000
0100
0001
,
0002
0000
0000
0003
0100
0001
0100
2000
,
0000
0000
3010
0000
0010
0001
0000
2200
,
0000
0000
0000
3300
0001
0100
1000
2000
,
0000
0000
3000
0100
0010
0100
0001
0002
,
0000
0000
0000
0000
1003
0100
0001
0020
,
0000
0000
0000
0030
0001
0010
0000
0200
,
0000
0000
0300
0000
1000
0200
0000
0300
,
0000
0110
0000
1001
1100
1100
0011
0000
,
0011
0100
1001
1000
,
0110
0100
0011
0001
,
1100
0010
1001
0100
,
0110
0010
1100
0011
,
1100
0010
0101
0010
,
1100
0001
1001
1000
,
0110
0010
0011
0100
,
1100
1000
1100
0100
,
0010
0110
0010
0011
,
1010
1010
0110
0001
,
0110
1001
0011
0001
,
1010
1000
1100
0100
,
0110
0010
0011
0001
,
0101
0100
1100
1000
,
1001
0011
0101
0110
,
1001
0110
1001
0110
,
1100
0000
0000
0000
0001
0000
0001
2000
0000
0000
3000
0000
1000
0000
1000
0000
,
0002
0000
0000
0003
0010
0000
0010
0200
0000
0000
0300
0000
1000
0000
0100
0000
,
0001
0100
1000
0100
0001
0100
1000
0100
,
0001
1000
0001
1000
2002
0000
0000
3003
,
1000
0000
0100
1000
0001
0000
0010
0100
,
1000
0000
1000
0100
0001
0000
0001
1000
,
0220
0000
0000
0000
0330
0000
1001
2002
,
0000
0000
0000
3003
,
1000
0100
0000
1000
2000
0000
3000
0001
,
0100
0000
0001
0010
0020
0000
1030
0100
,
0001
0000
0100
0000
0000
0000
0100
0000
0200
0000
0000
0300
0000
0000
0000
0000
,
1000
0000
0100
0000
1000
0000
0100
0000
2000
0000
0000
0000
0000
3000
0000
0000
,
0110
0000
0000
1001
0000
0000
0110
0000
0220
0000
0000
0000
0330
0000
0000
0000
,
1000
0000
0100
0000
0000
0001
0000
2000
0000
0000
3000
0000
0100
0000
0001
0000
,
0002
0000
0000
0000
0003
0000
0000
0000
2000
0000
3000
0020
0000
0030
1001
0000
,
0000
2002
0000
0000
0000
0000
0000
0000
3003
0000
0000
0000
0000
0000
1000
0000
,
0100
0001
0000
0001
0200
0000
0300
0000
,
2000
0000
3000
0200
0000
0300
0000
0001
0000
0202
0000
0303
0000
2000
0000
3000
,
0002
0000
0003
0000
2000
0000
3000
0100
0000
0200
0000
0300
0000
0000
1000
0000
,
0001
1000
0001
0002
0000
0000
0003
1000
,
0100
0000
1000
0000
0000
0000
0100
0000
0200
0000
0000
0300
0000
0000
2000
0000
,
3002
0003
0020
0030
1100
0000
0202
0303
,
2200
0000
0000
3300
0002
0003
0200
0300
,
2000
0000
0000
0000
0000
0000
0000
3000
,
0001
0000
0100
0000
1000
0100
1000
2000
,
0000
3001
0000
0010
0100
1000
0000
0200
,
0000
0000
0000
0300
0010
0001
1000
2000
,
0000
0000
3000
0100
0001
0100
1000
2000
,
0000
0000
3100
0000
1000
0100
0001
0002
,
0000
0000
0003
0000
0100
1000
0000
0200
,
0000
0000
0000
0300
1000
0200
0000
0300
,
0001
0200
0000
0300
0100
0010
0100
0110
,
2002
0000
3003
0000
0010
0100
0010
0220
,
0000
0000
0330
0000
0001
1000
0000
2002
,
0000
0000
3003
0000
0100
1000
0100
0202
,
0000
0303
0000
0001
0100
0001
0100
2000
,
0000
0000
3100
0000
0001
0100
0001
0002
,
0000
0000
1003
0000
1000
0010
0000
0020
,
0000
0030
0000
2000
3000
0200
0300
0002
,
0003
0100
1000
0001
0100
0000
1000
0100
,
0002
0003
0100
1000
0100
0000
1000
0001
,
1000
0001
0010
0100
0010
0001
1000
0010
,
0100
1000
0001
1000
0100
1000
0001
1000
,
0100
1000
0001
1000
0001
1000
0010
0100
,
0002
0000
1003
0100
0010
0000
0002
1003
,
0020
0000
0130
0002
2000
0003
3100
1000
,
0002
0000
0000
0000
0000
1003
0010
1000
,
0020
0000
0000
0000
1030
0000
0100
1100
,
1001
0000
0100
0100
0020
0000
0030
0001
,
2000
0000
3010
1000
0200
0000
0300
0001
,
0100
0000
0001
0010
0200
0000
0000
1300
,
0001
0001
1000
0001
1000
0001
1000
0100
,
0001
0100
0100
0010
0002
0000
0000
1003
,
0020
0000
1030
0010
0200
0000
0301
1000
,
0200
0000
0000
0300
0001
0000
0010
0001
,
0020
0000
0000
0000
0000
0000
0030
0001
,
0100
0001
0100
1000
2000
0000
0000
3001
,
0100
0000
0001
0001
0002
0000
0013
0100
,
0010
0000
0001
1000
0020
0000
0000
1030
,
1100
0000
0100
0001
0100
1000
0100
0010
,
0001
0000
0001
0010
0200
0000
0000
1300
,
0001
0000
0010
0100
2000
0000
3001
0000
,
0202
0000
0000
0000
,
0303
0000
1000
0001
1000
0010
1000
1001
,
1001
0000
0000
0000
;

//---------------dance-single - BEGINNER----------------
#NOTES:
     dance-single:
     BEGINNER:
     Beginner:
     2:
     0.204,0.277,0.336,0.126,0.000,184.000,64.000,24.000,0.000,0.000:
0000
0000
0000
0000
,
0000
0000
0000
0000
,
0000
0000
0000
0000
,
0000
0000
0000
0000
,
1000
0000
0001
0000
,
0100
0000
0010
0000
,
0001
0000
0110
0000
,
1000
0000
1000
0000
,
1001
0000
0101
0000
,
0100
0000
1000
0000
,
0110
0000
1000
0000
,
0001
0000
0110
0000
,
0001
0000
0100
0000
,
1000
0000
0010
0000
,
1000
0000
0001
0000
,
0100
0000
1001
0000
,
0000
0010
1000
0000
,
0100
0000
0010
0000
,
0100
0000
0100
0000
,
0001
0000
0001
0000
,
1000
0000
0001
0000
,
0001
0000
1000
0000
,
1100
0000
1010
0000
,
1000
0000
1001
0000
,
0010
0000
1000
0000
,
0001
0000
0001
0000
,
1000
0000
1000
0000
,
1000
0000
1000
0000
,
0010
0000
1000
0000
,
0001
0000
0001
0000
,
0001
0000
0110
0000
,
0101
0000
1001
0000
,
0010
0000
0000
1000
,
0000
0001
0100
0000
,
0001
0000
0010
0000
,
0100
0000
0110
0000
,
0101
0000
0100
0000
,
0100
0000
0100
0000
,
1000
0000
1100
0000
,
1001
0000
2002
3003
,
0100
0000
1100
0000
,
1010
0000
0011
0000
,
1010
0000
0100
0000
,
1000
0000
1000
0000
,
0110
0000
1000
0000
,
0100
0000
0001
0000
,
0101
0000
0011
0000
,
0101
0000
2200
3300
,
0001
0000
0202
0303
,
1000
0000
2020
3030
,
0001
0000
0022
0033
,
1000
0000
0100
0000
,
0100
0000
1000
0000
,
1000
0000
0001
0000
,
1001
0000
1001
0000
,
2002
0000
3003
0000
,
0010
0000
0010
0000
,
0001
0000
1000
0000
,
1000
0000
0001
0000
,
0001
0000
1001
0000
,
0010
0000
1000
0000
,
0001
0000
0110
0000
,
0100
0000
0010
0000
,
1000
0000
1000
0000
,
1001
0000
1001
0000
,
1001
0000
1001
0000
,
1001
0000
1001
0000
,
0110
0000
0110
0000
,
0110
0000
0011
0000
,
0011
0000
0010
0000
,
1000
0000
0001
0000
,
0010
0000
0010
0000
,
1000
0000
1000
0000
,
1001
0000
1001
0000
,
0001
0000
1000
0000
,
0001
0000
0001
0000
,
1001
0000
1000
0000
,
0001
0000
0100
0000
,
2000
3000
0002
0003
,
0100
0000
2002
3003
,
0100
0000
0101
0000
,
0011
0000
1010
0000
,
0011
0000
0100
0000
,
0001
0000
0001
0000
,
0110
0000
0001
0000
,
0100
0000
1000
0000
,
1100
0000
1010
0000
,
1100
0000
0202
0303
,
1000
0000
2200
3300
,
0001
0000
0022
0033
,
1000
0000
2020
3030
,
0001
0000
0100
0000
,
0100
0000
0001
0000
,
0001
0000
1000
0000
,
1001
0000
1001
0000
,
0010
0000
0001
0000
,
1001
0000
0000
0000
;
