#TITLE:Against The Rest;
#SUBTITLE:;
#ARTIST:BrainCells;
#TITLETRANSLIT:;
#SUBTITLETRANSLIT:;
#ARTISTTRANSLIT:;
#CREDIT:Kalazor;
#BANNER:Against The Rest-banner.png;
#BACKGROUND:Against The Rest-bg.png;
#LYRICSPATH:;
#CDTITLE:;
#MUSIC:Against_The_Rest.mp3;
#OFFSET:-0.220;
#SAMPLESTART:136.060;
#SAMPLELENGTH:13.600;
#SELECTABLE:YES;
#BPMS:0.000=165.000,124.000=150.020,180.000=165.000;
#STOPS:;
#BGCHANGES:;
// cache tags:
#FIRSTBEAT:0.000;
#LASTBEAT:423.333;
#SONGFILENAME:Songs/StepMix 1.0/Against The Rest/Against_The_Rest.sm;
#HASMUSIC:1;
#HASBANNER:1;
#MUSICLENGTH:158.772;
// end cache tags

//---------------dance-single - ----------------
#NOTES:
     dance-single:
     :
     Medium:
     6:
     0.443,0.667,0.605,0.441,0.167,326.000,96.000,70.000,0.000,0.000:
0110
0110
1001
0110
,
0001
0000
0001
0000
0100
0000
0010
0000
0010
0000
1000
0000
,
1000
0000
2000
0000
0000
0000
0001
0000
0000
0001
0000
0000
,
0001
0001
0001
0001
,
3001
0000
0002
0000
0000
0000
1000
0000
0000
1000
0000
0000
,
1000
0100
0100
0103
,
0100
0000
0200
0000
0000
0000
0010
0000
0000
0010
0000
0000
,
0010
0010
0010
0310
,
1001
0000
2002
0000
0000
0000
0000
0000
0000
0000
0000
0000
,
3003
1001
0110
1001
,
1000
0000
2000
0000
0000
0000
0010
0000
0000
0001
0000
0000
,
0010
0000
0000
0001
0000
0000
0010
0000
3000
0010
0000
0000
,
0010
0000
0020
0000
0000
0000
0100
0000
0000
1000
0000
0000
,
0100
1000
0130
1000
,
0100
0000
0200
0000
0000
0000
0001
0000
0000
0010
0000
0000
,
0001
0010
0001
0310
,
0011
0000
0022
0000
0000
0000
0000
0000
0000
0033
0000
0000
,
2002
0000
0000
3003
0000
0000
0000
0000
2002
0000
0000
0000
0000
0000
0000
0000
0000
0000
3003
0000
0000
0000
0000
0000
,
2000
0000
0000
0000
0000
0000
0000
0000
0000
3010
0000
0010
,
0000
0000
0000
0000
2020
0000
0000
3030
,
0202
0000
0000
0303
0220
0000
0000
0330
,
0101
0100
0101
0100
,
0001
0000
0001
0000
0000
0000
0000
0000
0000
1000
0000
2000
,
0000
3000
0000
0000
,
2200
0000
0000
3300
0220
0000
0000
0330
,
1010
0000
0000
0000
1000
0100
1000
0000
0000
0000
0000
0000
,
0011
0000
0000
0000
0010
0100
0010
0000
0000
0000
0000
0000
,
1001
0110
1001
0110
,
1000
1000
0010
0001
,
0010
0100
1000
0100
,
0001
0100
0010
0100
,
1001
0000
2002
0000
0000
0000
0000
0000
0000
0000
0000
0000
,
3003
0000
0000
0000
,
2000
0000
0000
0000
,
3200
0000
0000
0000
,
0302
0000
0000
0000
,
0000
0000
0000
0003
,
2020
0000
0000
0000
0000
0000
0000
3030
,
0202
0000
0000
0000
0000
0000
0000
0303
,
2000
0000
0000
0000
0020
0000
0000
3000
,
0200
0000
0000
0030
0002
0000
0000
0300
,
2000
0000
0000
0000
0000
0000
0000
3003
,
0220
0000
0000
0000
0000
0000
0000
0330
,
2000
0000
0000
0000
,
0000
0000
0000
0000
,
0010
0010
0010
0010
,
3020
0000
1000
0000
1000
0000
1000
0030
,
1010
0100
0001
1000
,
0010
1000
0100
0001
,
0010
0100
0010
1000
,
0001
1000
1000
1000
,
1001
1000
1100
1000
,
1001
0100
1100
0010
,
1001
1000
1100
0001
,
1001
1000
1100
1000
,
0110
0000
0110
0000
,
0100
0000
0010
0000
2000
0000
0010
3000
,
0022
0000
0000
0033
0000
0000
0000
0000
0011
0000
0000
0000
0011
0000
0000
0000
,
0011
1000
0011
0001
,
1000
0001
1000
0001
,
0010
0100
1000
1100
,
1010
1001
1010
1100
,
1010
1001
1010
1100
,
0020
0000
0000
0000
0000
0000
0000
0000
0000
1000
0000
0200
,
0000
0000
0300
0000
0000
0000
1000
0000
0000
1000
0000
0000
,
0100
0100
0001
0001
,
0100
0100
1000
1030
,
0100
0000
0100
0000
0100
0000
0100
0000
0000
0010
0000
0010
,
0000
0000
0000
0000
0000
0000
0200
0000
0300
0000
0000
0000
,
0020
0000
0030
0000
0000
0000
2000
0000
3000
0000
0000
0000
,
0100
0000
0000
0000
0000
0100
0100
0000
0000
0000
0000
0000
,
0001
0000
0000
0000
0000
0001
0001
0000
0000
0000
0000
0000
,
1001
0000
0110
0000
,
1001
0100
1000
0001
,
1000
0000
1000
0000
1000
0000
1000
0000
1000
0000
1000
0000
,
0010
0000
0010
0000
0010
0000
0010
0000
0010
0000
0010
0000
,
0100
0000
0200
0000
0000
0000
1000
0000
0000
0010
0000
0000
,
1000
0000
0000
0010
0000
0000
1000
0000
0000
0010
0300
0000
,
1000
0000
2000
0000
0000
0000
0001
0000
0000
0010
0000
0000
,
0001
0000
0000
0010
0000
0000
0001
0000
0000
0010
3000
0000
,
0001
0000
0002
0000
0000
0000
0100
0000
0000
0100
0000
0000
,
0100
0000
0000
0100
0000
0000
0100
0000
0000
0100
0003
0000
,
0101
0000
0202
0000
0000
0000
0000
0000
0000
0000
0303
0000
,
0000
1010
0101
0101
,
2000
0000
0200
0000
0000
0000
0000
0000
0000
0000
0000
0000
,
0000
0000
0000
0000
0000
0000
0000
0000
0000
0000
3300
0000
,
0200
0000
0020
0000
0000
0000
0000
0000
0000
0000
0000
0000
,
0000
0000
0000
0000
0000
0000
0000
0000
0000
0000
0330
0000
,
0020
0000
0002
0000
0000
0000
0000
0000
0000
0000
0000
0000
,
0000
0000
0000
0033
,
1001
0000
2002
0000
0000
0000
0000
0000
0000
0000
3003
0000
,
1001
0000
0000
0000
2002
0000
0000
0000
0000
0000
3003
0000
,
0200
0000
0000
1000
0000
0000
1000
0000
0300
1000
0000
0000
,
1100
0000
1010
0000
,
0101
0000
0011
0000
,
1001
0100
1001
0010
,
0101
0101
0101
0100
,
1000
0001
1000
0010
,
1000
0100
1000
0001
,
1000
1000
1000
0010
,
0100
0100
0100
0001
,
1010
0000
0101
0000
,
1010
0000
0101
0110
,
1001
0000
1001
0000
1001
0000
1001
0000
1001
0000
1001
0000
,
1001
0000
1001
0000
1001
0000
1001
0000
1001
0000
1001
0000
,
1001
0000
2002
0000
0000
0000
0000
0000
0000
0000
3003
0000
;

//---------------dance-single - ----------------
#NOTES:
     dance-single:
     :
     Easy:
     3:
     0.247,0.466,0.195,0.328,0.006,192.000,31.000,52.000,0.000,0.000:
1001
1000
1000
1000
,
0100
0100
0100
0100
,
0010
0000
1000
0000
,
0001
0000
0010
0000
,
0001
0000
1000
0000
,
0010
0000
2002
3003
,
0100
0000
0001
0000
,
1000
0000
0001
0000
,
0010
0000
1000
0000
,
0100
0000
1010
0000
,
0101
0000
1000
0000
,
1000
0000
0100
0000
,
0001
0000
0010
0000
,
0100
0000
1001
0000
,
0100
0000
1000
0000
,
0001
0000
0100
0000
,
0010
0000
1000
0000
,
0100
0000
0000
0000
0100
0000
0000
0000
0000
0000
0000
0000
,
2000
0000
0000
3000
,
0020
0000
0000
0030
,
0002
0000
0000
0003
,
0200
0000
0000
0300
,
2020
0000
0000
3030
,
0002
0000
0000
0003
,
0220
0000
0000
0330
,
2000
0000
0000
3000
,
2000
0000
0000
3000
,
1000
0100
0010
1000
,
0100
0000
0010
0000
,
0011
0000
0100
0000
,
1001
0000
1001
0000
,
0100
0000
0200
0000
0000
0000
0000
0000
0000
0000
0000
0000
,
0000
0000
0000
0000
0000
0000
0000
0000
0000
0000
0000
0300
,
0010
0000
0000
0000
,
0010
0000
0000
0000
,
2000
0000
0000
0000
,
0000
0000
0000
3000
,
0200
0000
0000
0000
,
0020
0000
0000
0000
0000
0000
0000
0330
,
2200
0000
0000
3300
2200
0000
0000
3300
,
0022
0000
0000
0033
0022
0000
0000
0033
,
0220
0000
0000
0000
0000
0000
0000
0330
,
2002
0000
0000
0000
0000
0000
0000
3003
,
2200
0000
0000
0000
,
0000
0000
0000
0000
0000
0000
0000
3300
,
0001
0001
0001
0001
,
1000
0000
1000
0000
,
0100
0000
0010
0000
,
0100
0000
1000
0000
,
0001
0000
0010
0000
,
0100
0010
0001
0000
,
1000
0000
0100
0000
,
0001
0000
0010
0000
,
0010
0000
1000
0000
,
0100
0000
0001
0000
,
1000
0000
0001
0000
,
0010
0100
0010
0000
,
2000
0000
0100
0100
,
0100
0000
0100
0000
0100
0000
0100
3000
,
0010
0000
0001
0000
,
1000
0000
0010
0000
,
0100
0000
0001
0000
,
1000
0000
0010
0000
,
1000
0000
0001
0000
,
0100
0000
0010
0000
,
1000
0000
0001
0000
,
0010
1000
0100
0000
,
0010
0000
1000
0000
,
0001
0000
0100
0000
,
0010
0000
1000
0000
,
0100
0000
0010
0000
,
0100
0000
0001
0000
,
1000
0000
0010
0000
,
1000
0000
0100
0000
,
0001
0001
0001
0001
,
1000
1000
1000
1000
,
2200
0000
0000
0000
,
0000
0000
0000
0000
0000
0000
0000
3300
,
0220
0000
0000
0000
,
0000
0000
0000
0000
0000
0000
0000
0330
,
0202
0000
0000
0000
,
0000
0000
0000
0000
0000
0000
0000
0303
,
2020
0000
0000
0000
0000
0000
0000
3000
,
0000
0000
1000
0000
1000
0000
1000
0030
,
0202
0000
0000
0000
,
0000
0000
0000
0000
0000
0000
0000
0303
,
0220
0000
0000
0000
,
0000
0000
0000
0000
0000
0000
0000
0330
,
2020
0000
0000
0000
,
0000
0000
0000
0000
0000
0000
0000
3030
,
0202
0000
0000
0000
0000
0000
0000
0000
0000
0000
0303
0000
,
0202
0000
0000
0000
0000
0000
0000
0303
,
1000
1000
1000
0100
,
0001
0000
0100
0000
,
1000
0000
0010
0000
,
0100
0000
0001
0000
,
1000
0000
0010
0000
,
0100
0000
1000
0000
,
0100
0000
1000
0000
,
0010
0000
1000
0000
,
0001
0000
1000
0000
,
0110
0000
0110
0000
,
1001
0000
0110
0000
,
1000
1000
0001
0001
,
0010
0010
0100
0100
,
2002
0000
0000
3003
;

//---------------dance-single - ----------------
#NOTES:
     dance-single:
     :
     Hard:
     9:
     0.797,0.866,0.586,0.762,1.000,672.000,93.000,121.000,3.000,11.000:
1000
0100
1000
0010
0100
0001
0010
0100
1000
0100
1000
0100
,
0011
0000
0001
0000
0010
0000
0110
0000
1000
0000
0100
0000
,
0100
0000
2000
0010
0000
0000
0100
3000
2000
0010
0000
0000
,
0100
3000
2000
0010
0000
0000
0100
3000
2000
3010
0000
0000
,
0100
0000
0002
1000
0000
0000
0100
0003
0002
0010
0000
0000
,
0100
0003
0002
1003
0000
0000
0200
0000
0000
0320
0000
0000
,
1031
0000
0100
1000
0000
0000
0110
0000
1000
0100
0000
0000
,
0101
0000
1000
0010
0000
0000
1010
0000
0001
0100
0000
0000
,
1010
0000
0100
0010
0000
0000
0101
0000
1000
0010
0000
0000
,
0110
0000
0000
0020
0030
0010
2000
3000
1000
0200
0300
0100
,
0010
0000
0010
0200
0000
0000
0001
0000
0310
0200
0000
0000
,
0010
0000
1300
0200
0000
0000
1000
0000
0310
0200
0300
0000
,
0110
0000
0100
0002
0000
0000
1000
0000
0013
0002
0000
0000
,
0100
0000
1003
0002
0000
0000
0200
0000
0300
2000
0003
3000
,
0010
0000
1000
0020
0000
0000
0100
0000
1030
0020
0000
0000
,
0001
0000
1030
0020
0000
0000
0100
0000
0130
0020
0030
0000
,
0220
0330
2002
0000
0000
0000
0000
0000
0000
0000
0000
3000
,
2023
0000
0000
3030
0220
0000
0000
0000
0000
0000
0000
0330
,
2001
0000
0001
0000
0001
0000
3001
0000
0000
0110
0000
0110
,
0000
0000
0000
0010
0001
1000
0100
0000
0000
0000
0000
0000
,
2020
0000
3030
0100
0000
0000
0202
0000
0303
1000
0000
0000
,
0110
0000
0000
0100
1000
0010
2000
0000
3000
0001
0000
0000
,
1000
0000
1000
0000
1010
0000
0001
0000
0000
0110
0000
0220
,
0000
0330
1002
0010
,
0123
1000
0231
0001
,
2310
0000
0000
0000
3010
2000
3001
0000
0000
1001
0000
0000
,
1020
0000
0000
0000
1030
0020
0130
0000
0000
0000
0000
0000
,
1000
0000
1000
0000
0010
0000
0100
0000
0001
0100
0000
1000
,
0100
1000
0000
0100
0010
0000
0001
0010
0001
1000
0100
1000
,
0010
0001
0010
1000
0100
1000
0001
0010
0001
0100
0010
0100
,
0001
1000
0001
0010
0100
1000
0100
0010
0001
1000
0010
1000
,
1001
0000
2002
0000
0000
0000
0000
0000
0000
0000
0000
3003
,
0000
0000
0000
0000
,
1000
0100
1000
0000
0010
0000
0100
0000
0001
0000
0100
0000
0010
0000
0000
0000
0000
0000
0000
0000
0010
0000
1000
0000
,
0010
0000
1000
0000
1000
0000
1000
0100
1000
0100
1000
0100
,
1000
0100
1000
0000
0010
0000
0100
0000
0010
0000
1000
0000
0001
0000
0000
0000
0000
0000
0000
0000
0000
1000
0100
1000
,
0100
0000
0100
0000
1000
0010
1000
0000
0000
0000
0000
0000
,
0010
0100
0010
0000
1000
0000
0001
0000
1000
0000
0001
0000
1000
0000
0000
0000
0000
0000
0000
0000
0000
0001
0100
0001
,
0100
0000
0000
0001
0000
0000
0000
0001
0000
0000
0010
0000
1000
0000
0010
0000
1000
0000
0010
0000
1000
0000
0010
0000
,
2000
0000
0200
0000
,
0020
0000
0002
0000
,
3000
M000
0000
0000
0000
0000
0000
0000
0000
0000
0000
0000
0000
0000
0000
0000
0000
0000
0000
0000
0000
0000
0000
0000
0000
0000
0000
0000
0000
0000
0000
0000
0000
0000
0000
0000
0000
0000
0000
0000
0000
0000
0000
0000
0000
0000
0000
0000
0000
0000
0000
0000
0000
0000
0000
0000
0000
0000
0000
0000
0000
0000
0000
0000
,
0300
0M00
0000
0000
0000
0000
0000
0000
0000
0000
0000
0000
0000
0000
0000
0000
0000
0000
0000
0000
0000
0000
0000
0000
0000
0000
0000
0000
0000
0000
0000
0000
0000
0000
0000
0000
0000
0000
0000
0000
0000
0000
0000
0000
0000
0000
0000
0000
0000
0000
0000
0000
0000
0000
0000
0000
0000
0000
0000
0000
0000
0000
0000
0000
,
0030
00M0
0000
0000
0000
0000
0000
0000
0000
0000
0000
0000
0000
0000
0000
0000
0000
0000
0000
0000
0000
0000
0000
0000
0000
0000
0000
0000
0000
0000
0000
0000
0000
0000
0000
0000
0000
0000
0000
0000
0000
0000
0000
0000
0000
0000
0000
0000
0000
0000
0000
0000
0000
0000
0000
0000
0000
0000
0000
0000
0000
0000
0000
0000
,
0000
0000
0000
0000
0000
0000
0000
0000
0000
0000
0000
0003
,
1000
0001
1000
0001
1000
0001
1000
0000
0000
0000
0010
0100
,
1000
0100
0010
1000
0100
0001
0010
0100
0001
1000
0000
0000
,
1000
0000
0100
0000
0010
0000
1000
0000
0010
0000
0100
0000
,
0001
0000
0100
0000
1000
0000
0010
0000
0100
0000
0010
0000
,
2200
0000
0000
0000
0000
0000
3300
0000
0000
1000
0100
0001
,
0100
0000
1000
0000
0010
0000
1000
0000
0100
0000
0001
0000
0200
0000
0000
0300
0000
0000
0000
0000
0000
0000
0000
0000
,
0100
1000
0100
0001
0100
0001
0100
1000
0100
0001
0100
0001
,
0100
1000
0100
0001
0100
0001
0100
1000
0010
0000
0000
0000
,
0010
1000
0001
0100
0001
0010
0001
0100
0001
0010
0001
0100
,
0001
0010
0001
0100
0010
1000
0100
0000
0000
0000
0000
0000
,
0202
0000
0000
0000
0000
0303
2002
0000
0000
0000
3003
0000
,
0100
0000
0000
0000
0000
0000
0000
0000
0000
0000
0000
0000
0000
0000
0000
0000
0000
0000
0010
0000
0000
0000
0000
0000
0000
0000
0000
0000
0000
0000
0000
0000
0000
0001
0000
0000
0000
0000
0000
0000
0000
0000
0000
0000
0000
0000
0000
0000
0000
0000
0000
0010
0000
0000
0000
0000
0000
0000
0000
0000
0000
0000
0000
0000
0000
0000
0100
0000
0000
0000
0000
0000
0000
0000
0000
0000
0000
0000
0000
0000
0000
0000
0000
0000
0010
0000
0000
0000
0000
0000
0000
0000
0000
0000
0000
0000
0000
0000
0000
0200
0000
0000
0000
0000
0000
0000
0000
0000
0000
0000
0000
0000
0000
0000
0000
0000
0000
0000
0000
0000
0000
0000
0000
0000
0000
0000
0000
0000
0000
0000
0000
0000
0000
0000
0000
0000
0000
0000
0000
0000
0000
0000
0000
0000
0000
0000
0000
0000
0000
0000
0000
0000
0000
0000
0000
0000
0300
0000
0000
0000
0010
0000
0000
0000
0000
0000
0000
0000
0000
0000
0000
0000
0000
0000
0000
0000
1000
0000
0000
0000
0000
0000
0000
0000
0000
0000
0000
0000
0000
0000
0000
0000
,
0010
0000
0000
0000
0000
0000
0100
0010
1000
0001
0100
1000
,
0100
1000
0100
0010
0100
0001
0010
0001
1000
0010
1000
0001
,
0100
0001
1000
0001
1000
0100
1000
0010
0001
0010
0100
1000
,
2000
0000
0000
0000
3000
0000
1000
0100
1000
0100
1000
0100
,
0001
0100
0001
0100
0001
0100
1000
0010
1000
0010
1000
0010
,
1000
0100
1000
0001
0010
0001
1000
0100
0010
0001
1000
0001
,
2002
0000
0000
0000
0000
3003
0000
0000
0000
0110
0000
2002
,
0000
0000
3003
0000
0000
0000
2100
0000
0000
0010
0000
0000
,
3102
1000
0123
0001
,
2230
3300
0000
1000
0100
0010
0001
0000
0000
0000
0000
0000
,
1100
0000
1010
0000
1001
0000
0101
0000
0000
0002
0000
2000
,
0000
3003
0000
0001
0010
0100
2000
0000
0000
0100
0000
0000
,
3020
0100
0032
0100
,
2003
0000
0000
0000
3010
2000
3020
0000
0000
0000
0000
0000
,
0230
0000
0000
0000
0301
0200
0301
0000
0000
0000
0000
0000
,
1000
0000
0001
0000
0100
0000
0001
0000
0001
1000
0000
1000
,
0001
0100
0000
0010
1000
0000
0001
0010
0100
0010
0100
1000
,
1100
0000
1100
0000
1001
0000
0110
0000
0110
0000
1001
0000
,
0011
0000
0011
0000
1001
0000
0011
0000
0110
0000
1100
0000
,
1001
0000
2002
0000
0000
0000
0000
0000
0000
0000
0000
0000
,
0000
0000
0000
0000
0000
3003
0100
1000
0100
0010
0100
1000
,
0001
0000
0001
0100
0001
0100
0001
0000
0001
0100
0000
0000
,
0011
0000
1000
0001
0010
1000
0100
0001
0100
0001
0010
0001
,
1000
0000
0010
1000
0100
1000
0001
0000
0001
0100
0000
0000
,
1000
0000
0100
1000
0010
0001
0010
1000
0001
0100
0010
0100
,
0001
0000
0100
0010
1000
0001
0010
0000
1000
0020
0000
0000
,
0000
0000
0030
1000
0100
0010
0001
0100
0010
1000
0001
1000
,
0110
0000
0001
0100
1000
0010
0100
0000
1000
0010
0000
0000
,
0001
0000
0100
0010
0001
0100
1000
0010
1000
0001
1000
0010
,
0100
0000
0100
1000
0100
1000
0100
0000
0100
1000
0000
0000
,
0001
0000
0010
0100
0001
0010
1000
0100
1000
0100
0001
0100
,
0010
0000
0001
0010
1000
0010
0100
0000
0100
1000
0000
0000
,
0010
0000
1000
0010
0001
0100
0001
0010
0100
1000
0001
1000
,
0100
0000
1000
0001
0010
0100
0001
0000
0010
0200
0000
0300
,
0202
0000
0000
0000
0303
2020
0000
0000
0000
0000
3030
0000
,
1010
0000
0110
0000
0101
0000
1010
0000
0000
0110
0000
1001
,
0000
0000
0000
1000
0100
1000
0002
0000
0000
0100
0000
0000
,
2003
0100
3020
0001
,
0230
0000
0000
1300
0200
1300
0200
0000
0300
0000
0000
0000
,
0110
0000
0011
0000
0110
0000
1001
0000
0000
0220
0330
0220
,
0000
0000
0000
0000
0000
0000
0000
0000
0330
0000
0000
0000
2020
0000
0000
0000
0000
0000
0000
0000
0030
0000
0000
0000
0020
0000
0000
0000
0000
0000
0000
0000
0030
3000
0000
0000
2002
0000
0000
0000
0000
0000
0000
0000
3000
0000
0000
0000
,
2000
0000
3003
0202
0000
0003
0002
0000
0300
0200
0000
0300
,
0200
0000
0303
0000
1000
0200
0002
0000
0000
0000
0000
0000
,
2323
0000
0000
0000
3000
2030
3100
2000
0000
0000
0000
0000
,
0002
3000
1000
0000
0100
0000
1000
0000
0100
0100
0000
1003
,
0002
0100
0000
0103
0001
0000
1000
0100
0010
0001
0100
0010
,
1100
0000
0110
0000
0011
0000
1010
0000
0101
0000
0110
0000
,
1001
0000
0110
0000
1010
0000
0101
0000
0110
0000
0110
0000
,
1001
0000
2002
0000
0000
0000
0000
0000
0000
3003
0000
0000
;

//---------------dance-single - ----------------
#NOTES:
     dance-single:
     :
     Beginner:
     2:
     0.110,0.266,0.044,0.013,0.000,113.000,7.000,2.000,0.000,0.000:
1000
0000
0000
0000
,
0100
0000
0000
0000
,
0010
0000
0000
0000
,
0001
0000
0000
0000
,
0001
0000
0000
0000
,
0010
0000
0000
0000
,
0100
0000
0000
0000
,
1000
0000
0000
0000
,
0010
0000
0000
0000
,
0100
0000
0000
0000
,
0001
0000
0000
0000
,
1000
0000
0000
0000
,
0001
0000
0000
0000
,
0100
0000
0000
0000
,
0100
0000
0000
0000
,
0001
0000
0000
0000
,
0010
0000
0000
0000
,
0100
0000
0000
0000
,
1000
0000
0000
0000
,
0010
0000
0000
0000
,
0001
0000
0000
0000
,
0100
0000
0000
0000
,
1010
0000
0000
0000
,
0001
0000
0000
0000
,
0110
0000
0000
0000
,
1000
0000
0000
0000
,
1000
0000
0000
0000
,
1000
0000
0000
0000
,
0100
0000
0000
0000
,
0100
0000
0000
0000
,
0001
0000
0000
0000
,
0100
0000
0000
0000
,
0100
0000
0000
0000
,
0010
0000
0000
0000
,
0010
0000
0000
0000
,
1000
0000
0000
0000
,
1000
0000
0000
0000
,
0100
0000
0000
0000
,
0010
0000
0000
0000
,
1000
0000
0000
0000
,
0001
0000
0000
0000
,
0010
0000
0000
0000
,
1000
0000
0000
0000
,
0100
0000
0000
0000
,
0100
0000
0000
0000
,
0001
0000
0000
0000
,
1000
0000
0000
0000
,
0100
0000
0000
0000
,
0100
0000
0000
0000
,
0001
0000
0000
0000
,
0100
0000
0000
0000
,
1000
0000
0000
0000
,
0001
0000
0000
0000
,
0010
0000
0000
0000
,
0100
0000
0000
0000
,
1000
0000
0000
0000
,
0010
0000
0000
0000
,
1000
0000
0000
0000
,
0100
0000
0000
0000
,
0010
0000
0000
0000
,
1000
0000
0000
0000
,
0001
0000
0000
0000
,
0010
0000
0000
0000
,
1000
0000
0000
0000
,
0100
0000
0000
0000
,
0001
0000
0000
0000
,
0010
0000
0000
0000
,
0100
0000
0001
0000
,
1000
0000
0000
0000
,
0010
0000
0000
0000
,
0100
0000
0000
0000
,
0010
0000
0000
0000
,
1000
0000
0000
0000
,
0100
0000
0000
0000
,
0001
0000
0010
0000
,
0100
0000
1000
0000
,
1100
0000
0000
0000
,
0000
0000
0000
0000
,
0110
0000
0000
0000
,
0000
0000
0000
0000
,
0011
0000
0000
0000
,
0000
0000
0000
0000
,
0110
0000
0000
0000
,
0000
0100
0000
0000
,
0001
0000
0000
0000
,
0100
0000
0000
0000
,
0010
0000
0000
0000
,
0100
0000
0000
0000
,
1000
0000
0000
0000
,
0100
0000
0000
0000
,
0001
0000
0000
0000
,
0100
0000
0000
0000
,
1000
0000
0000
0000
,
0001
0000
0000
0000
,
1000
0000
0000
0000
,
0100
0000
0000
0000
,
1000
0000
0000
0000
,
0100
0000
0000
0000
,
0100
0000
0000
0000
,
0010
0000
0000
0000
,
0001
0000
0000
0000
,
0010
0000
0000
0000
,
0001
0000
0001
0000
,
1000
1000
1000
1000
,
0010
0010
0010
0010
,
2002
0000
0000
3003
;
