#TITLE:CAT PARTY;
#SUBTITLE:;
#ARTIST:MAIK (single);
#TITLETRANSLIT:;
#SUBTITLETRANSLIT:;
#ARTISTTRANSLIT:;
#CREDIT:;
#BANNER:cat party.png;
#BACKGROUND:cat party-bg.png;
#LYRICSPATH:;
#CDTITLE:star_dance_original.png;
#MUSIC:Maik - Cat Party.mp3;
#OFFSET:-0.050;
#SAMPLESTART:60.500;
#SAMPLELENGTH:15.000;
#SELECTABLE:YES;
#BPMS:0.000=190.000;
#STOPS:;
#BGCHANGES:;
// cache tags:
#FIRSTBEAT:16.000;
#LASTBEAT:368.000;
#SONGFILENAME:Songs/StepMix 1/Cat Party/Cat Party.sm;
#HASMUSIC:1;
#HASBANNER:1;
#MUSICLENGTH:120.354;
// end cache tags

//---------------dance-single - ----------------
#NOTES:
     dance-single:
     :
     Easy:
     4:
     0.428,0.459,0.523,0.000,0.000,298.000,63.000,0.000,0.000,0.000:
0000
0000
0000
0000
,
0000
0000
0000
0000
,
0000
0000
0000
0000
,
0000
0000
0000
0000
,
1000
0000
0001
0000
,
1000
0100
0010
0000
,
0001
0000
0100
0000
,
0010
1000
0100
0000
,
0001
0000
1000
0000
,
1010
0000
0110
0000
,
0101
0000
1001
0000
,
0011
1001
0011
0000
,
1100
0000
0110
0000
,
0011
0000
0110
0000
,
1001
0000
1010
0000
,
0110
0101
0110
0000
,
0010
1000
0010
1000
,
0001
0100
0010
0000
,
1000
0100
0010
0001
,
0010
0100
1000
0000
,
1000
0010
0100
0000
,
0010
0100
0001
0000
,
0001
0100
0010
1000
,
0100
0010
0001
0000
,
0001
1000
0001
1000
,
0010
1000
0010
1000
,
0010
0100
0010
0100
,
0001
0100
0001
0100
,
0010
0100
0010
0100
,
0001
0100
0001
0100
,
0001
1000
0001
1000
,
0001
0010
0001
0010
,
0100
0100
1000
1000
,
0010
0010
1010
1010
,
0001
1000
0100
0010
,
0001
0010
1100
1100
,
0010
1000
0010
0100
,
0001
0100
1001
1001
,
0100
0010
0001
0010
,
0100
1000
0110
0110
,
0001
0010
0100
1000
,
0010
0100
0101
0000
,
0010
1000
0001
0010
,
0100
1000
1100
0000
,
0001
1000
0010
0100
,
0001
0100
1010
0000
,
0001
1000
0100
0010
,
0001
1000
0011
0000
,
0100
1000
1010
0000
,
0010
0100
0101
0000
,
0001
0010
0001
0100
,
0001
0010
0011
0000
,
0100
1000
0010
0000
,
0010
1000
0100
0000
,
0100
1000
0010
1000
,
0100
1000
1010
0000
,
0010
0100
0001
0100
,
1000
0100
0001
0100
,
0010
1000
0001
0010
,
0001
1000
0001
0010
,
0100
1000
0100
0001
,
0100
1000
0100
0010
,
0001
1000
0010
0010
,
0100
0001
1000
1000
,
0001
0100
0001
0100
,
0010
0100
0010
0100
,
0001
0100
0001
0100
,
0110
0101
0110
0000
,
1000
0100
0010
0100
,
1000
0100
1000
0100
,
1000
0100
0010
0100
,
1000
0110
1100
0000
,
0001
1000
1010
0000
,
0010
0100
0101
0000
,
0001
1000
0010
0100
,
0101
1001
0011
0000
,
0100
1000
0110
0000
,
0001
1000
1010
0000
,
0010
0100
0001
0100
,
1010
0101
1010
0000
,
0001
0010
1100
0000
,
0100
0010
0011
0000
,
0100
1000
0010
1000
,
1100
0110
0011
0000
,
0010
0010
0100
0000
,
0100
1000
1010
0000
,
0010
0100
0001
0100
,
0010
1000
1001
0100
,
0110
0000
0011
0110
,
1100
0000
1001
0000
,
1010
0000
0110
0000
,
0101
0000
0000
0010
,
1001
0000
0000
0000
;

//---------------dance-single - ----------------
#NOTES:
     dance-single:
     :
     Medium:
     7:
     0.647,0.688,0.324,0.033,0.000,502.000,39.000,4.000,0.000,0.000:
0000
0000
0000
0000
,
0000
0000
0000
0000
,
0000
0000
0000
0000
,
0000
0000
0000
0000
,
1000
0000
0100
0010
0001
0000
0000
0000
,
0001
0000
1000
0010
0100
0000
0000
0000
,
0010
0000
1000
0001
1000
0000
0001
1000
,
0001
0110
0101
0000
,
0010
0000
1000
0100
0010
0000
0000
0000
,
0100
0000
0010
0001
0100
0000
0000
0000
,
0010
0000
0100
0001
0100
0000
0010
1000
,
0001
1100
0110
0000
,
0001
0000
0010
0100
1000
0000
0000
0000
,
0100
0000
1000
0010
0100
0000
0000
0000
,
0001
0100
0010
0100
0001
0000
0001
1000
,
0010
0101
0110
0000
,
0001
0000
1000
0000
0100
0010
0001
0010
,
0100
0000
1000
0000
0001
1000
0010
0100
,
0001
0000
0001
0100
1000
0000
1000
0100
,
0001
0000
0001
1000
0010
1000
0001
1000
,
0100
0000
0100
0010
0001
0000
0001
0010
,
1000
0000
1000
0010
0001
0000
0001
1000
,
0010
1000
0001
1000
0010
0100
0001
0100
,
0010
1001
1100
0000
,
0100
0010
0001
0010
0000
0010
0001
0100
,
0000
0100
0010
0100
0000
0100
0001
1000
,
0100
1000
0100
0010
0000
0010
0001
0100
,
0000
0100
0001
1000
0000
1000
0010
0100
,
0001
1000
0100
0010
0000
0010
0001
0100
,
0000
0100
0010
1000
0000
1000
0010
0100
,
0001
0100
0010
1000
0000
1000
0100
0010
,
0000
0010
0001
0100
0000
0100
0010
0000
,
0010
1000
0001
1000
0000
1000
0100
0010
,
0001
0000
0001
1000
0010
0000
0101
0000
,
0001
0100
0010
1000
0000
1000
0100
0010
,
0100
0000
0100
0010
0001
0000
0011
0000
,
0100
1000
0100
1000
0000
1000
0010
0100
,
0001
0000
0001
0100
0010
0000
1010
0000
,
0100
1000
0100
0010
0000
0010
0100
1000
,
0001
0000
0001
1000
0010
0000
0110
0000
,
0010
0100
0001
0100
0001
1000
0001
1000
,
0001
0010
0001
1000
0100
0000
0000
0000
,
0100
0010
0001
1000
0010
1000
0001
1000
,
0010
0010
1000
1000
0001
0000
1001
0000
,
0001
0100
0010
1000
0001
1000
0100
0010
,
0001
0001
0010
0100
1000
0000
0000
0000
,
1000
0100
0010
0001
1000
0010
0100
0001
,
0100
0100
0010
1000
0001
0001
1000
0010
,
0100
0000
0100
0001
1000
0000
0000
1000
,
0100
0010
0001
1000
0010
0000
0000
0000
,
0010
0100
0001
1000
0100
0010
0001
1000
,
0100
1100
0110
0000
,
0001
0000
0010
0100
1000
0000
0000
1000
,
0100
0010
0001
1000
0010
0000
0000
0000
,
0010
0100
0001
0100
1000
0100
0001
0100
,
0010
1001
1100
0000
,
0010
0100
1000
0001
0000
1000
0001
1000
,
0010
0000
0010
1000
0001
0000
1001
0000
,
0100
1000
0100
0010
0000
0010
0100
1000
,
0001
0000
0001
1000
0010
0100
0001
0000
,
0001
0100
0010
1000
0000
1000
0010
0100
,
0001
0000
0001
0100
0010
0000
1010
0000
,
1000
0100
0010
0100
0000
0100
0010
0001
,
0010
0000
0010
0001
0010
0100
1100
0000
,
0001
1000
0010
1000
0001
0100
0010
0100
,
0001
0001
0100
0010
1000
1000
0010
0100
,
0001
1000
0010
1000
0001
0010
0100
1000
,
1100
1001
0101
0000
,
0001
0100
0010
0100
0001
0100
0010
1000
,
0001
0001
1000
0010
0100
0100
0010
1000
,
0001
0100
0010
1000
0001
0100
0010
1000
,
0001
1100
0110
0000
,
0100
0000
0010
0001
0010
0000
0000
0010
,
0100
1000
0001
1000
0010
0000
0000
0000
,
0010
0100
0001
0100
0010
1000
0001
0010
,
1100
0110
1001
0000
,
0010
0000
1000
0010
0100
0000
0000
0100
,
0010
0100
0001
1000
0010
0000
0000
0000
,
0010
1000
0100
0010
0100
1000
0100
0001
,
0100
1100
0110
0000
,
0001
0000
0010
0100
1000
0000
0000
1000
,
0100
0010
0001
1000
0010
0000
0000
0000
,
0010
0100
0001
0100
1000
0100
0001
1000
,
0100
0110
1001
0000
,
1001
0000
0010
0100
0010
0000
0000
0010
,
0100
0001
0010
0001
1001
0000
0000
0000
,
0001
1000
0100
0010
0001
0010
0100
1000
,
1001
0000
0101
0000
1001
1000
0010
1000
,
0001
0001
0000
1000
0100
0000
0010
0000
,
0012
0000
2003
0000
,
3020
0000
0230
0000
,
0301
0000
0000
0000
0000
0001
1000
0010
,
0101
0000
0000
0000
;

//---------------dance-single - ----------------
#NOTES:
     dance-single:
     :
     Hard:
     8:
     0.684,0.688,0.282,0.100,0.000,530.000,34.000,12.000,0.000,0.000:
0000
0000
0000
0000
,
0000
0000
0000
0000
,
0000
0000
0000
0000
,
0000
0000
0000
0000
,
1001
0000
0001
1000
0010
0000
0000
0010
,
1000
0100
0010
0001
0011
0000
0000
0000
,
0001
0010
0100
1000
0001
1000
0010
1000
,
1001
0000
0101
0000
0110
0000
0010
1000
,
1001
0000
0100
0010
0001
0000
0000
0001
,
0010
0100
1000
0001
0101
0000
0000
0000
,
0010
0100
0001
1000
0100
0010
0001
1000
,
1100
0000
0110
0000
0011
0000
0100
1000
,
1001
0000
0001
0100
0010
0000
0000
0010
,
0100
0001
1000
0010
0100
0000
0000
0000
,
0010
0100
0001
1000
0100
0010
0001
0010
,
0110
1100
1001
0000
,
0001
1000
0010
1000
0001
0001
0100
0010
,
1000
1000
0100
0010
0001
0000
0000
0000
,
0001
1000
0010
0100
0001
0001
0100
0010
,
1000
1000
0010
0100
0001
0000
0000
0000
,
0001
1000
0010
0100
0001
0001
0000
0001
,
1000
0100
0010
0001
0010
0010
0000
0000
,
0010
0100
1000
0001
1000
0010
0100
0001
,
0100
0100
0010
1000
0001
0001
0000
0000
,
2000
0010
0001
0100
,
3020
0100
0001
0100
,
2030
0001
0100
0001
,
3020
0100
0001
0100
,
0230
1000
0001
0010
,
0302
0010
0100
1000
,
0023
0100
0001
0100
,
0032
0000
1000
0000
0100
0000
1000
0003
,
0001
1000
0100
0010
0000
0010
0001
1000
,
0010
0000
0010
0100
0001
0000
1001
0000
,
0100
0010
0100
1000
0000
1000
0100
0010
,
0001
0000
0001
0100
0010
0000
1010
0000
,
0010
1000
0001
0010
0000
0010
0100
1000
,
0100
0000
0100
0010
0001
0000
0101
0000
,
0001
0100
0010
1000
0000
1000
0010
0100
,
0001
0000
0001
0010
0100
0000
1100
0000
,
0100
0010
0001
1000
0010
0010
1000
0001
,
1000
1000
0010
0100
0001
0000
0001
0000
,
0100
0010
1000
0001
0010
0100
1000
0100
,
0010
0010
0001
0001
0100
0100
0000
0000
,
0010
1000
0001
1000
0100
0100
0010
0001
,
1000
0010
1000
0001
0100
0100
0000
0000
,
0010
1000
0001
0010
0100
1000
0100
0010
,
0001
0001
1000
1000
0010
0010
1000
0000
,
0001
0000
0001
0100
0010
0000
0000
0010
,
1000
0001
0010
0100
1100
0000
0000
0000
,
0100
0010
0001
1000
0010
0100
0001
0100
,
0110
1010
1001
0000
,
0100
0000
0010
0001
0100
0000
0000
0100
,
0010
1000
0001
0010
1100
0000
0000
0000
,
0100
0010
0001
1000
0010
0100
0001
0100
,
0110
0101
1001
0000
,
0001
0100
0010
1000
0000
1000
0010
0100
,
0001
0000
0001
1000
0100
0000
1100
0000
,
0100
0010
0001
0010
0000
0010
0001
0010
,
0100
0000
0100
1000
0001
1000
0010
0000
,
0010
0100
0001
0100
0000
0100
0010
1000
,
0001
0000
0001
1000
0010
0000
0110
0000
,
0010
0100
0001
0100
0000
0100
0010
1000
,
0001
0000
0001
0010
0100
1000
0001
0000
,
1000
0010
1000
0001
1000
0100
0010
0100
,
1000
1000
0100
0001
0100
0100
1000
0100
,
0010
0010
0100
0010
0001
0001
1000
0001
,
1000
1010
0101
0000
,
0001
0100
1000
0100
0001
0001
0100
0010
,
1000
1000
0001
0010
0100
0100
1000
0100
,
0010
0010
0001
0100
0010
0010
0100
0001
,
1000
1100
0110
0000
,
0100
0010
0001
1000
0010
0000
0000
0010
,
1000
0001
0100
0010
1000
0000
0000
1000
,
0001
0010
0100
1000
0100
0010
0001
1000
,
0010
0100
0001
0100
0010
0000
0000
0000
,
0010
1000
0001
0010
0100
1000
0000
1000
,
0100
0010
0001
1000
0010
1000
0000
1000
,
0010
0100
0001
0100
0010
1000
0001
0010
,
0100
1000
0100
0010
0001
1000
0000
0000
,
0010
1000
0001
0100
1000
0100
0001
0100
,
0010
1000
0001
0010
0100
1000
0000
1000
,
0100
0010
0001
1000
0010
0100
0001
0100
,
1000
0100
0001
1000
0100
1000
0000
1000
,
0100
0010
0100
1000
0100
0001
0000
1000
,
0100
0010
0100
1000
0001
1000
0000
1000
,
0010
0100
0001
0100
0010
0100
0001
1000
,
0100
0010
0001
0010
0100
1000
0100
0010
,
0001
0001
0000
1000
0010
0000
1000
0000
,
0210
0000
0302
0000
,
2003
0000
3200
0000
,
0310
0000
0000
0000
0000
0001
1000
0010
,
0110
0000
0000
0000
;

//---------------dance-single - ----------------
#NOTES:
     dance-single:
     :
     Challenge:
     9:
     0.565,0.650,0.133,0.000,0.091,460.000,16.000,0.000,0.000,0.000:
0000
0000
0000
0000
,
0000
0000
0000
0000
,
0000
0000
0000
0000
,
0000
0000
0000
0000
,
1000
0010
1000
0010
,
1000
0001
1000
1000
,
0001
0001
1000
0100
,
1000
0000
0001
0000
1000
0000
0010
0100
,
0001
0000
0001
0000
0100
0000
0010
1000
,
0001
0000
0000
0000
0010
0000
0000
0000
0001
0000
0000
0000
1000
0100
1000
0100
,
1000
0000
0100
0000
0010
0000
0001
0010
,
0100
0000
0000
0000
0100
0000
0000
0000
1000
0000
0000
0000
0001
1000
0001
1000
,
0001
0000
1000
0000
0100
0000
0010
0100
,
1000
0000
0000
0000
0001
0000
0000
0000
0100
0000
0000
0000
0010
1000
0001
1000
,
0001
1000
0100
1000
,
0000
0000
0000
0000
,
1000
0100
1000
0100
0010
0100
0010
0100
,
0010
0001
0010
0001
1000
0000
0000
0000
,
0001
1000
0000
0000
1000
0001
0000
0000
,
1001
0101
1010
0000
,
0010
1000
0001
1000
0100
1000
0000
1000
,
0100
0010
0001
1000
0100
1000
0000
0000
,
0100
0100
0000
0000
0010
0010
0000
0000
,
0001
0100
0010
1000
0001
0000
0000
0000
,
0001
0000
1000
0000
0001
0000
0001
1000
,
0100
0000
0000
0000
0010
0000
0000
0000
0001
0000
0000
0000
0100
0010
1000
0001
,
1000
0000
0010
0000
0100
0000
0010
1000
,
0100
0000
0000
0000
1000
0000
0000
0000
0100
0000
0000
0000
1000
0001
0100
0010
,
1000
0000
0010
0000
0100
0000
0001
1000
,
0100
0000
0000
0000
0010
0000
0000
0000
0001
0000
0000
0000
0010
0100
1000
0001
,
1000
0000
1000
0000
0010
0000
0100
0001
,
0100
0000
0000
0000
0100
0000
0000
0000
0010
0000
0000
0000
1000
0001
1000
0001
,
1000
0001
1000
0100
0000
0100
1000
0100
,
0010
0000
0010
0001
1000
0000
0100
1000
,
0001
1000
0010
1000
,
0001
1000
0010
1000
0001
1000
0100
0010
,
0001
0000
0010
0000
0100
0000
1000
0001
,
1000
0000
0010
0100
0001
0000
0001
0100
,
0010
0000
1000
0000
0010
0000
0100
0001
,
0100
0000
0000
0000
0010
0000
0000
0000
0100
0000
0000
0000
0001
1000
0100
1000
,
0001
0010
0001
0010
,
0100
0000
1000
0001
1000
0000
0010
0100
,
0001
0100
0010
0100
,
0001
1000
0100
0010
0001
0010
0100
1000
,
0001
1000
0010
1000
,
0001
0000
0100
0010
0100
0000
0100
0001
,
0100
0000
0010
0000
1000
0000
0001
0010
,
0100
0000
0000
0000
1000
0000
0000
0000
0001
0000
0000
0000
0100
0001
0100
0001
,
0100
0000
0010
0100
0001
0000
0000
0001
,
0100
0010
1000
0001
1000
0000
0000
0000
,
0100
0010
0000
0000
0010
0001
0000
0000
,
0001
0010
0100
0000
,
0100
0000
1000
0001
1000
0000
0000
1000
,
0010
0100
0001
0100
0010
0000
0000
0000
,
0001
0100
0000
0000
0100
0010
0000
0000
,
0010
0000
0000
0000
1000
0000
0000
0000
0001
0000
0000
0000
0001
1000
0001
1000
,
0001
1000
0100
0010
,
0001
0000
0001
0010
0100
0000
0100
1000
,
0001
0100
0010
0100
,
0001
0100
1000
0100
0001
0100
1000
0100
,
0001
1000
0100
0010
,
0001
0000
0001
1000
0010
0000
0010
1000
,
0001
0010
0100
1000
,
1000
0100
0001
0100
1000
0100
0001
0100
,
1000
0001
1000
0001
1000
0010
1000
0010
,
1000
0001
1000
0001
0100
0001
0100
0001
,
0100
0010
0000
0000
0010
0100
0000
0000
,
0100
0101
1001
0000
,
0100
1000
0100
0010
0001
0010
0100
1000
,
0100
0010
0001
1000
0100
1000
0100
1000
,
0001
1000
0000
0000
1000
0010
0000
0000
,
0010
0100
0101
0000
,
0001
0000
0100
0010
1000
0000
0000
1000
,
0010
0100
0001
1000
0100
0000
0000
0000
,
0100
0100
0000
0000
0010
0010
0000
0000
,
0001
1000
0101
0000
,
0001
0000
1000
0010
0100
0000
0000
0100
,
0010
1000
0001
0010
0100
0000
0000
0000
,
1000
1000
0000
0000
0100
0100
0000
0000
,
0010
0000
0000
0000
0001
0000
0000
0000
1001
0000
0000
0000
0001
0100
0001
1000
,
0001
0000
1000
0010
0100
0000
0000
0100
,
0010
1000
0001
1000
0100
0000
0000
0000
,
0100
0100
0000
0000
0010
0010
0000
0000
,
0001
0010
0110
0000
,
0100
0000
1000
0001
1000
0000
0000
1000
,
0010
0100
0001
0100
0010
0000
0000
0000
,
0010
0010
0000
0000
1000
1000
0000
0000
,
0001
0000
0010
0000
1100
1000
0100
0010
,
0001
0010
0000
0010
0100
0000
1000
0000
,
1001
1000
0000
0000
0101
0001
0000
0000
,
0110
0010
0000
0000
1010
1000
0000
0000
,
1001
0000
0000
0000
0000
0010
1000
0001
,
1100
0000
0000
0000
;
