#TITLE:Mahoromatic;
#SUBTITLE:- Mahoro De Mambo;
#ARTIST:Yumi Kikuchi/Manabi Mizuno/Asami Sanada;
#TITLETRANSLIT:;
#SUBTITLETRANSLIT:;
#ARTISTTRANSLIT:;
#CREDIT:Anime Toshokan;
#BANNER:Mahoromatic - Mahoro De Mambo.png;
#BACKGROUND:Mahoromatic - Mahoro De Mambo bg.png;
#LYRICSPATH:;
#CDTITLE:dejiko.png;
#MUSIC:Mahoromatic - Mahoro De Mambo.mp3;
#OFFSET:1.758;
#SAMPLESTART:56.990;
#SAMPLELENGTH:9.000;
#SELECTABLE:YES;
#DISPLAYBPM:106.000;
#BPMS:0.000=106.200,28.000=105.980,44.000=105.690,60.000=106.170,76.000=106.100;
#STOPS:;
#BGCHANGES:10.500=Mahoromatic - Mahoro De Mambo.avi=1.000=0=0=1,
157.000=Mahoromatic - Mahoro De Mambo bg.png=1.000=0=0=1,
99999=-nosongbg-=1.000=0=0=0 // don't automatically add -songbackground-
;
// cache tags:
#FIRSTBEAT:8.000;
#LASTBEAT:158.333;
#SONGFILENAME:Songs/Anime Mix 1/Mahoromatic - Mahoro De Mambo/Mahoromatic - Mahoro De Mambo.sm;
#HASMUSIC:1;
#HASBANNER:1;
#MUSICLENGTH:89.942;
// end cache tags

//---------------dance-single - BASIC----------------
#NOTES:
     dance-single:
     BASIC:
     Easy:
     2:
     0.148,0.176,0.056,0.044,0.006,84.000,5.000,4.000,0.000,0.000:
0000
0000
0000
0000
,
0000
0000
0000
0000
,
0010
0000
0000
0000
,
0000
0000
0000
0000
,
0000
0000
0000
1001
,
0000
0000
0000
0001
0000
0000
0000
0100
,
0000
0000
0000
0001
0000
0000
0000
0000
,
0000
0000
0000
1000
0000
0000
0000
0100
,
0000
0000
0000
1000
0000
0000
0000
0000
,
0000
0000
0000
1000
0000
0000
0000
0010
,
0000
0000
0000
0100
0000
0000
0000
0001
,
0000
1000
0000
1000
0000
1000
0000
1000
,
0000
1000
0000
0000
0000
0000
0000
0000
,
0220
0000
0000
0000
,
0000
0000
0000
0000
0000
0330
0000
0000
,
0000
0100
0000
0100
0000
0100
0000
0100
,
0000
1000
0000
1000
0000
1000
0000
1000
,
0000
0001
0000
0001
0000
0001
0000
0001
,
0000
0000
0110
0000
,
0000
1000
0000
1000
0000
1000
0000
0001
,
0000
0001
0000
0001
0000
1000
0000
1000
,
0000
1000
0000
0001
0000
0001
0000
0001
,
0000
1000
0000
1000
0000
1000
0000
0001
,
0000
1000
0000
0001
0000
1000
0000
0000
,
0200
0000
0000
0000
,
0000
0000
0000
0000
0000
0000
0000
0300
,
0000
0010
0000
0010
0000
0010
0000
0010
,
0000
0010
0000
0010
0000
0000
0000
0000
,
0000
0100
0000
0100
0000
0100
0000
0100
,
0000
0100
0000
0100
0000
0000
0000
0000
,
0000
1000
0000
0001
0000
1000
0000
0001
,
0000
1000
0000
0001
0000
0010
0000
0100
,
0000
0010
0000
0100
0000
0010
0000
0100
,
0000
0010
0000
1000
0000
1000
0000
0001
,
0000
0001
0000
0001
0000
1001
0000
0000
,
0000
0000
0000
0000
,
0000
0000
0000
0000
,
0000
0000
0000
0000
,
0020
0000
0000
0000
,
0000
0000
0000
0030
0000
0000
0000
0000
0000
0000
0000
0000
0000
0000
0000
0000
0000
0000
0000
0000
0000
0000
0000
0000
0000
0000
0000
0000
1001
0000
0000
0000
0000
0000
0000
0000
0000
0000
0000
0000
0000
0000
0000
0000
0000
0000
0000
0000
;

//---------------dance-single - ANOTHER----------------
#NOTES:
     dance-single:
     ANOTHER:
     Medium:
     4:
     0.249,0.308,0.133,0.100,0.022,136.000,12.000,9.000,0.000,0.000:
0000
0000
0000
0000
,
0000
0000
0000
0000
,
1001
0000
0000
0000
,
0020
0000
0000
0000
0030
0000
0001
0001
,
0000
0000
0000
0010
0010
0000
1001
0000
,
0000
0010
0000
0001
0000
1000
0000
0100
,
0000
0001
0000
0010
0000
1000
1000
0000
,
0000
0010
0000
0001
0000
1000
0000
0001
,
0000
0100
0000
1000
0000
0001
0001
0000
,
0000
0010
0000
1000
0000
0001
0000
0100
,
0000
0001
0000
0100
0000
1000
0000
0001
,
0000
1000
0000
0001
0000
1000
0000
0010
,
0000
0000
0000
0000
1000
1000
0000
1000
0000
0000
0000
1001
0000
0000
0000
0000
,
0020
0030
0200
0300
0002
0003
2000
3000
,
0020
0030
0200
0300
2002
3003
0000
0000
,
0000
0010
0000
0100
0000
0001
0000
0010
,
0000
1000
0000
0001
0000
0010
0000
0100
,
0000
1000
0000
0010
0000
0001
0100
0100
,
0000
0000
0000
0010
1001
0000
0000
0000
,
0000
1000
0000
0001
0000
0010
0000
0100
,
0000
0010
0000
0100
0000
1000
0000
0100
,
0000
1000
0000
0001
0000
0100
0000
0001
,
0000
0100
0000
0010
0000
0100
0000
0010
,
0000
0001
0000
1000
0000
0100
0000
0000
,
0001
0001
1000
1000
,
1000
0000
0001
0000
1000
0010
0010
0010
,
0000
1000
0000
0001
0000
1000
0000
0001
,
0000
1000
0000
0001
0000
1000
1000
0000
,
0000
0010
0000
0100
0000
0010
0000
0100
,
0000
0010
0000
0100
0000
0001
0001
0000
,
0000
1000
0000
0001
0000
0100
0000
1000
,
0000
0001
0000
0010
0000
0100
0000
0010
,
0000
1000
0000
0010
0000
0001
0000
0010
,
0000
0100
0000
1000
0000
0100
0000
0010
,
0000
1000
0000
0001
0000
0010
0000
0000
,
1001
1001
1001
0110
,
1001
0000
0000
0000
,
0000
0000
0000
0000
,
0010
0010
0100
0100
,
0110
0000
0000
0000
0000
0000
0000
1001
0000
0000
0000
0000
;

//---------------dance-single - MANIAC----------------
#NOTES:
     dance-single:
     MANIAC:
     Hard:
     5:
     0.316,0.417,0.422,0.033,0.033,158.000,38.000,3.000,0.000,0.000:
0000
0000
0000
0000
,
0000
0000
0000
0000
,
1001
0000
0000
0000
,
0022
0000
0000
0000
0033
0000
0001
0001
,
0100
0100
0100
0110
1001
0000
1001
0000
,
0000
1000
0000
0001
0000
1000
0000
0100
,
0000
0010
0000
0001
0000
1010
0101
0000
,
0000
0100
0000
0010
0000
1000
0000
0001
,
0000
0001
0000
1000
0000
0011
1100
0000
,
0000
0100
0000
1000
0000
0001
0000
0010
,
0000
0100
0000
0100
0000
0010
0000
0010
,
0000
1000
0000
0001
0000
0001
0000
1000
,
0010
0000
0010
0000
1000
0001
0000
1000
0000
0000
0000
0011
0000
0000
0000
0000
,
1010
1100
0101
0011
,
1001
1001
0110
0000
,
0000
0100
0000
0100
0000
0010
0000
0010
,
0000
1000
0000
1000
0000
0001
0000
0001
,
0000
1000
0000
0010
0000
0001
0100
0100
,
1000
0000
0000
0001
0000
0000
1001
0000
1001
0000
0000
0000
0000
0000
0000
0000
,
0000
1000
0000
0001
0000
0100
0000
1000
,
0000
0010
0000
0100
0000
0001
0000
0010
,
0000
1000
0000
1000
0000
0001
0000
0001
,
0000
0100
0000
0100
0000
0010
0000
0010
,
0000
0000
1000
0000
0000
0000
0001
0000
0000
0000
0100
0000
0000
0010
0010
0000
,
0001
1000
0001
1000
0010
0100
0010
0100
,
1000
0001
1000
0001
1000
1001
1100
0101
,
0000
1000
0000
0001
0000
1000
0000
0001
,
0000
1000
0000
0001
0000
0011
0101
0000
,
0000
0010
0000
0100
0000
0010
0000
0100
,
0000
0010
0000
0100
0000
1010
1100
0000
,
0000
1000
0000
0001
0000
0110
0000
1000
,
0000
0001
0000
1001
0000
0010
0000
0100
,
0000
1010
0000
0010
0000
0100
0000
0011
,
0000
0100
0000
1000
0000
1100
0000
0100
,
0000
0000
1000
0000
0000
0000
0101
0000
0000
0000
0001
0000
0000
0020
0000
0030
,
1001
1001
1100
0101
,
1001
0000
0000
0000
,
0000
0000
0000
0000
,
1000
0001
1000
0001
0100
0010
0100
0010
,
0100
0000
1000
0001
1001
0000
0000
0000
;

//---------------dance-single - BEGINNER----------------
#NOTES:
     dance-single:
     BEGINNER:
     Beginner:
     1:
     0.102,0.130,0.078,0.044,0.000,53.000,7.000,4.000,0.000,0.000:
0000
0000
0000
0000
,
0000
0000
0000
0000
,
0010
0000
0000
0000
,
0000
0000
0000
0000
,
0110
0000
0000
0000
,
1001
0000
0001
0000
,
0100
0000
0001
0000
,
1001
0000
1000
0000
,
0100
0000
1000
0000
,
1001
0000
1000
0000
,
0010
0000
0100
0000
,
0001
1000
0000
0000
,
1000
0000
1000
0000
,
0220
0000
0000
0000
,
0000
0000
0000
0000
0000
0330
0000
0000
,
0100
0000
0100
0000
,
1000
0000
1000
0000
,
0001
0000
0001
0000
,
0000
0000
0110
0000
,
1000
0000
1000
0000
,
0001
0000
0001
0000
,
1000
0001
0000
0000
,
0001
1000
0000
0000
,
1000
0001
0000
0000
,
0200
0000
0000
0000
,
0000
0000
0000
0000
0000
0000
0000
0300
,
0010
0000
0010
0000
,
0010
0000
0000
0000
,
0100
0000
0100
0000
,
0100
0000
0000
0000
,
1000
0001
0000
0000
,
0010
0100
0000
0000
,
0010
0000
0010
0000
,
1000
0000
0001
0000
,
1001
0000
0000
0000
,
0000
0000
0000
0000
,
0000
0000
0000
0000
,
0000
0000
0000
0000
,
0020
0000
0000
0000
,
0000
0030
0000
0000
0000
0000
0000
0000
0000
0000
0000
0000
0000
0000
0000
0000
;
