#TITLE:Yu-Gi-Oh!;
#SUBTITLE:- Shuffle;
#ARTIST:奥井雅美;
#TITLETRANSLIT:;
#SUBTITLETRANSLIT:;
#ARTISTTRANSLIT:Okui Masami;
#CREDIT:Anime Toshokan;
#BANNER:Yu-Gi-Oh! - Shuffle.png;
#BACKGROUND:Yu-Gi-Oh! - Shuffle bg.png;
#LYRICSPATH:;
#CDTITLE:dejiko.png;
#MUSIC:Yu-Gi-Oh! - Shuffle.mp3;
#OFFSET:-0.112;
#SAMPLESTART:64.300;
#SAMPLELENGTH:11.000;
#SELECTABLE:YES;
#DISPLAYBPM:168.000;
#BPMS:0.000=168.030,172.000=167.930;
#STOPS:;
#BGCHANGES:;
// cache tags:
#FIRSTBEAT:3.000;
#LASTBEAT:268.000;
#SONGFILENAME:Songs/DDR Anime 1st Mix/Yu-Gi-Oh! - Shuffle/Yu-Gi-Oh! - Shuffle.sm;
#HASMUSIC:1;
#HASBANNER:1;
#MUSICLENGTH:96.106;
// end cache tags

//---------------dance-single - BASIC----------------
#NOTES:
     dance-single:
     BASIC:
     Easy:
     4:
     0.351,0.349,0.094,0.000,0.000,227.000,9.000,0.000,0.000,0.000:
0000
0000
0000
0000
,
0000
1001
1000
0001
,
1000
0001
0010
0100
,
0010
0100
1000
0000
,
0000
0000
1001
0000
,
0110
0000
0000
0001
,
1000
0100
0010
0001
,
0100
1000
0010
0001
,
1000
0100
0010
0001
,
0001
1000
0100
0010
,
1000
0001
0000
0000
,
0000
0000
1001
0010
,
0000
0000
0100
1001
,
0000
0000
0110
0100
,
0000
0000
0010
0110
,
0000
0000
0000
0000
,
1000
1000
1000
1000
,
0001
0001
0001
0001
,
1000
0001
1000
0001
,
1000
0001
1000
0001
,
0000
0000
0000
0000
,
0000
0010
0010
0001
,
0001
0001
1000
1000
,
0010
0001
1000
0100
,
0010
0001
1000
0001
,
0100
0010
0001
1000
,
0010
0001
1000
0001
,
0100
1000
0100
0010
,
0001
1000
0001
1000
,
0001
0001
1000
0000
,
0000
0000
0000
0001
,
1000
0100
0010
0001
,
1000
0001
1000
0001
,
1000
0010
0001
1000
,
0000
0000
0001
0001
,
1000
1000
0100
0010
,
1000
0001
0100
0010
,
1000
0100
0010
0001
,
0100
1000
0001
0100
,
0010
1000
0001
0100
,
1000
0010
0001
1000
,
0100
0010
0001
0001
,
1000
0100
0010
1000
,
0001
0100
1000
0010
,
0001
0001
0100
0000
,
0000
0000
0000
1000
,
1000
0100
0010
0001
,
0001
1000
0100
0010
,
1000
0001
0001
1000
,
1000
0100
0100
0100
,
0100
0010
0010
0010
,
0010
0001
0001
0001
,
0001
1000
1000
1000
,
1000
0100
0010
1000
,
0001
0100
0010
1000
,
0001
1000
0100
1000
,
0100
0001
0100
0001
,
0100
0010
1000
0010
,
1000
0010
0001
0010
,
0001
0001
1000
0001
,
1000
0100
1000
0001
,
0100
1000
0001
1000
,
0001
1000
0001
0001
,
1000
1000
0001
0001
,
1000
1000
0001
0001
,
1000
1000
1000
0001
,
1001
0000
0000
0100
,
1001
0000
0000
0000
;

//---------------dance-single - ANOTHER----------------
#NOTES:
     dance-single:
     ANOTHER:
     Medium:
     5:
     0.434,0.418,0.291,0.000,0.000,264.000,28.000,0.000,0.000,0.000:
0000
0000
0000
0000
,
0000
1001
0110
1000
,
1000
0100
0010
0001
,
0001
1000
0001
0010
,
0100
0010
1010
0100
,
0101
1000
0010
0001
,
1000
0001
1000
0010
,
0100
0010
1000
0100
,
0001
0010
0001
1000
,
0100
0010
0001
0001
,
1000
0100
0010
1000
,
0001
0100
1100
0100
,
0100
0100
0100
0101
,
0001
1000
1010
0010
,
0010
0010
0010
0011
,
0001
0001
1000
0001
,
0001
1000
1000
0001
,
1000
0001
0001
1000
,
0001
1000
1000
0010
,
0100
0010
1000
0001
,
1001
1001
0001
1000
,
0010
0001
1000
0100
,
0001
1000
0010
1000
,
0100
0010
0001
0100
,
1000
0010
0001
1000
,
0100
0001
0010
1000
,
0100
0001
0010
1000
,
0001
1000
0010
0100
,
0010
1000
0001
1000
,
0100
0010
0110
0110
,
0001
0010
0001
0001
,
1000
0100
0010
0001
,
1000
0100
0010
0001
,
1000
0100
0110
1001
,
0100
0100
0010
0100
,
0001
1000
0100
1000
,
0001
0100
0001
0010
,
1000
0010
0001
0010
,
0001
1000
0001
0100
,
0010
1000
0100
0010
,
1000
0001
0010
0100
,
0001
0010
1000
0001
,
0100
0010
1000
0100
,
0010
0001
1000
0100
,
0010
0100
1001
0110
,
0001
0010
0100
1000
,
1100
1000
0010
0100
,
1000
0010
0100
0110
,
0100
0001
0100
0010
,
1000
0001
0100
0010
,
1000
0100
0001
0010
,
0011
0001
0100
0010
,
0100
1000
0001
0100
,
1000
0010
0001
0100
,
1000
0001
1001
1000
,
0100
0010
1000
0001
,
0010
1000
0100
0001
,
0010
0001
0100
0101
,
0010
1000
0010
1000
,
0100
0001
0010
0100
,
1000
1100
1000
0001
,
1000
0100
0001
0100
,
0010
1000
1010
0010
,
0010
1000
0001
0100
,
0010
1000
0001
1000
,
0100
0010
0001
0100
,
1100
0101
1100
0101
,
1001
0000
0000
0000
;

//---------------dance-single - MANIAC----------------
#NOTES:
     dance-single:
     MANIAC:
     Hard:
     7:
     0.657,0.627,1.000,0.000,0.000,284.000,158.000,0.000,0.000,0.000:
0000
0000
0000
0000
0000
0000
1000
0001
,
1000
0001
0110
0000
0110
0000
0110
0000
,
0110
1001
1001
1001
,
1001
0101
0101
0101
,
0101
0001
0101
0100
,
1010
1000
1010
1010
,
1010
1010
0110
1001
,
0101
0100
1010
0011
,
1010
0011
1100
0101
,
0100
1001
0100
0010
,
0100
1000
0001
1001
,
0100
0100
1001
1000
,
0001
1000
0001
1001
,
0100
0100
1001
1001
,
0110
1001
0110
1001
,
0100
0100
1001
0001
,
0001
1000
1000
0001
,
1000
0001
1000
0110
,
1001
0110
0110
1001
,
1001
0110
0110
0101
,
0101
0101
0101
0100
,
0100
1010
1010
1010
,
0100
1000
0100
0001
0100
0010
0100
1000
,
0001
0110
0110
0110
,
0110
1001
1001
1001
,
1001
0101
0101
0101
,
0101
1010
1010
1010
,
1010
0110
0110
1001
,
1001
0100
1000
1000
,
0001
0001
0110
1001
,
1010
0000
0011
0000
0101
0000
0100
1000
,
0100
0001
0100
0010
0100
1000
0010
0001
,
0000
0100
0001
0010
0100
1000
0100
0001
,
0100
0010
0100
1000
0000
0000
0001
0001
,
0000
0100
0110
0110
,
0110
1001
0110
1001
,
0110
0010
0100
0010
,
0100
0010
0100
1010
,
0011
1010
0011
1100
,
0101
1100
0101
0010
,
0001
1000
0100
0010
,
1000
0001
0100
1010
,
1010
0011
0011
1010
,
1010
0011
0011
0101
,
0101
1100
1100
0101
,
0101
1100
1100
0001
,
1000
1000
0001
1001
,
1001
1001
1001
0110
,
0110
0110
0110
1001
,
1001
1001
1001
0010
,
0100
1000
0010
1000
,
0010
1010
1010
1010
,
1010
0010
0001
0010
,
0001
0010
0001
0011
,
0011
0011
0011
0001
,
0100
0001
0100
0001
,
0100
0101
0101
0101
,
0101
1000
0100
1000
,
0100
1000
0100
1100
,
1100
1100
1100
1010
,
1010
0011
0011
1100
,
1100
0101
0101
1001
,
1001
0110
0110
1001
,
1010
0011
1001
1100
,
0101
1000
0001
1000
,
0001
0000
1001
0000
1001
0000
0001
0001
,
0000
1000
0001
1000
0001
1000
0001
0000
,
1001
0000
0000
0000
;

//---------------dance-single - BEGINNER----------------
#NOTES:
     dance-single:
     BEGINNER:
     Beginner:
     2:
     0.189,0.209,0.073,0.000,0.000,120.000,7.000,0.000,0.000,0.000:
0000
0000
0000
0000
,
1001
0000
1000
0000
,
1000
0000
0010
0000
,
0010
0000
1000
0000
,
0000
0000
1001
0000
,
0110
0000
0000
0001
,
1000
0000
0010
0000
,
0100
0000
0010
0000
,
1000
0000
0010
0000
,
0001
0000
0100
0000
,
1000
0000
0000
0000
,
0000
0000
1001
0000
,
0000
0000
0100
0000
,
0000
0000
0110
0000
,
0000
0000
0010
0000
,
0000
0000
0000
0000
,
1000
0000
1000
0000
,
0001
0000
0001
0000
,
1000
0000
1000
0000
,
1000
0000
1000
0000
,
0000
0000
0000
0000
,
0000
0010
0010
0000
,
0001
0000
1000
0000
,
0010
0000
1000
0000
,
0010
0000
1000
0000
,
0100
0000
0001
0000
,
0010
0000
1000
0000
,
0100
0000
0100
0000
,
0001
0000
0001
0000
,
0001
0000
1000
0000
,
0000
0000
0000
0001
,
1000
0000
0010
0000
,
1000
0000
1000
0000
,
1000
0000
0001
0000
,
0000
0000
0001
0000
,
1000
0000
0100
0000
,
1000
0000
0100
0000
,
1000
0000
0010
0000
,
0100
0000
0001
0000
,
0010
0000
0001
0000
,
1000
0000
0001
0000
,
0100
0000
0001
0000
,
1000
0000
0010
0000
,
0001
0000
1000
0000
,
0001
0000
0100
0000
,
0000
0000
0000
1000
,
1000
0000
0010
0000
,
0001
0000
0100
0000
,
1000
0000
0001
0000
,
1000
0000
0100
0000
,
0100
0000
0010
0000
,
0010
0000
0001
0000
,
0001
0000
1000
0000
,
1000
0000
0010
0000
,
0001
0000
0010
0000
,
0001
0000
0100
0000
,
0100
0000
0100
0000
,
0100
0000
1000
0000
,
1000
0000
0001
0000
,
0001
0000
1000
0000
,
1000
0000
1000
0000
,
0100
0000
0001
0000
,
0001
0000
0001
0000
,
1000
0000
0001
0000
,
1000
0000
0001
0000
,
1000
0000
1000
0000
,
1001
0000
0000
0100
,
1001
0000
0000
0000
;
