#TITLE:Card Captor Sakura;
#SUBTITLE:- Catch You Catch Me;
#ARTIST:Gumi;
#TITLETRANSLIT:;
#SUBTITLETRANSLIT:;
#ARTISTTRANSLIT:;
#CREDIT:Anime Toshokan;
#BANNER:Card Captor Sakura - Catch You Catch Me.png;
#BACKGROUND:Card Captor Sakura - Catch You Catch Me bg.png;
#LYRICSPATH:;
#CDTITLE:dejiko.png;
#MUSIC:Card Captor Sakura - Catch You Catch Me.mp3;
#OFFSET:0.821;
#SAMPLESTART:45.860;
#SAMPLELENGTH:15.000;
#SELECTABLE:YES;
#BPMS:0.000=128.000;
#STOPS:;
#BGCHANGES:;
// cache tags:
#FIRSTBEAT:5.500;
#LASTBEAT:165.500;
#SONGFILENAME:Songs/DDR Anime 1st Mix/Card Captor Sakura - Catch You Catch Me/Card Captor Sakura - Catch You Catch Me.sm;
#HASMUSIC:1;
#HASBANNER:1;
#MUSICLENGTH:85.857;
// end cache tags

//---------------dance-single - BASIC----------------
#NOTES:
     dance-single:
     BASIC:
     Easy:
     2:
     0.158,0.206,0.000,0.047,0.000,91.000,0.000,4.000,0.000,0.000:
0000
0000
0000
0000
,
0000
0000
0000
0001
,
0000
1000
0000
0001
,
0000
0000
1000
0000
0000
0000
0000
2000
,
0000
3000
0000
0002
0000
0003
0000
0000
,
0000
0010
0000
0001
,
0000
0001
0000
1000
,
0000
0000
0001
0000
0000
0000
0000
0200
,
0000
0000
0000
0000
0000
0300
0000
0000
,
0000
0001
0000
1000
,
0000
0100
0000
0001
,
0000
0100
0000
1000
,
0000
0010
0000
0100
,
0000
1000
0000
0001
,
0000
1000
0000
0010
,
0000
1000
0000
0001
,
0100
0000
0200
0300
0000
0000
1000
0000
,
1000
0001
0001
1000
,
1000
0001
0001
0000
,
0000
0100
0000
0010
,
0000
0100
0000
0000
,
1000
0001
1000
0001
,
0010
0100
0000
0000
,
1000
1000
1000
1000
,
1000
1000
1000
1000
,
1000
0001
1000
0001
,
0100
0100
0000
0000
,
1000
0000
0001
0000
,
0100
0000
0010
0000
,
0001
1000
0001
1000
,
0100
0010
0000
0000
,
0000
0100
0000
0000
,
0001
0001
0001
0000
,
1000
0000
0001
0000
0000
0000
0000
1000
,
0000
1000
0000
0001
0000
0001
0000
0100
,
0000
0100
0000
0010
,
0000
0100
0000
0010
,
0000
0000
0100
0000
0000
0000
0000
0001
,
0000
0001
0000
0001
0000
0001
0000
0001
,
0000
1000
0000
0000
;

//---------------dance-single - ANOTHER----------------
#NOTES:
     dance-single:
     ANOTHER:
     Medium:
     4:
     0.241,0.251,0.093,0.186,0.000,121.000,8.000,16.000,0.000,0.000:
0000
0000
0000
0000
,
0000
0000
0000
1001
,
0001
1000
0001
1000
,
0001
0000
2000
0000
0000
3000
0000
1000
,
0000
1000
0000
0001
0000
0001
0000
0001
,
0000
0001
0010
0100
,
0010
2000
3000
0001
,
0010
0000
0200
0000
0000
0300
0000
0001
,
0000
0010
0000
1000
0000
0100
0000
0000
,
0000
0100
0001
1000
,
0100
2000
3000
0001
,
1000
0001
0100
0002
,
0003
0010
1000
0010
,
1000
0020
0030
0100
,
0001
0100
0001
0200
,
0300
0100
0010
1000
,
0001
0000
1001
1001
0000
0000
0010
0000
,
0001
0100
1000
1000
,
0100
0001
0020
0000
,
0030
1000
0100
2000
,
3000
0001
0002
0003
,
0100
0010
1000
0001
,
0020
0000
0000
0030
,
0001
0001
0001
0001
,
1000
1000
1000
1000
,
0110
0010
0100
1000
,
0100
0002
0000
0003
,
0010
0001
0100
0010
,
0200
0000
0000
0300
,
1000
0010
0001
0010
,
0100
0200
0000
0300
,
0010
1001
0100
0010
,
1001
0110
1001
1000
,
0001
0000
2000
0000
0000
3000
0000
0001
,
0000
1000
0000
0001
0000
0001
0000
1000
,
0000
0100
0000
1000
,
0100
0001
0000
0001
,
0100
0000
1000
0000
0000
0000
0000
0001
,
0000
1000
0000
0001
0000
1000
0000
0002
,
0000
1003
0000
0000
;

//---------------dance-single - MANIAC----------------
#NOTES:
     dance-single:
     MANIAC:
     Hard:
     6:
     0.376,0.434,0.478,0.082,0.058,178.000,41.000,7.000,0.000,0.000:
0000
0000
0000
0000
,
0000
0000
0000
0110
,
1000
1010
0001
0011
,
0010
0000
1001
0000
0200
0300
0000
1010
,
0000
0011
0000
1100
0000
0101
0000
1001
,
0000
0001
0001
0001
,
1000
1000
1000
0100
,
0010
0000
1000
0000
0002
0003
0000
1001
,
0000
1001
0000
1001
0000
1001
0000
0000
,
0100
0000
1000
0000
0001
1000
0001
0000
,
0001
0000
1000
0000
0010
0100
0010
0000
,
0001
0000
1000
0000
0100
0100
0010
0000
,
0220
0330
0100
1001
0000
0000
0100
0000
,
1000
0000
0010
0001
0001
0000
1000
0000
,
0001
0000
0010
1000
1000
0000
1000
0000
,
0100
0000
1000
0100
0100
0000
0001
0000
,
2002
3003
0100
0110
0000
0000
1010
0000
,
0011
1010
0011
1100
,
0101
1100
0101
0001
,
1000
0001
0100
1001
,
0010
0001
1000
1000
,
1000
0001
1000
0000
0010
0100
0010
0000
,
1000
0001
1000
0000
0100
0000
1000
0000
,
1000
0001
0000
0000
1000
0001
0000
0000
1000
0001
0000
0000
1000
0001
0000
0000
,
1000
0001
0000
0000
1000
0001
0000
0000
1000
0001
0000
0000
1000
0001
0000
0000
,
1000
0100
1000
0100
0001
0100
0001
0100
,
0010
0010
0000
0100
0100
0000
0100
0000
,
1000
1000
0010
0010
,
0000
1000
0001
1000
0001
0000
0000
0000
0100
0000
0000
0000
0010
0000
0000
0000
,
1000
0001
1000
0100
0010
0001
1000
0001
,
0100
0110
0000
1000
1000
0000
0010
0000
,
0100
0010
0100
0010
,
0110
1001
0110
0100
,
1000
0000
0001
0000
0020
0030
0000
1001
,
0000
1001
0000
1100
0000
0101
0000
0110
,
0000
0000
0100
0000
1000
0000
0010
0010
,
0001
0000
0010
0000
0001
0000
1000
1000
,
0010
0000
1000
0000
0100
0000
0000
1010
,
0000
0011
0000
1100
0000
0101
0000
1001
,
0000
1001
0000
0000
;

//---------------dance-single - SMANIAC----------------
#NOTES:
     dance-single:
     SMANIAC:
     Challenge:
     6:
     0.413,0.410,0.466,0.151,0.012,195.000,40.000,13.000,0.000,0.000:
0000
0000
0000
0000
,
0000
0000
0000
0010
0000
1010
0000
1100
,
0000
0000
0000
0010
0000
0011
0000
0101
,
0000
0000
0000
0110
0000
0110
0000
1010
,
0000
1010
0000
0011
0000
0011
0000
1001
,
0000
0001
0001
0000
0100
0010
0001
0100
,
0000
1000
0100
1000
0000
0001
0100
0001
,
0000
0100
0100
0000
1000
0100
1000
1001
,
0000
0110
0000
0110
0000
1001
0100
0100
,
0200
0000
0000
1300
0000
0000
0100
0100
,
0200
0000
0000
0301
0000
0000
0001
0001
,
0002
0000
0000
0013
0000
0000
0100
0010
,
0020
0000
0130
1001
0000
0000
0100
1000
,
0200
0000
0000
0301
0000
0000
0001
0100
,
0002
0000
0000
1003
0000
0000
1000
0100
,
0010
0000
0000
0100
0000
0001
1000
0001
,
0200
0000
0310
0110
0000
0000
1010
0000
,
0011
0011
1010
1100
,
0101
0101
1100
0001
,
2000
0000
0000
3001
0000
0010
0010
0100
,
0100
0001
1000
1001
,
0001
0100
0010
0000
1000
0010
0100
0000
,
0001
0100
0010
0000
0100
0100
1000
0001
,
1000
0100
1000
0100
1000
0100
1000
0100
,
0001
0100
0001
0100
0001
0100
0001
0100
,
0001
0100
1000
0100
0001
0100
0001
0100
,
0010
0020
0000
0000
0100
0000
0130
0000
,
1000
1000
0001
0001
,
0000
1000
0001
1000
0001
0000
0000
0000
0010
0000
0000
0000
0010
0000
0100
0000
,
1000
0001
1000
0100
0010
0001
1000
0001
,
0100
0020
0000
0000
0100
0000
0130
0000
,
0010
0100
0010
1000
0010
0100
0010
0001
,
1001
1000
1001
0001
1001
1000
0100
2000
,
0000
0000
0000
0000
0000
3000
0000
0110
,
0000
0101
0000
1100
0000
0110
0000
1001
,
0000
0010
0010
0000
0100
0100
0010
0010
,
0000
0010
0001
0010
0000
0010
1000
0010
,
0000
1000
1000
0000
0100
0010
0001
1001
,
0000
0101
0000
0101
0000
1100
0000
1100
,
0000
2002
0000
0000
,
0000
0000
0000
0000
,
0000
0000
0000
3003
0000
0000
0000
0000
;

//---------------dance-single - BEGINNER----------------
#NOTES:
     dance-single:
     BEGINNER:
     Beginner:
     1:
     0.100,0.114,0.012,0.000,0.000,59.000,1.000,0.000,0.000,0.000:
0000
0000
0000
0000
,
0000
0000
0001
0000
,
1000
0000
0001
0000
,
1000
0000
0000
0000
,
0000
0000
0000
0000
,
0010
0000
0001
0000
,
0001
0000
1000
0000
,
0001
0000
0000
0000
,
0000
0000
0000
0000
,
0001
0000
1000
0000
,
0100
0000
0001
0000
,
0100
0000
1000
0000
,
0010
0000
0100
0000
,
1000
0000
0001
0000
,
1000
0000
0010
0000
,
1000
0000
0001
0100
,
0000
0000
0000
1000
,
1000
0000
0001
0000
,
1000
0000
0001
0000
,
0000
0100
0000
0010
,
0000
0100
0000
0000
,
1000
0000
1000
0000
,
0010
0000
0000
0000
,
1000
0000
1000
0000
,
1000
0000
1000
0000
,
1000
0000
1000
0000
,
0100
0000
0000
0000
,
1000
0000
0001
0000
,
0100
0000
0010
0000
,
0001
0000
0001
0000
,
0100
0000
0000
0000
,
0100
0000
0000
0000
,
0001
0000
0001
0000
,
1000
0000
0000
0000
,
0000
0000
0000
0000
,
0100
0000
0010
0000
,
0100
0000
0010
0000
,
0100
0000
0000
0000
,
0000
0000
0000
0000
,
0000
1001
0000
0000
;
