#TITLE:Venetian Spirit;
#SUBTITLE:;
#ARTIST:KaW;
#TITLETRANSLIT:;
#SUBTITLETRANSLIT:;
#ARTISTTRANSLIT:;
#CREDIT:;
#BANNER:venetianspirit-bn.png;
#BACKGROUND:venetianspirit-bg.png;
#LYRICSPATH:;
#CDTITLE:;
#MUSIC:VenetianSpirit.ogg;
#OFFSET:-0.020;
#SAMPLESTART:14.022;
#SAMPLELENGTH:14.000;
#SELECTABLE:YES;
#BPMS:0.000=135.000;
#STOPS:;
#BGCHANGES:;
// cache tags:
#FIRSTBEAT:16.000;
#LASTBEAT:224.000;
#SONGFILENAME:Songs/StepMix 1.0/Venetian Spirit/venetianspirit.sm;
#HASMUSIC:1;
#HASBANNER:1;
#MUSICLENGTH:99.555;
// end cache tags

//---------------dance-single - ----------------
#NOTES:
     dance-single:
     :
     Challenge:
     9:
     0.641,0.617,0.211,0.191,0.452,407.000,21.000,19.000,19.000,2.000:
0000
0000
0000
0000
,
0000
0000
0000
0000
,
0000
0000
0000
0000
,
0000
0000
0000
0000
,
1001
0000
0101
0000
0000
0110
0000
1000
,
0100
0000
0110
0000
0010
0001
0000
0101
,
1001
0000
1100
0000
1000
0001
1000
0100
,
0020
0000
0000
0000
0000
0000
0000
0000
0000
0000
0000
0000
0031
0000
0010
0001
,
0100
0001
0100
1000
0100
0001
0100
1000
,
0100
0010
0001
0010
1000
0100
0010
0001
,
0010
0000
0100
1000
0M00
0000
0000
0000
1000
0000
0002
0000
0100
0000
0000
0000
,
0203
0000
0000
0320
0000
0000
1030
0100
0010
0000
0000
0000
0010
0001
0010
0001
,
0010
0000
0000
0001
0000
0000
0100
0010
0000
0010
1000
0000
1000
0000
0001
0000
,
0010
0000
0010
0100
0000
0100
1000
0000
1000
0100
0000
0100
1000
0000
0010
0000
,
0100
0001
0000
0001
0010
0000
0000
0000
0001
0000
010M
0000
0000
0000
0010
0000
,
1000
0000
0000
1000
0100
0000
0000
0100
0010
0000
0000
0000
0011
0000
0010
0000
,
0001
0100
M0MM
0100
0010
1000
0MMM
1000
,
0010
0000
0100
0010
0000
0010
0100
0000
0000
0000
0100
0000
0001
0000
1000
0000
,
1001
0000
0000
1000
0001
0000
0100
0000
1010
0000
0000
0010
1000
0000
0100
0000
,
0110
0000
0000
0010
0001
0000
0010
0000
0001
0100
0000
0100
0010
0000
1000
0000
,
0001
0010
MM0M
0010
0001
0100
M0MM
0100
,
0010
2000
0001
3001
0000
0001
0010
0100
,
1000
0000
0010
1000
0000
0010
1000
0000
0010
0000
0100
0010
0000
0100
0010
0000
,
0100
0000
0001
0010
0001
0000
0010
0000
0011
0000
0000
0000
1100
0000
0000
0000
,
1000
0200
1000
1300
0020
0000
1030
0001
,
0020
0000
0000
0000
0000
0000
0130
0000
1000
0010
0000
0100
0010
0M00
0000
0000
,
1000
0002
0100
0103
0020
0000
1030
0100
,
0020
0000
0000
0000
0000
0000
0031
0000
0010
0001
0000
0100
0010
0M00
0000
0000
,
0100
0020
1000
1030
0200
0000
0310
0001
,
2000
0000
0000
0000
0000
0000
3001
0000
0010
0100
0000
1000
0001
M000
0000
0000
,
0100
0001
1000
0001
0010
0001
0100
0002
,
2000
0000
0000
0000
0010
0000
0010
3003
,
1000
0100
0001
0100
0010
0001
0010
0100
,
1000
0000
0010
0000
1000
0100
0020
0000
0000
0031
0100
0000
0010
0000
1000
0000
,
0100
1000
0100
1000
0100
0010
0100
0010
,
0001
0000
0010
0000
0001
0000
0010
0000
0100
1000
0000
1000
0010
0000
1001
0000
,
0001
0000
0001
0100
0001
0000
0010
0000
0100
0000
0100
1000
0100
0000
1000
0000
,
0001
0000
0200
0000
0010
0000
0010
0000
0300
0001
0010
0000
0001
0000
0100
0000
,
1010
0000
0000
1000
0100
0000
1000
0000
1010
0000
0000
0010
0100
0000
0001
0000
,
1001
0000
0000
0001
0010
0000
0001
0000
0100
0010
0000
0010
1000
0000
0001
0000
,
1000
0100
0001
0100
1000
0000
0100
0000
0010
0001
0010
1000
0010
0000
0100
0000
,
1000
0000
0010
1000
0000
0001
0100
0000
0000
0001
0100
0000
0010
0000
0010
0000
,
1000
0000
0100
0010
0000
0100
1000
0000
0010
0000
0100
0010
0000
0100
0001
0000
,
0010
0000
0100
1000
0000
0010
1000
0000
0010
0100
0000
0001
0010
0000
0001
0000
,
0100
0001
0100
1000
0100
0000
0010
0000
1000
0100
0001
0100
1000
0000
0100
0000
,
1000
0000
0001
0100
0000
0010
1000
0000
0000
0010
0100
0000
0001
0000
0001
0000
,
1000
0000
0000
0100
0010
0000
0001
0000
0100
0000
0000
0001
0100
0000
0010
0000
,
0100
0010
0000
0010
1000
0000
1000
0100
0000
0100
0010
0000
0011
0000
0000
0000
,
1001
0001
0100
1000
0100
0010
0001
0010
,
1000
0100
0001
0100
1000
0100
0010
0001
,
1000
0001
1000
0000
0010
0000
00M0
0000
0001
1000
0001
0000
0010
0000
00M0
0000
,
1001
0000
0000
0101
0000
0000
0001
0100
0010
0000
0000
0000
0010
1000
0100
1000
,
0010
0000
1000
0000
0100
0000
2000
0000
0000
0010
0000
0000
0001
0000
0001
0000
,
3001
0000
0100
0000
0010
0000
1000
0100
0000
0000
1000
0000
0010
0000
0000
0000
,
1000
0001
0000
0100
0010
0000
0100
0000
0001
0000
0010
0000
0100
0000
1000
0000
,
0001
0000
0010
0000
0001
0000
1000
0000
0010
0000
0100
0001
0100
0001
0010
0000
;

//---------------dance-single - ----------------
#NOTES:
     dance-single:
     :
     Hard:
     9:
     0.677,0.673,0.151,0.583,0.563,399.000,15.000,58.000,5.000,0.000:
0000
0000
0000
0000
,
0000
0000
0000
0000
,
0000
0000
0000
0000
,
0000
0000
0000
0000
,
1001
0000
0110
0000
0000
1100
0000
0001
,
0101
0000
1100
0000
0100
1000
0000
1000
,
0010
0000
0010
0000
0010
1000
0010
0200
,
0001
0000
0000
0000
1000
0000
0000
0000
0310
0000
0000
0000
1001
0000
0001
1000
,
0002
0000
0000
0000
0000
0000
0000
0000
0000
0000
0000
0000
0200
0000
0000
0000
0000
0000
0003
0000
0000
0000
0000
0000
0000
0000
0000
0000
0000
0000
0020
0000
0300
0000
0000
0000
0000
0000
0000
2000
0000
0000
0030
0000
0000
0000
0000
0000
,
0200
0000
0000
0000
3000
0000
0000
0000
0000
0000
0000
0000
0002
0000
0000
0300
0000
0000
0000
0000
0000
0000
0000
0000
0200
0000
0000
0000
0000
0000
0003
0000
0000
0000
0000
0000
2000
0000
0000
0300
0000
0000
0000
0000
0000
0000
0000
0000
,
3010
0000
0100
0001
0000
0000
0000
0000
0001
0000
1000
0000
0020
0000
0000
0000
,
1030
0000
0000
0010
0000
0000
0100
0001
0010
0000
0000
0000
0001
1000
0001
1000
,
0010
0000
0000
0100
0000
0000
0001
0000
0000
1000
0000
0000
0100
0000
0010
0000
,
0001
0000
0000
1000
0000
0000
0010
0000
0000
0100
0000
0000
0001
0000
0000
0000
,
0001
0100
0000
0100
0010
0000
0000
0000
0100
0000
0010
0000
0000
0000
0010
0000
,
1000
0100
0010
0001
0100
0010
1000
0100
0010
0000
0001
0000
0100
0000
0002
0000
,
0010
0013
00M0
2000
0100
3100
0M00
1000
,
0010
0000
1000
0100
0000
0100
1000
0000
0000
0000
1000
0000
0100
0000
0010
0000
,
1001
0000
0001
0100
0000
0100
0010
0000
0110
0000
0010
1000
0000
1000
0001
0000
,
1001
0000
1000
0100
0000
0100
0010
0000
0001
1000
0000
1000
0010
0000
1000
0000
,
0002
0010
00M3
1000
0020
0100
0M30
1000
,
0100
0001
0100
1000
0000
0001
0100
0010
,
1000
0000
0001
0010
0000
0001
0100
0000
0010
0000
1000
0100
0000
1000
0010
0000
,
0100
0001
1000
0001
1001
0000
1001
0000
,
2000
0000
0000
0200
3000
0000
0020
0300
0002
0030
0000
0000
2003
0000
0020
3000
,
0200
0030
0000
0000
0000
0000
0301
0000
1000
0001
0000
0100
0010
0000
1000
0000
,
0200
0000
0000
0302
0000
0000
0203
0000
2000
0300
0000
0000
3020
0000
0200
0030
,
0002
0000
0300
0000
0000
0000
1003
0000
0100
0010
0000
0001
0100
0000
0010
0000
,
0200
0000
0000
0302
0000
0000
0020
0003
2000
0000
0030
0000
0002
3000
0200
0003
,
2000
0000
0300
0000
0000
0000
3001
0000
0100
0010
0000
1000
0100
0000
0010
0000
,
0002
0000
0000
0000
0000
0000
0000
0000
0000
0020
0000
0000
0003
0000
0000
0000
0000
0000
2000
0000
0030
0000
0000
0000
0020
0000
0000
0000
0000
0000
3000
0000
0000
0000
0000
0000
0032
0000
0000
0000
0000
0000
0200
0000
0000
0003
0000
0000
,
2000
0300
0000
0000
0000
0000
3100
0000
1001
0000
0000
0000
1001
0000
0000
0000
,
1000
0000
0001
0100
0000
0100
0010
0000
1000
0000
0010
1000
0000
1000
0001
0000
,
0100
0000
0001
0010
0000
0010
0100
0000
0000
0100
1000
0000
0010
0000
0100
0000
,
1000
0000
0100
0001
0000
0001
0010
0000
1000
0000
0010
0001
0000
0001
1000
0000
,
0001
0000
0100
0010
0000
0010
0001
0000
0001
0010
0000
0010
1000
0000
0001
0000
,
1000
0000
0010
0100
0010
0000
1000
0000
0001
0000
0010
0100
0010
0000
0100
0000
,
2000
0000
0001
0000
0001
0000
3001
0000
0000
0001
1000
0000
0100
0000
0001
0000
,
0100
0000
1000
0100
0000
0100
0010
0000
0001
0000
0100
0010
0000
0010
1000
0000
,
0010
0000
0001
0010
0000
0010
0100
0000
0010
1000
0000
1000
0001
0000
0100
0000
,
0001
1000
0001
0100
0001
0000
0010
0000
0100
1000
0010
1000
0001
0000
0100
0000
,
0001
0000
1000
0001
0000
0001
1000
0000
0000
0100
0001
0000
0010
0000
0100
0000
,
1000
0000
0100
0010
0000
0010
0100
0000
1000
0000
0010
0100
0000
0100
0010
0000
,
0100
0000
0001
0010
0000
0100
1000
0000
0001
0100
0000
0100
0010
1000
0100
0000
,
1000
0010
0100
0001
1000
0000
0010
0000
1000
0001
0010
0100
1000
0000
0001
0000
,
0100
0000
0001
1000
0000
0001
0100
0000
0000
0100
0001
0000
0010
0000
0001
0000
,
0010
0000
0100
1000
0000
0100
0010
0000
0001
0000
0010
0100
0000
1000
0100
0000
,
0010
0000
0001
0100
0000
0001
0010
0000
0110
0000
0000
0000
1001
0000
0000
0000
,
2000
0000
0000
0000
0002
0000
3000
0000
0000
0103
0010
0000
1000
0000
0010
0000
,
2000
0000
0000
0000
3020
0000
0000
0000
0000
0130
0001
0000
0100
0000
0010
0000
,
1000
0000
0001
0100
0000
0000
0000
0000
0001
0000
0100
0000
2000
0000
0000
0000
,
0200
3000
0000
0002
0300
0000
1003
0010
0100
0000
0000
0000
0001
1000
0001
0000
,
0020
0000
0000
0200
0030
0000
2000
0300
0000
0020
3000
0000
0130
0000
0010
0000
,
2000
0000
0000
0002
3000
0000
0020
0003
0000
0200
0030
0000
1300
0000
0000
0000
,
0100
0010
0000
0010
0001
0000
0000
0000
0100
0000
0010
0000
0M00
0000
0010
0000
,
1000
0000
0010
1000
0100
0010
0001
0010
0100
0000
0010
0000
0001
0100
0010
0000
;

//---------------dance-single - ----------------
#NOTES:
     dance-single:
     :
     Medium:
     7:
     0.496,0.533,0.131,0.221,0.020,311.000,13.000,22.000,0.000,0.000:
0000
0000
0000
0000
,
0000
0000
0000
0000
,
0000
0000
0000
0000
,
0000
0000
0000
0000
,
1000
0000
0100
0000
0000
0010
0000
0001
,
1000
0000
1001
0000
0000
0001
0000
1000
,
0100
0000
1000
0000
0001
0010
0000
0010
,
0001
0000
0000
0000
,
2000
0000
3001
0000
0001
0010
0001
0010
,
0002
0000
0103
0000
0010
1000
0010
1000
,
0020
0130
2000
3001
,
0001
1000
0001
0000
1001
0000
0000
0000
,
1000
0100
1000
0100
0010
0001
0010
0000
,
0001
0100
0001
0100
0010
1000
0010
0000
,
1000
0001
0100
0000
0100
0010
0000
0010
,
1000
0000
1100
0000
1001
0000
0000
1000
,
0001
1000
0000
0010
0100
0010
0000
1000
,
0100
0010
0001
0100
0001
0000
1001
0000
,
1000
0100
1000
0010
1000
0100
0010
0100
,
0010
0001
0100
0010
1000
0010
0000
1000
,
0010
1000
0000
0001
0100
0001
0000
1000
,
0100
1000
0001
0001
0000
0001
1000
0100
,
1000
0100
0010
0001
0010
0001
0100
0001
,
0100
0010
1000
0000
1001
0000
1001
0000
,
2000
3100
0002
0013
,
0200
0000
0310
0000
1000
0001
1000
0001
,
0200
0310
2000
3001
,
0002
0000
0013
0000
1000
0010
1000
0010
,
0200
0301
0020
0130
,
2000
0000
3001
0000
0001
1000
0100
1000
,
0002
1003
0020
0130
,
2000
3010
0110
0110
,
1000
0010
0100
0010
1000
0010
0100
0010
,
1000
0001
1000
0001
0000
0001
0100
0010
,
1000
0001
1000
0010
1000
0001
1000
0100
,
1000
0001
0100
0010
0000
0010
1000
0100
,
1000
0001
0000
0001
1000
0100
0000
0100
,
1000
0010
0100
0000
0100
0001
1000
0000
,
0001
0100
0010
1000
0010
0100
0001
1000
,
0100
0010
0001
0100
0010
0000
1001
0000
,
1000
0100
1000
0000
0100
0000
0010
0000
0001
0010
0001
0000
0010
0000
0001
0000
,
0100
0001
1000
0001
0000
1000
0100
0010
,
0100
1000
0001
0000
0001
0100
0010
0000
,
0010
1000
0100
0010
0002
0000
0103
0000
,
0100
0001
0100
0000
0001
0000
0100
0000
0010
1000
0010
0000
1000
0000
0010
0000
,
1000
0200
1000
1300
0000
1000
0010
0100
,
0100
0001
0100
0000
0001
1000
0001
0000
,
1000
0100
1000
0000
1001
0000
1001
0000
,
2000
0000
3002
0000
0103
0001
0100
0001
,
0200
0000
0320
0000
1030
0001
1000
0001
,
1000
1000
1000
0000
0001
0001
0001
0000
,
1000
0010
1001
0001
,
1000
0100
1000
0100
0000
0100
1000
0001
,
1000
0001
0100
0001
0000
0001
1000
0000
,
1000
0100
1000
0000
1000
0001
1000
0000
,
0001
1000
0001
0100
0001
1000
0001
0010
;

//---------------dance-single - ----------------
#NOTES:
     dance-single:
     :
     Easy:
     4:
     0.304,0.421,0.291,0.301,0.000,153.000,29.000,30.000,0.000,0.000:
0000
0000
0000
0000
,
0000
0000
0000
0000
,
0000
0000
0000
0000
,
0000
0000
0000
0000
,
1000
0100
0000
0000
,
1000
0010
0000
0001
,
1000
0001
1000
0001
,
1001
0000
0000
0000
,
2000
3001
0000
0000
,
0002
1003
0000
0000
,
1000
1000
0001
0001
,
0100
0100
1001
0000
,
1000
0100
1000
0010
,
1000
0001
1000
0001
,
0020
0000
0230
0000
,
1300
0001
1001
0000
,
2200
3300
0202
0303
,
1001
0110
1001
0000
,
1000
0100
0010
0001
,
0100
0010
1000
0001
,
0022
0033
2200
3300
,
1001
0110
1001
0000
,
0001
1000
0001
0100
,
0001
1000
1001
1001
,
0002
0000
0010
0000
,
2003
0000
0010
0000
,
3002
0000
0100
0000
,
2003
0000
0100
0000
,
3020
0000
1000
0000
,
0230
0000
0001
0000
,
0302
0000
0000
0000
0000
0000
0000
0000
2000
0000
0000
0000
0000
3003
0000
0000
,
1001
0000
0000
0000
,
1000
0100
1000
0010
,
0100
0001
0200
0000
,
0301
1000
0010
1000
,
0100
0010
0002
0000
,
0103
0100
0100
0000
,
0010
0010
0010
0000
,
1001
0000
0110
0000
,
1010
0000
0101
0000
,
2000
0001
3002
1000
,
1003
0100
1100
0000
,
1000
0001
0100
0001
,
1000
0010
1010
0000
,
0020
1000
2030
0100
,
3100
0010
0011
0000
,
0010
0100
1000
0010
,
0100
0000
1001
1001
,
0002
0000
2000
0000
0000
3003
0000
0000
,
2000
0000
0200
0000
0000
3300
0000
0000
,
1000
1000
0001
0001
,
0100
0010
0110
0000
,
1000
0100
1000
0100
,
0010
0100
0010
0001
,
0011
0000
1001
0000
,
0101
0000
0100
0000
0010
0000
1000
0001
;

//---------------dance-single - ----------------
#NOTES:
     dance-single:
     :
     Beginner:
     1:
     0.139,0.169,0.090,0.000,0.000,88.000,9.000,0.000,0.000,0.000:
0000
0000
0000
0000
,
0000
0000
0000
0000
,
0000
0000
0000
0000
,
0000
0000
0000
0000
,
1000
0000
0000
0000
,
0010
0000
0000
0000
,
0100
0000
0001
0000
,
1001
0000
0000
0000
,
0001
0001
0000
0000
,
1000
1000
0000
0000
,
0001
0000
1000
0000
,
1001
0000
0000
0000
,
0100
0000
0001
0000
,
1000
0000
0001
0000
,
1001
0000
0010
0000
,
1001
0000
0000
0000
,
0100
0000
0001
0000
,
1000
0000
0000
0000
,
1001
0000
0000
0000
,
0001
0000
1000
0000
,
0001
0000
1000
0000
,
0010
0000
0100
0000
,
0001
0000
1000
0000
,
0001
0000
1001
0000
,
0010
0000
1000
0000
,
0001
0000
0000
0000
,
1000
0000
0001
0000
,
0010
0000
0000
0000
,
0001
0000
0010
0000
,
0100
0000
0000
0000
,
0010
0000
0100
0000
,
1000
0000
0000
0000
,
0001
0000
1000
0000
,
0001
0000
0000
0000
,
0010
0000
0100
0000
,
0010
0000
0000
0000
,
0001
0000
1000
0000
,
0100
0000
0000
0000
,
1000
0000
0100
0000
,
0010
0000
0001
0000
,
1000
1000
0000
0000
,
0001
0001
0000
0000
,
0010
0000
0100
0000
,
1000
0000
0001
0000
,
0100
0100
0000
0000
,
0010
0010
0000
0000
,
1001
0000
0100
0000
,
0010
0000
1000
0000
,
0001
0000
0000
0000
,
0010
0010
0000
0000
,
0100
0000
1000
0000
,
0001
0000
1001
0000
,
0100
0000
0000
0000
,
0001
0000
0000
0000
,
1000
0000
0001
0000
,
0010
0000
0100
0000
,
1001
0000
0000
0000
;
