#TITLE:DrEaM;
#SUBTITLE:;
#ARTIST:dJ B1u3Sh4rK;
#TITLETRANSLIT:;
#SUBTITLETRANSLIT:;
#ARTISTTRANSLIT:;
#CREDIT:;
#BANNER:dJ B1u3Sh4rK - DrEaM-banner.png;
#BACKGROUND:dJ B1u3Sh4rK - DrEaM-bg.png;
#LYRICSPATH:;
#CDTITLE:;
#MUSIC:dJ B1u3Sh4rK - DrEaM.mp3;
#OFFSET:-1.800;
#SAMPLESTART:50.997;
#SAMPLELENGTH:12.000;
#SELECTABLE:YES;
#BPMS:0.000=140.000;
#STOPS:32.000=6.340
;
#BGCHANGES:;
// cache tags:
#FIRSTBEAT:0.000;
#LASTBEAT:176.000;
#SONGFILENAME:Songs/StepMix 2/DrEaM/dJ B1u3Sh4rK - DrEaM.sm;
#HASMUSIC:1;
#HASBANNER:1;
#MUSICLENGTH:84.035;
// end cache tags

//---------------dance-single - ----------------
#NOTES:
     dance-single:
     :
     Easy:
     5:
     0.291,0.314,0.214,0.071,0.000,147.000,18.000,6.000,51.000,0.000:
100M
M001
0000
0000
,
100M
M001
0000
0000
,
100M
M001
0000
0000
,
100M
M001
0000
0000
,
M001
100M
0000
0000
,
M001
100M
0000
0000
,
M001
100M
0000
0000
,
M001
100M
0000
0000
,
1001
100M
M001
1001
,
M001
100M
M001
100M
,
1001
0010
0100
0010
,
0110
0100
0010
0100
,
0110
1000
0010
1000
,
1010
0010
1000
0010
,
1010
0001
0100
0001
,
0101
0001
0100
0001
,
0202
0000
0000
0000
0000
0000
0000
0000
0000
0000
0000
0000
0000
0000
0000
0000
0000
0000
0000
0000
0000
0000
0000
0000
0000
0000
0000
0000
0000
0000
0000
0000
0000
0000
0000
0000
0000
0000
0000
0000
0000
0000
0000
0000
0000
0000
0000
0000
0000
0000
0000
0000
0000
0000
0000
0000
0000
0000
0000
0000
0003
0300
0000
0000
,
0M0M
1000
M010
1000
,
0001
0100
0M10
1000
,
0100
001M
1000
01M0
,
1000
M010
0100
100M
,
0010
M100
0010
0100
,
001M
0100
1000
00M1
,
1000
M010
0100
0010
,
1000
001M
0100
0010
,
1M00
0001
1000
0001
,
10M1
0010
0100
0010
,
0110
1M00
0001
1000
,
1001
0010
10M0
0010
,
1010
0001
0100
0001
,
0101
M001
1000
0001
,
1001
0010
10M0
0010
,
1010
0001
1000
0010
,
01M0
0000
0000
0220
0000
0000
0000
0000
0000
0000
0000
0330
,
0MM0
1000
0010
1000
,
0001
1000
0010
0100
,
100M
0001
1000
0010
,
M100
1000
0010
1000
,
0001
0100
0010
1000
,
0100
100M
0010
0001
,
0100
M010
1000
0001
,
0100
0010
1000
00M1
,
0100
2002
0000
0000
,
0000
0000
0000
0000
0000
0000
0000
0000
0000
0000
0000
0000
0000
0000
0000
0000
0000
0000
0000
0000
0000
0000
0000
3003
,
M00M
0000
0000
0000
;

//---------------dance-single - Copied from----------------
#NOTES:
     dance-single:
     Copied from:
     Beginner:
     2:
     0.291,0.314,0.214,0.071,0.000,147.000,18.000,6.000,0.000,0.000:
1000
0001
0000
0000
,
1000
0001
0000
0000
,
1000
0001
0000
0000
,
1000
0001
0000
0000
,
0001
1000
0000
0000
,
0001
1000
0000
0000
,
0001
1000
0000
0000
,
0001
1000
0000
0000
,
1001
1000
0001
1001
,
0001
1000
0001
1000
,
1001
0010
0100
0010
,
0110
0100
0010
0100
,
0110
1000
0010
1000
,
1010
0010
1000
0010
,
1010
0001
0100
0001
,
0101
0001
0100
0001
,
0202
0000
0000
0000
,
0303
1000
0010
1000
,
0001
0100
0010
1000
,
0100
0010
1000
0100
,
1000
0010
0100
1000
,
0010
0100
0010
0100
,
0010
0100
1000
0001
,
1000
0010
0100
0010
,
1000
0010
0100
0010
,
1000
0001
1000
0001
,
1001
0010
0100
0010
,
0110
1000
0001
1000
,
1001
0010
1000
0010
,
1010
0001
0100
0001
,
0101
0001
1000
0001
,
1001
0010
1000
0010
,
1010
0001
1000
0010
,
0100
0220
0000
0000
,
0330
1000
0010
1000
,
0001
1000
0010
0100
,
1000
0001
1000
0010
,
0100
1000
0010
1000
,
0001
0100
0010
1000
,
0100
1000
0010
0001
,
0100
0010
1000
0001
,
0100
0010
1000
0001
,
0100
2002
0000
0000
,
0000
0000
0000
0000
,
3003
0000
0000
0000
;

//---------------dance-single - Copied from----------------
#NOTES:
     dance-single:
     Copied from:
     Medium:
     6:
     0.389,0.471,0.595,0.095,0.006,171.000,50.000,8.000,55.000,0.000:
100M
M001
0000
0000
,
100M
M001
0000
0000
,
100M
M001
0000
0000
,
100M
0000
M001
0000
0010
0100
0001
0000
,
M001
100M
0000
0000
,
M001
100M
0000
0000
,
M001
100M
0000
0000
,
M001
0000
100M
0100
0010
1000
0001
0000
,
1MM1
100M
M001
1001
,
M001
100M
M001
100M
,
1001
0000
0010
0000
0100
1000
0010
0000
,
0110
0000
0100
0001
0010
0000
0100
0000
,
0110
0000
1000
0100
0010
0000
1000
0000
,
1010
0000
0010
0100
1000
0000
0010
0000
,
1010
0000
0001
1000
0100
0000
0001
0000
,
0101
0000
0001
0000
0100
0001
0001
0000
,
0202
0000
0000
0000
0000
0000
0000
0000
0000
0000
0000
0000
0000
0000
0000
0000
0000
0000
0000
0000
0000
0000
0000
0000
0000
0000
0000
0000
0000
0000
0000
0000
0000
0000
0000
0000
0000
0000
0000
0000
0000
0000
0000
0000
0000
0000
0000
0000
0000
0000
0000
0000
0000
0000
0000
0000
0000
0000
0000
0000
0003
0300
0000
0000
,
0M0M
1001
M101
1100
,
0011
1100
0M11
1001
,
0101
011M
1010
01M1
,
1010
M110
0101
110M
,
1010
M110
1010
0101
,
011M
0101
1100
10M1
,
1010
M011
1100
0110
,
1010
101M
0101
1010
,
1M00
0001
1000
0001
,
10M1
0000
0010
1000
0100
0000
0010
0000
,
0110
0000
1M00
0100
0001
0000
1000
0000
,
1001
0000
0010
1000
10M0
0000
0010
0000
,
1010
0000
0001
1000
0100
0000
0001
1000
,
0101
0000
M001
0000
1000
0001
0001
0000
,
1001
0000
0010
0100
10M0
0000
0010
0000
,
1010
0000
0001
0100
1000
0100
0010
0001
,
01M0
0000
0000
0220
0000
0000
0000
0000
0000
0000
0000
0330
,
0MM0
1000
0010
1000
,
0001
1000
0010
0100
,
100M
0001
1000
0010
,
M100
1000
0010
1000
,
0001
0100
0010
1000
,
0100
100M
0010
0001
,
0100
M010
1000
0001
,
0100
0010
1000
00M1
,
0100
0000
0000
0000
2002
0000
0000
0000
0000
0000
0000
0000
3003
M00M
2002
0000
,
0000
0000
0000
0000
0000
0000
0000
0000
0000
0000
0000
0000
0000
0000
0000
3003
,
M00M
0000
0000
0000
;

//---------------dance-single - Copied from Copied f----------------
#NOTES:
     dance-single:
     Copied from Copied f:
     Hard:
     8:
     0.469,0.471,0.654,0.095,0.006,212.000,55.000,8.000,83.000,3.000:
100M
0000
M001
0000
0010
0100
0000
1000
,
100M
0000
M001
0000
1000
0010
0000
0100
,
100M
0000
M001
0000
1000
0010
0000
0100
,
100M
0000
M001
0000
0010
0100
0001
0100
,
M001
0000
100M
0010
0001
0100
1000
0000
,
M001
0000
100M
0100
1000
0001
0010
0000
,
M001
0000
100M
0100
0001
1000
0001
0010
,
M001
0000
100M
0100
0010
1000
0001
0000
,
1MM1
100M
M011
1101
,
M101
0011
M011
100M
,
01M1
0000
0010
0000
0100
1000
0010
0000
,
0110
M000
0100
0001
0010
000M
0100
0000
,
1M10
0000
1000
0100
0010
000M
1000
0000
,
1M10
0000
0010
0100
1000
00M0
0010
0000
,
1010
0000
0001
1000
0100
M000
0001
0000
,
01M1
0000
0001
M000
0100
0001
0001
0000
,
0202
0000
0000
0000
0000
0000
0000
0000
00M0
0000
0000
0000
0000
0000
0000
0000
1000
0000
0000
0000
0000
0000
0000
0000
M000
0000
0000
0000
0000
0000
0000
0000
0010
0000
0000
0000
0000
0000
0000
0000
0000
0000
0000
0000
0000
0000
0000
0000
0000
0000
0000
0000
0000
0000
0000
0000
0000
0000
0000
0000
0003
0300
0000
0000
,
0M0M
1001
M101
1100
,
0011
1100
0M11
1001
,
0101
M11M
1010
01M1
,
1010
M110
01M1
110M
,
1010
M110
101M
0101
,
M11M
0101
1100
10M1
,
1010
M011
1100
0110
,
1M10
101M
0101
1010
,
1M00
0000
0MM1
0MM0
1000
0000
0001
0000
,
10M1
0000
0010
10M0
0100
000M
0010
000M
,
0110
000M
1M00
0100
00M1
0000
10M0
0M00
,
1001
0000
0M10
1000
10M0
0000
0010
0000
,
1010
0000
0001
1000
0100
0000
0001
1000
,
0101
0000
M001
0000
1MM0
0001
0001
0000
,
1001
0000
0010
0100
10M0
0000
0010
0000
,
1010
0000
0001
0100
1000
0100
0010
0001
,
01M0
0000
0000
0220
0000
0000
0000
0000
0000
0000
0000
0330
,
0MM0
0000
1000
0001
0010
0100
0000
1000
,
0010
0001
0100
1000
0010
0100
1000
0100
,
0001
0010
0100
1000
0010
0100
0001
0100
,
0000
1000
0100
1000
0001
0100
1000
0010
,
0100
1000
0001
0100
1000
0010
0100
0000
,
1010
100M
0010
0001
,
0100
M010
1000
0001
,
0100
0010
1000
00M1
,
0100
0000
0000
0000
2002
0000
0000
0000
0000
0000
0000
0000
3003
M00M
2002
0000
,
0000
0000
0000
0000
0000
0000
0000
0000
0000
0000
0000
0000
0000
0000
0000
3003
,
M00M
0000
0000
0000
;

//---------------dance-single - Copied from----------------
#NOTES:
     dance-single:
     Copied from:
     Challenge:
     9:
     0.308,0.340,0.286,0.095,0.000,149.000,24.000,8.000,517.000,0.000:
1MMM
MMM1
MMMM
MMMM
,
1MMM
MMM1
MMMM
MMMM
,
1MMM
MMM1
MMMM
MMMM
,
1MMM
MMM1
MMMM
MMMM
,
MMM1
1MMM
MMMM
MMMM
,
MMM1
1MMM
MMMM
MMMM
,
MMM1
1MMM
MMMM
MMMM
,
MMM1
1MMM
MMMM
MMMM
,
1MM1
1MMM
MMM1
1MM1
,
MMM1
1MMM
MMM1
1MMM
,
1MM1
MM1M
M1MM
MM1M
,
M11M
M1MM
MM1M
M1MM
,
M11M
1MMM
MM1M
1MMM
,
1M1M
MM1M
1MMM
MM1M
,
1M1M
MMM1
M1MM
MMM1
,
M1M1
MMM1
M1MM
MMM1
,
M2M2
0000
0000
0000
0000
0000
0000
0000
0000
0000
0000
0000
0000
0000
0000
0000
M0M0
0000
0000
0000
0000
0000
0000
0000
0000
0000
0000
0000
0000
0000
0000
0000
M0M0
0000
0000
0000
0000
0000
0000
0000
0000
0000
0000
0000
0000
0000
0000
0000
M0M0
0000
0000
0000
0000
0000
0000
0000
0000
0000
0000
0000
0003
0300
0000
0000
,
MMMM
1MMM
MM1M
1MMM
,
MMM1
M1MM
MM1M
1MMM
,
M1MM
M11M
1MMM
M11M
,
1MMM
MM1M
M1MM
1MMM
,
MM1M
M1MM
MM1M
M1MM
,
MM1M
M1MM
1MMM
MMM1
,
1MMM
MM1M
M1MM
MM1M
,
1MMM
MM1M
M1MM
MM1M
,
1MMM
MMM1
1MMM
MMM1
,
1MM1
MM1M
M1MM
MM1M
,
M11M
11MM
MMM1
1MMM
,
1MM1
MM1M
1MMM
MM1M
,
1M1M
MMM1
M1MM
MMM1
,
M1M1
MMM1
1MMM
MMM1
,
1MM1
MM1M
1MMM
MM1M
,
1M1M
MM1M
1MMM
MM1M
,
M1MM
0000
0000
M22M
0000
0000
M00M
0000
0000
M00M
0000
0330
,
MMMM
1MMM
MM1M
1MMM
,
MMM1
1MMM
MM1M
M1MM
,
1MMM
MMM1
1MMM
MM1M
,
M1MM
1MMM
MM1M
1MMM
,
MMM1
M1MM
MM1M
1MMM
,
M1MM
1MMM
MM1M
MMM1
,
M1MM
MM1M
1MMM
MMM1
,
M1MM
MM1M
1MMM
MMM1
,
11MM
0000
0000
0000
0000
0000
0000
0000
0000
0000
0000
0000
0000
0000
0000
0000
2MM2
0000
0000
0000
0000
0000
0000
0000
0000
0000
0000
0000
0000
0000
0000
0000
0MM0
0000
0000
0000
0000
0000
0000
0000
0000
0000
0000
0000
0000
0000
0000
0000
0MM0
0000
0000
0000
0000
0000
0000
0000
0000
0000
0000
0000
0000
3003
0000
0000
,
M11M
0000
0000
0000
0000
0000
0000
0000
0000
0000
0000
0000
0000
0000
0000
0000
2MM2
0000
0000
0000
0000
0000
0000
0000
0000
0000
0000
0000
0000
0000
0000
0000
0MM0
0000
0000
0000
0000
0000
0000
0000
0000
0000
0000
0000
0000
0000
0000
0000
0MM0
0000
0000
0000
0000
0000
0000
0000
0000
0000
0000
0000
0000
3003
0000
0000
,
MMMM
0000
0000
0000
;
