#TITLE:MAX Forever;
#SUBTITLE:;
#ARTIST:DM Ashura;
#TITLETRANSLIT:;
#SUBTITLETRANSLIT:;
#ARTISTTRANSLIT:;
#CREDIT:;
#BANNER:max4e.png;
#BACKGROUND:max4e-bg.png;
#LYRICSPATH:;
#CDTITLE:kcd.png;
#MUSIC:MAX Forever.mp3;
#OFFSET:-12.874;
#SAMPLESTART:25.154;
#SAMPLELENGTH:13.204;
#SELECTABLE:YES;
#BPMS:0.000=150.000,32.000=300.000,416.000=150.000,480.000=300.000;
#STOPS:;
#BGCHANGES:;
// cache tags:
#FIRSTBEAT:0.000;
#LASTBEAT:1519.000;
#SONGFILENAME:Songs/StepMix 1/MAX Forever/max4e.sm;
#HASMUSIC:1;
#HASBANNER:1;
#MUSICLENGTH:342.470;
// end cache tags

//---------------dance-single - ----------------
#NOTES:
     dance-single:
     :
     Hard:
     10:
     0.746,0.943,0.415,0.020,0.000,1639.000,142.000,7.000,0.000,0.000:  // measure 1
1000
0100
1000
0100
,  // measure 2
0010
0001
0100
0000
0010
1000
0100
0010
,  // measure 3
0001
0000
1100
0000
0010
0100
0001
0000
,  // measure 4
1000
0010
0100
0001
1000
0010
0100
0000
,  // measure 5
1010
0101
0011
1100
,  // measure 6
0010
0100
0001
1000
0010
0100
0001
0000
,  // measure 7
1000
0100
1000
0010
0100
0001
0010
0001
,  // measure 8
0100
1010
0011
1100
,  // measure 9
0001
0000
0010
0000
0100
1000
0000
0100
,  // measure 10
1000
0000
0010
0000
0100
0001
0000
0100
,  // measure 11
0001
0000
1000
0000
0010
0100
0000
0001
,  // measure 12
1000
0010
0101
1000
,  // measure 13
0010
0000
0100
0001
0100
0001
0010
0001
,  // measure 14
0010
0000
0001
1000
0001
1000
0100
1000
,  // measure 15
0100
0000
0010
0000
0001
1000
0000
0100
,  // measure 16
0010
0001
1010
0100
,  // measure 17
0001
0000
0010
0000
0100
1000
0000
0100
,  // measure 18
1000
0000
0010
0000
0100
0001
0000
0100
,  // measure 19
0001
0000
1000
0000
0100
0010
0000
0001
,  // measure 20
1000
0010
1001
0100
,  // measure 21
1000
0000
0010
0100
0010
0100
0001
1000
,  // measure 22
0001
0000
0100
0010
0100
0010
1000
0001
,  // measure 23
1000
0000
0010
0000
0100
0001
0000
1000
,  // measure 24
0010
0100
1001
0010
,  // measure 25
0001
0000
1000
0000
0100
0010
0000
0100
,  // measure 26
0010
0000
0001
0000
1000
0100
0000
1000
,  // measure 27
0100
0000
0010
0000
0001
0100
0000
0001
,  // measure 28
0100
0010
1100
0001
,  // measure 29
0100
0000
0010
1000
0100
1000
0010
1000
,  // measure 30
0100
0000
0010
0001
0100
0001
0010
0001
,  // measure 31
0100
0000
0010
0000
1000
0001
0000
1000
,  // measure 32
0001
0010
1100
0010
,  // measure 33
0100
0000
0001
0000
1000
0100
0000
1000
,  // measure 34
0100
0000
0010
0000
0001
1000
0000
0001
,  // measure 35
1000
0000
0010
0000
0100
0001
0000
0100
,  // measure 36
0001
0010
0101
1000
,  // measure 37
0010
0000
0100
0001
1000
0010
0100
0001
,  // measure 38
1000
0010
1000
0010
0100
0001
0100
0001
,  // measure 39
1000
0100
1000
0100
0010
0001
0010
0001
,  // measure 40
0100
0010
1000
0001
0100
0010
1000
0001
,  // measure 41
0010
0000
1010
0000
,  // measure 42
0100
0100
1001
0000
,  // measure 43
0010
0000
0100
0000
0001
1000
0000
0001
,  // measure 44
1000
0010
1010
0000
,  // measure 45
0100
0001
1000
0010
,  // measure 46
0100
0001
1000
0010
,  // measure 47
0100
0100
0001
0001
,  // measure 48
0010
0100
1100
0000
,  // measure 49
0001
0010
0100
1000
,  // measure 50
0010
0100
0001
1000
,  // measure 51
0010
0100
0001
0010
,  // measure 52
0100
1000
0110
0000
,  // measure 53
0001
0010
0100
1000
,  // measure 54
0010
0100
0001
1000
,  // measure 55
0010
0010
0100
0100
,  // measure 56
0001
1000
1001
0000
,  // measure 57
0101
0000
0000
1010
0000
0000
0100
0000
,  // measure 58
0001
0010
0100
1000
,  // measure 59
1100
0000
0000
0101
0000
0000
1010
0000
,  // measure 60
1001
0000
0000
0011
0000
0000
0110
0000
,  // measure 61
1001
0000
0000
0011
0000
0000
1000
0000
,  // measure 62
0100
0000
1000
0000
0010
0100
0000
0001
,  // measure 63
0010
0000
0000
1010
0000
0000
0101
0000
,  // measure 64
1001
0010
1001
0000
,  // measure 65
0001
0000
0100
0000
0010
1000
0000
1000
,  // measure 66
0010
0000
0100
0000
0001
0010
0000
0010
,  // measure 67
0001
0000
0000
1010
0000
0000
0100
0000
,  // measure 68
1001
0000
0000
0010
0000
0000
0101
0000
,  // measure 69
1001
0000
0000
0010
1000
0010
0000
0100
,  // measure 70
0001
0000
0010
0000
0100
1000
0000
0100
,  // measure 71
1000
0000
0000
0101
0000
0000
0010
0000
,  // measure 72
1001
0100
1001
0000
,  // measure 73
0001
0010
0001
0010
,  // measure 74
0100
1000
0010
0100
,  // measure 75
0001
1000
0010
1000
,  // measure 76
0100
0010
0001
0000
,  // measure 77
1000
0100
1000
0100
,  // measure 78
0010
0001
0100
0010
,  // measure 79
1000
0001
0100
0001
,  // measure 80
0010
0100
1000
0000
,  // measure 81
0010
0100
0001
1000
,  // measure 82
0010
0100
0001
1000
,  // measure 83
0100
0010
0001
0100
,  // measure 84
0010
1000
0001
0000
,  // measure 85
0100
0010
1000
0001
,  // measure 86
0100
0010
1000
0001
,  // measure 87
0100
0010
1000
0100
,  // measure 88
0010
0000
1001
0000
,  // measure 89
0001
0000
0010
0000
0100
1000
0000
0010
,  // measure 90
0000
0100
0001
0000
0010
0000
0100
0000
,  // measure 91
1000
0000
0010
0000
0100
0001
0000
0010
,  // measure 92
0000
0100
1000
0000
0001
0000
0000
0000
,  // measure 93
1000
0000
0010
0000
0100
0001
0000
0010
,  // measure 94
0000
0100
1000
0000
0010
0000
0100
0000
,  // measure 95
0001
0000
0010
0000
0100
1000
0000
0010
,  // measure 96
0000
0100
0001
0000
0010
0000
0000
0000
,  // measure 97
0100
0000
1000
0000
0010
0100
0000
0001
,  // measure 98
0000
0010
0100
0000
1000
0000
0001
0000
,  // measure 99
0010
0000
0100
0000
1000
0001
0000
0100
,  // measure 100
0000
0010
1000
0000
0001
0000
0000
0000
,  // measure 101
1010
0000
1001
0000
,  // measure 102
0101
0000
1010
0000
,  // measure 103
0101
0000
1010
0000
,  // measure 104
1001
0000
0110
0000
,  // measure 105
2001
0000
0000
0000
,  // measure 106
0000
0000
0000
0000
3020
0000
0100
0030
,  // measure 107
0200
0000
0301
1000
0000
0010
0100
0000
,  // measure 108
0001
0100
0010
1000
,  // measure 109
0101
0000
1000
0000
0010
0000
0100
0001
,  // measure 110
1000
0010
1001
0100
,  // measure 111
0011
0000
1000
0100
0000
0010
0001
0000
,  // measure 112
1000
0110
0001
1010
,  // measure 113
0100
0001
1000
0010
0100
0001
1000
0100
,  // measure 114
0010
0001
0100
0010
1000
0100
1001
0000
,  // measure 115
0001
0100
0010
1000
0100
0010
0001
1000
,  // measure 116
0010
0100
0001
0010
0100
1000
0110
0000
,  // measure 117
0001
0100
0010
1000
0001
0100
0010
1000
,  // measure 118
0100
0010
0001
0100
0010
1000
0101
0000
,  // measure 119
0010
0100
1000
0010
0100
0001
0010
0100
,  // measure 120
1000
0010
0100
0001
0010
0100
1001
0000
,  // measure 121
1000
0000
0100
0000
0010
0001
0000
0010
,  // measure 122
0001
0000
0100
0000
0010
1000
0000
0010
,  // measure 123
1000
0000
0100
0000
0010
0001
0000
0010
,  // measure 124
0001
0100
1001
0000
,  // measure 125
0010
0000
0100
0000
0001
1000
0000
0010
,  // measure 126
1000
0000
0100
0000
0010
0001
0000
0100
,  // measure 127
0001
0000
0010
0000
0100
1000
0000
0010
,  // measure 128
0100
0001
1010
0000
,  // measure 129
0100
0000
0001
0000
1000
0010
1000
0010
,  // measure 130
1000
0000
0100
0000
0010
0001
0010
0001
,  // measure 131
0010
0000
0100
0000
1000
0001
0000
0100
,  // measure 132
0001
0010
1001
0000
,  // measure 133
0001
0000
0010
0100
0010
0100
1000
0100
,  // measure 134
1000
0000
0001
0010
0001
0010
0100
0010
,  // measure 135
0100
0000
1000
0000
0001
0010
0000
0001
,  // measure 136
0010
0100
1001
0000
,  // measure 137
1100
0001
0010
0100
,  // measure 138
1000
0010
0100
1001
,  // measure 139
0011
0100
1000
0010
,  // measure 140
0100
0001
0010
0000
,  // measure 141
1100
1000
0101
1000
,  // measure 142
0010
0100
0001
0010
,  // measure 143
1001
0001
1010
0100
,  // measure 144
0001
0010
0001
0000
1000
0000
0000
0000
,  // measure 145
0110
0001
0001
0010
,  // measure 146
0100
1000
0100
0000
0010
0000
0001
0000
,  // measure 147
0110
1000
1000
0010
,  // measure 148
0100
0001
0100
0000
0010
0000
0000
0000
,  // measure 149
1100
0001
0001
0010
,  // measure 150
0100
1000
0010
0000
0100
0000
0100
0000
,  // measure 151
0011
1000
1000
0100
,  // measure 152
0010
0001
0100
0000
0010
0000
0000
0000
,  // measure 153
1100
1000
0100
0010
,  // measure 154
0011
0010
0100
1000
,  // measure 155
0101
0001
0001
1000
,  // measure 156
1010
1000
1000
0000
,  // measure 157
0110
0001
0001
0010
,  // measure 158
1100
0100
0010
0001
,  // measure 159
1000
0010
1010
0100
,  // measure 160
0001
0010
0110
0000
,  // measure 161
1000
0100
0000
0010
0000
0001
0000
0010
,  // measure 162
0000
0100
0000
1000
0010
0000
0100
0000
,  // measure 163
0001
0010
0001
0100
,  // measure 164
0010
1000
0100
1000
,  // measure 165
0001
0010
0000
0100
0000
1000
0000
0100
,  // measure 166
0000
0010
0000
0001
0100
0000
0010
0000
,  // measure 167
1000
0100
1000
0010
,  // measure 168
0100
0001
0010
0001
,  // measure 169
0100
0010
0000
1000
0000
0100
0000
0010
,  // measure 170
0000
0001
0000
0100
0010
0000
1000
0000
,  // measure 171
0001
0010
0001
0100
,  // measure 172
0010
1000
0100
0010
,  // measure 173
0001
0100
0000
0010
0000
1000
0000
0100
,  // measure 174
0000
0010
0000
0001
1000
0000
0010
0000
,  // measure 175
0100
0001
0010
0100
,  // measure 176
1000
0010
0100
0001
,  // measure 177
0010
0100
0000
1000
0000
0010
0000
0100
,  // measure 178
0000
0001
0000
1000
0010
0000
0100
0000
,  // measure 179
0001
0010
0100
1000
,  // measure 180
0010
0100
0001
0010
,  // measure 181
0100
1000
0000
0010
0000
0100
0000
0001
,  // measure 182
0000
0010
0000
0100
1000
0000
0010
0000
,  // measure 183
0100
0001
0000
0010
0001
0000
0100
0001
,  // measure 184
0000
0010
0001
0000
0100
0000
0010
0000
,  // measure 185
1000
0001
0100
0001
,  // measure 186
1000
0010
0100
0010
,  // measure 187
1000
0001
0010
0001
,  // measure 188
0100
0000
0000
0000
0000
0000
0000
0010
,  // measure 189
1000
0000
0000
0001
0100
0000
0000
1000
,  // measure 190
0010
0000
0000
0100
0001
0000
0000
0010
,  // measure 191
0100
0000
1000
0001
,  // measure 192
0011
0000
1000
0010
1000
0000
0000
0000
,  // measure 193
0001
0000
0010
0000
0100
1000
0010
0000
,  // measure 194
0100
0001
0010
0100
,  // measure 195
1000
0000
0010
0000
0100
0001
0010
0000
,  // measure 196
0100
1000
0001
0100
,  // measure 197
0010
0000
1000
0010
0100
0000
0001
0100
,  // measure 198
0010
0000
1000
0001
0010
0000
0100
1000
,  // measure 199
0010
0100
0001
0100
,  // measure 200
0010
0000
1000
0001
0100
0000
0010
0000
,  // measure 201
1000
0100
1000
0000
0010
0000
0100
0000
,  // measure 202
0001
0010
0100
1000
,  // measure 203
0010
0100
0010
0000
1000
0000
0001
0000
,  // measure 204
0010
0100
1000
0001
,  // measure 205
0100
0000
0010
1000
0010
0000
0100
0001
,  // measure 206
0100
0000
0010
1000
0001
0000
0100
0010
,  // measure 207
1000
0001
0011
0100
,  // measure 208
0010
0000
1000
0001
0010
0000
0100
0000
,  // measure 209
1001
0000
0100
0000
0001
0010
0100
0000
,  // measure 210
1000
0010
0100
0001
,  // measure 211
1000
0000
0100
0000
0010
0001
0010
0000
,  // measure 212
0100
1000
0001
0010
,  // measure 213
0100
0000
1000
0010
0100
0000
0001
0100
,  // measure 214
0010
0000
1000
0001
0010
0000
0100
1000
,  // measure 215
0001
0100
0010
1000
,  // measure 216
0001
0010
0001
0010
0100
0000
0000
0000
,  // measure 217
0101
0000
1000
0000
,  // measure 218
1010
0000
0001
0000
,  // measure 219
1000
0010
0100
0001
,  // measure 220
1000
0000
0110
0000
,  // measure 221
0001
0010
0100
0000
,  // measure 222
1000
0010
0100
0000
,  // measure 223
0001
0100
0010
0100
,  // measure 224
0001
0000
1100
0000
,  // measure 225
0001
0100
0010
0000
,  // measure 226
1000
0100
0010
0000
,  // measure 227
0001
0100
0010
1000
,  // measure 228
0001
0100
0010
0000
,  // measure 229
1000
0100
0010
0000
,  // measure 230
0001
0100
0010
0000
,  // measure 231
1000
0001
0010
0100
,  // measure 232
1000
0010
0100
0000
,  // measure 233
0002
0000
1000
0000
,  // measure 234
1003
0001
0010
0000
,  // measure 235
0100
1000
0010
0100
,  // measure 236
0001
0010
0100
0000
,  // measure 237
2000
0000
0100
0000
,  // measure 238
3100
1000
0001
0000
,  // measure 239
0010
0100
1000
0010
,  // measure 240
0100
0001
0010
0000
,  // measure 241
0100
0000
1001
0000
,  // measure 242
0001
0100
0010
0000
,  // measure 243
1000
0001
0010
0100
,  // measure 244
1000
0010
0100
0000
,  // measure 245
0001
0000
1010
0000
,  // measure 246
0100
0001
0010
0000
,  // measure 247
0100
1000
0010
0100
,  // measure 248
0001
0000
0010
0000
0100
1000
0100
1000
,  // measure 249
0100
0000
0101
0000
,  // measure 250
1000
0010
0100
0000
,  // measure 251
0001
0010
0010
0001
,  // measure 252
0010
0010
0010
0000
,  // measure 253
0100
0000
1000
0010
1000
0010
0000
0000
,  // measure 254
0100
0001
0100
0001
0000
0000
1000
0000
,  // measure 255
0100
0000
0011
0000
,  // measure 256
1000
0100
0010
0001
,  // measure 257
0100
0000
1001
0000
,  // measure 258
0001
0010
1010
0000
,  // measure 259
0100
0001
1000
0010
,  // measure 260
0100
0100
1001
0000
,  // measure 261
0100
0001
0100
0001
,  // measure 262
0001
0001
0001
0000
,  // measure 263
1010
0000
0101
0000
,  // measure 264
0110
0000
1010
0000
,  // measure 265
0001
0000
0010
0000
0100
1000
0000
0100
,  // measure 266
1000
0000
0010
0100
0000
0000
0001
0000
,  // measure 267
0010
0100
1000
0010
,  // measure 268
0100
0001
1000
0010
,  // measure 269
0100
0000
0001
0000
0010
0100
0000
0010
,  // measure 270
0100
0000
1000
0100
0000
0000
0010
0000
,  // measure 271
0001
1000
0010
0100
,  // measure 272
0001
0010
0100
1000
,  // measure 273
0001
0100
0100
0010
,  // measure 274
1000
1000
1000
0000
,  // measure 275
0010
0010
0101
1000
,  // measure 276
1000
0010
0101
0000
,  // measure 277
1000
0000
0010
0000
0100
0001
0000
0010
,  // measure 278
0001
0000
0100
0001
0000
0000
0010
0000
,  // measure 279
0100
1000
0010
0100
,  // measure 280
0001
0000
1010
0000
,  // measure 281
0001
0000
1000
0000
0100
0010
0000
0100
,  // measure 282
0010
0000
0001
0000
1000
0100
0000
1000
,  // measure 283
0100
0000
0010
0000
0001
0100
0000
0001
,  // measure 284
0100
0010
1001
0000
,  // measure 285
1000
0000
0100
0000
0010
0001
0000
0010
,  // measure 286
0001
0000
0100
0000
0010
1000
0000
0010
,  // measure 287
1000
0000
0001
0000
0010
0100
0000
0010
,  // measure 288
0100
1000
0101
0000
,  // measure 289
0001
0000
0010
0000
0100
1000
0000
0010
,  // measure 290
1000
0000
0100
0000
0010
0001
0000
1000
,  // measure 291
0001
0000
0010
0000
0100
1000
0000
0010
,  // measure 292
1000
0100
0101
1000
,  // measure 293
1000
0010
0101
0010
,  // measure 294
0100
0001
1000
0100
,  // measure 295
1001
1001
0110
0110
,  // measure 296
0011
1001
1010
1001
,  // measure 297
1000
0000
0010
0000
0100
0001
0000
0100
,  // measure 298
0001
0000
0010
0000
0100
1000
0000
0100
,  // measure 299
1000
0000
0010
0000
0100
0001
0000
0100
,  // measure 300
0001
0010
0100
1000
,  // measure 301
0001
0010
0100
1000
,  // measure 302
0010
0101
1000
0100
,  // measure 303
0010
0001
0100
0010
,  // measure 304
1001
1000
0010
0100
,  // measure 305
0001
0001
0010
0010
,  // measure 306
0100
1000
0001
0010
,  // measure 307
0100
0100
1000
1000
,  // measure 308
0010
0100
0001
1000
,  // measure 309
0010
0000
0101
0000
,  // measure 310
0010
0000
1100
0000
,  // measure 311
0001
0010
0100
1000
,  // measure 312
0010
0100
0001
1000
,  // measure 313
0010
0000
0100
0000
0001
1000
0000
0001
,  // measure 314
1000
0000
0010
0000
0100
0001
0000
1000
,  // measure 315
0001
0000
0100
0000
0010
1000
0000
0100
,  // measure 316
1000
0010
0101
0000
,  // measure 317
1000
0000
0010
0000
0100
0001
0000
0100
,  // measure 318
0001
0000
0010
0000
0100
1000
0000
0001
,  // measure 319
1000
0000
0010
0000
0100
0001
0000
1000
,  // measure 320
0001
0010
1100
0000
,  // measure 321
0001
0000
0010
0000
0100
1000
0000
1000
,  // measure 322
0100
0000
0010
0000
0001
0100
0000
0100
,  // measure 323
0001
0000
0010
0000
0100
1000
0000
1000
,  // measure 324
0100
0010
1001
0000
,  // measure 325
1000
0000
0010
0000
0100
0001
0000
0001
,  // measure 326
0100
0000
0010
0000
1000
0001
0000
0001
,  // measure 327
1000
0000
0010
0000
0100
0001
0000
0001
,  // measure 328
0100
0010
1001
0100
,  // measure 329
1000
0000
0001
0010
0001
0000
1000
0100
,  // measure 330
0010
0001
0100
0010
,  // measure 331
1000
0000
0100
0010
0001
0000
1000
0100
,  // measure 332
0010
0001
0100
0010
,  // measure 333
1000
0000
0001
0010
0100
0000
1000
0010
,  // measure 334
0100
0000
0001
0010
0100
1000
0010
0100
,  // measure 335
0001
0000
0010
0100
1000
0000
0010
0000
,  // measure 336
0100
0001
0010
0000
,  // measure 337
1000
0000
0010
0100
0001
0000
0010
0100
,  // measure 338
1000
0000
0010
0100
0001
0010
0100
1000
,  // measure 339
0010
0000
0100
0001
1000
0000
0010
0000
,  // measure 340
0100
0001
1010
0000
,  // measure 341
0100
0000
0001
0010
0100
0000
1000
0010
,  // measure 342
0100
0001
0011
1000
,  // measure 343
1010
0000
0100
0001
0010
0000
0100
1000
,  // measure 344
0010
0100
0001
0010
0100
0000
1000
0000
,  // measure 345
1010
0000
0100
0001
0010
0000
0100
1000
,  // measure 346
0010
0000
0100
0001
0010
0100
1000
0010
,  // measure 347
0100
0000
0001
0010
0000
0010
0001
0000
,  // measure 348
1000
0000
0010
0100
0000
0100
0010
0000
,  // measure 349
1000
1001
0010
0100
,  // measure 350
0001
0010
0100
1000
,  // measure 351
0010
0000
0100
0001
0000
0001
0010
0000
,  // measure 352
1010
1000
0100
0000
,  // measure 353
0011
0000
1000
0100
1000
0000
0010
0000
,  // measure 354
0100
0001
0011
0100
,  // measure 355
1010
0000
0100
0010
0000
0010
0100
0000
,  // measure 356
1000
0000
0001
0010
0000
0010
0001
0000
,  // measure 357
0100
1001
0010
0100
,  // measure 358
0001
0000
1000
0010
0100
0000
0001
0000
,  // measure 359
0010
0000
0100
1000
0000
0010
1000
0000
,  // measure 360
0100
0010
0001
0011
,  // measure 361
1001
0000
1000
0100
0010
0000
0001
0000
,  // measure 362
0100
0010
1000
0000
0010
0000
0100
0000
,  // measure 363
0001
0000
0010
0100
0000
1000
0010
0000
,  // measure 364
0100
0000
0001
0010
0000
0100
0010
0000
,  // measure 365
1000
0000
0001
0010
0100
0000
1000
0000
,  // measure 366
0010
0100
0001
1000
,  // measure 367
1010
0000
0100
0001
0010
0000
0100
0000
,  // measure 368
1010
0001
0100
0010
,  // measure 369
1001
0000
0100
0010
0001
0000
0100
0010
,  // measure 370
1000
0100
0010
0001
0100
0000
0010
1000
,  // measure 371
0100
0000
0010
0001
0100
0000
0010
1000
,  // measure 372
0100
0000
0010
0001
1000
0000
0010
0000
,  // measure 373
0101
0000
1000
0010
0100
0000
0001
0010
,  // measure 374
0100
1000
0010
0100
0001
0000
1000
0000
,  // measure 375
0100
0010
0100
0010
1000
0001
1000
0000
,  // measure 376
0001
0010
0100
1000
0010
0100
0001
0000
,  // measure 377
2020
0000
0000
0000
,  // measure 378
0000
0000
0000
0000
,  // measure 379
0000
0000
0000
0000
,  // measure 380
0000
0000
0000
3030
;

//---------------dance-single - ----------------
#NOTES:
     dance-single:
     :
     Challenge:
     15:
     1.000,1.000,0.660,0.006,0.177,2603.000,226.000,2.000,0.000,0.000:  // measure 1
1100
0000
0001
0000
0011
0000
0000
0010
0001
0000
0010
0000
0001
0000
0010
0100
,  // measure 2
0010
0000
0100
0000
1100
0000
0000
1000
0001
0000
0100
0000
0010
0000
1000
0000
,  // measure 3
0100
0001
0100
1000
0010
0001
0010
1000
0100
0010
0100
0000
1001
0000
0000
0000
,  // measure 4
1000
0100
1000
0100
1000
0001
0100
0010
1000
0001
0100
0000
1010
0000
0000
0000
,  // measure 5
1000
0000
0100
0000
1000
0100
0000
1000
0100
0000
0010
0000
0001
0000
0100
0000
,  // measure 6
0010
0000
1000
0000
0001
0010
0000
0001
0010
0000
0100
0000
1000
0000
0001
0000
,  // measure 7
0100
0010
0100
0010
0100
0010
0100
0001
0010
0100
1000
0100
0001
0100
1000
0010
,  // measure 8
0001
0010
1000
0100
0010
0100
1000
0001
0100
0010
0100
0001
0010
1000
0010
0001
,  // measure 9
0110
0000
1001
0000
0000
0101
0000
0010
,  // measure 10
0001
0000
1010
0000
0000
0101
0000
1000
,  // measure 11
0100
0000
1010
0000
0000
0101
0000
0100
,  // measure 12
0010
1000
0001
0010
0100
0010
0100
0010
,  // measure 13
0101
0000
1100
0000
0000
0011
0000
1000
,  // measure 14
0001
0000
1100
0000
0000
1001
0000
0010
,  // measure 15
0100
0000
1010
0000
0000
0011
0000
0100
,  // measure 16
0010
0100
0001
0010
1000
0010
0001
0100
,  // measure 17
1010
0000
1001
0000
0000
0101
0000
0010
,  // measure 18
0100
0000
1010
0000
0000
1001
0000
0100
,  // measure 19
0010
0000
1100
0000
0000
0101
0000
1000
,  // measure 20
0101
1100
0101
1010
,  // measure 21
0101
0000
0110
0000
0000
1010
0000
0100
,  // measure 22
0010
0000
1001
0000
0000
1010
0000
0100
,  // measure 23
0001
0000
0110
0000
0000
1010
0000
0010
,  // measure 24
1100
0101
1001
0110
,  // measure 25
0100
1000
0100
1000
0000
0101
0000
1000
,  // measure 26
0010
1000
0010
1000
0000
0101
0000
0010
,  // measure 27
0001
0010
0001
0010
0000
1001
0000
0010
,  // measure 28
0100
0010
0001
0100
0010
1000
0100
1000
,  // measure 29
0010
1000
0001
0010
0000
1100
0000
0010
,  // measure 30
0001
0100
0010
1000
0000
0101
0000
1000
,  // measure 31
0100
1000
0010
0100
0000
0011
0000
1000
,  // measure 32
0100
0001
0100
1000
0010
0001
0010
1000
,  // measure 33
1100
1100
0101
0101
,  // measure 34
0011
0011
1010
1010
,  // measure 35
0110
0110
1001
1001
,  // measure 36
0110
0110
0101
0101
,  // measure 37
1000
0100
0001
0100
1000
0010
0001
0010
,  // measure 38
1000
0100
0010
0100
1000
0001
0100
0010
,  // measure 39
0100
0001
0010
0100
0001
0100
0010
0001
,  // measure 40
0100
0010
0001
0010
1000
0100
0010
0100
,  // measure 41
1000
0000
0100
0010
0100
0010
0000
0001
,  // measure 42
0100
0000
0010
1000
0001
0100
0000
0010
,  // measure 43
1000
0000
0001
0010
0100
1000
0000
0100
,  // measure 44
0010
0001
0110
0000
,  // measure 45
1000
0000
0100
1000
0100
1000
0000
0010
,  // measure 46
0100
0000
0001
0010
0100
0010
0000
0001
,  // measure 47
0100
0000
0010
1000
0001
0010
0100
1000
,  // measure 48
0100
0010
0001
0000
0110
0000
0000
0000
,  // measure 49
0100
0001
0010
0000
0100
1000
0000
0100
,  // measure 50
0010
0000
0001
0100
0010
1000
0000
0001
,  // measure 51
0100
0000
0010
1000
0001
0010
0000
0100
,  // measure 52
0010
1000
0110
0000
,  // measure 53
0010
0000
0001
0100
0010
1000
0100
0010
,  // measure 54
0100
0000
0010
0100
1000
0010
0100
0001
,  // measure 55
0010
0100
1000
0100
0010
0001
0100
0010
,  // measure 56
1000
0001
0010
0000
0011
0000
0000
0000
,  // measure 57
0010
0000
0100
0010
0000
0100
0010
0100
,  // measure 58
0010
0000
0001
0100
0000
0010
0100
0001
,  // measure 59
0100
0000
0010
1000
0000
0001
1000
0001
,  // measure 60
1000
0000
0100
0010
0000
0001
0100
0010
,  // measure 61
1000
0000
0001
0010
0000
0100
0010
0001
,  // measure 62
0100
0010
1000
0001
0010
0100
1000
0100
,  // measure 63
1000
0000
0001
1000
0000
0010
0100
0001
,  // measure 64
1000
0000
0010
1000
0000
0001
0010
0000
,  // measure 65
0100
0010
0100
0010
0100
0010
0100
0000
,  // measure 66
0010
0001
0010
0001
0010
0001
0010
0000
,  // measure 67
0001
0000
0010
0100
0000
0010
0100
0000
,  // measure 68
0010
0000
0001
0100
0000
0010
1000
0001
,  // measure 69
0100
0000
0010
1000
0000
0001
0010
0100
,  // measure 70
0001
0100
0010
0001
1000
0100
0010
0100
,  // measure 71
1000
0100
0010
0100
1000
0010
0001
0010
,  // measure 72
1000
0100
0010
0100
1000
0010
0001
0010
,  // measure 73
1000
0100
1000
0100
1000
0100
1000
0100
,  // measure 74
1000
0100
1000
0100
1000
0100
1000
1000
,  // measure 75
0100
0010
0001
0010
0001
0010
0001
0010
,  // measure 76
0001
0010
0001
0010
0001
0010
0001
0001
,  // measure 77
0010
0100
0010
0100
0010
0100
0010
0100
,  // measure 78
0010
0100
0010
0100
0010
0100
0010
0010
,  // measure 79
1000
0010
1000
0010
1000
0010
1000
0010
,  // measure 80
1000
0010
1000
0010
1000
0010
1000
1000
,  // measure 81
0100
1000
0100
1000
0100
1000
0100
1000
,  // measure 82
0100
1000
0100
1000
0100
1000
0100
0100
,  // measure 83
0001
0010
0001
0010
0001
0010
0001
0010
,  // measure 84
0001
0010
0001
0010
0001
0010
0001
0001
,  // measure 85
0010
0100
0010
0100
0010
0100
0010
0100
,  // measure 86
0010
0100
0010
0100
0010
0100
0010
0010
,  // measure 87
1000
0001
1000
0001
1000
0001
1000
0001
,  // measure 88
1000
0001
1000
0001
1000
0001
1000
1000
,  // measure 89
0100
0010
0100
0000
0010
0000
0100
0010
,  // measure 90
0001
0000
0100
0010
0000
1000
0001
0010
,  // measure 91
0100
0000
0010
0100
0000
0100
0001
1000
,  // measure 92
0010
0000
1000
0001
0000
0100
0010
1000
,  // measure 93
0001
0000
0010
0100
0000
0010
0001
0100
,  // measure 94
0010
0000
1000
0001
0000
1000
0100
1000
,  // measure 95
0100
1000
0100
0010
0001
0100
0010
1000
,  // measure 96
0001
0010
0100
1000
0100
1000
0100
0000
,  // measure 97
1000
0010
0100
0001
1000
0000
0010
0000
,  // measure 98
0100
0001
0010
0100
1000
0000
0100
0000
,  // measure 99
0010
0001
0100
0010
1000
0000
0001
0000
,  // measure 100
0010
0100
0010
0100
0010
0000
0001
0000
,  // measure 101
0010
0001
0100
0010
1000
0100
0010
0001
,  // measure 102
0100
0010
1000
0100
1000
0010
0100
0001
,  // measure 103
0010
0100
0001
0100
0010
0100
1000
0010
,  // measure 104
0001
0010
1000
0100
0010
0100
1000
0100
,  // measure 105
1000
0100
0001
0000
0100
1000
0010
0000
1000
0010
0001
0000
0010
1000
0100
0000
,  // measure 106
1000
0100
0010
0000
0001
0010
0001
0000
0010
0100
0010
0000
0100
0010
0001
0000
,  // measure 107
0100
0010
0100
0000
0001
0010
0100
0000
0010
0100
0001
0000
0100
1000
0010
0000
,  // measure 108
1000
0010
0001
0000
0010
1000
0100
0000
0010
0001
0100
0000
0001
0100
0010
0000
,  // measure 109
0001
1000
0010
0000
0001
0010
1000
0000
0010
0001
0100
0000
0010
1000
0100
0000
,  // measure 110
1000
0100
0001
0000
0100
1000
0010
0000
1000
0001
0100
0000
0010
0100
0001
0000
,  // measure 111
1000
0100
0010
0001
0100
0010
1000
0100
0010
0100
1000
0001
0100
0010
0100
0001
,  // measure 112
0010
1000
0010
0001
0100
0010
0001
0010
1000
0100
0010
0100
1000
0100
1000
0100
,  // measure 113
1000
0001
0100
0000
0010
0100
0001
0000
0010
0100
0010
0000
0001
0100
0010
0000
,  // measure 114
1000
0001
1000
0000
0100
1000
0100
0000
1000
0100
1000
0000
0100
0010
0100
0000
,  // measure 115
0010
0001
0100
0000
0010
1000
0100
0000
1000
0001
0010
0000
0100
1000
0010
0000
,  // measure 116
1000
0010
0001
0000
0010
1000
0100
0000
0010
0001
0100
0000
0010
1000
0100
0000
,  // measure 117
1000
0100
0010
0100
0010
0100
1000
0001
0100
0010
0100
0001
0010
1000
0010
0001
,  // measure 118
0100
0010
0001
0010
1000
0100
0010
0100
1000
0001
0100
0010
0100
0001
0010
1000
,  // measure 119
0010
0001
0100
0010
0001
0010
1000
0100
0001
0100
0010
0001
0100
0010
0100
0001
,  // measure 120
0010
0100
0001
0100
0010
0001
0100
0010
0001
0010
1000
0100
0010
0100
1000
0010
,  // measure 121
1000
0100
0001
0100
1000
0010
0001
0010
,  // measure 122
1000
0100
0010
0100
1000
0001
0100
0010
,  // measure 123
0100
0001
0010
1000
0010
0001
0100
0010
,  // measure 124
1000
0010
1000
0000
1001
0000
0000
0000
,  // measure 125
1000
0100
0001
0100
1000
0010
0001
0010
,  // measure 126
1000
0100
0010
0100
1000
0001
0100
0010
,  // measure 127
0100
0001
0010
1000
0010
0001
0100
0010
,  // measure 128
1000
0001
0010
0000
0110
0000
0000
0000
,  // measure 129
0010
0000
0001
0100
0010
1000
0100
1000
,  // measure 130
0100
0000
0010
0001
0100
0010
1000
0100
,  // measure 131
1000
1001
0110
0001
,  // measure 132
0100
0000
0001
0100
0001
0100
0001
0100
,  // measure 133
0001
0000
1000
0100
1000
0100
1000
0100
,  // measure 134
1000
0010
0100
0001
0010
0100
1000
0100
,  // measure 135
0010
0001
0100
0010
0100
0001
0010
0100
,  // measure 136
0001
0100
0010
0000
0110
0000
0000
0000
,  // measure 137
0110
0000
1000
0101
0000
1000
0100
1000
,  // measure 138
0010
0100
0001
0010
0100
0000
0101
0000
,  // measure 139
1010
0000
0010
1100
0000
0001
0010
0100
,  // measure 140
0001
0100
0010
0001
1000
0010
0100
0001
,  // measure 141
1000
0000
0010
1100
0000
0001
0010
0000
,  // measure 142
0110
0000
0100
0010
0001
0000
1010
0000
,  // measure 143
0110
0000
1000
0101
0000
1000
0001
1000
,  // measure 144
0100
0010
0100
0010
0001
0010
0001
0000
,  // measure 145
0011
0000
0100
1010
0000
0001
0100
0010
,  // measure 146
1000
0001
0100
0010
1000
0001
0010
0000
,  // measure 147
1100
0000
0010
0101
0000
0010
0001
0100
,  // measure 148
0010
1000
0001
0010
0100
0000
0000
0000
,  // measure 149
0110
0000
0010
1001
0000
0100
0010
1000
,  // measure 150
0001
0100
0010
1000
0001
0000
1000
0000
,  // measure 151
0100
0000
1000
1100
1000
0100
0010
0001
,  // measure 152
0010
0100
1000
0100
0010
0000
0000
0000
,  // measure 153
1100
0100
0000
1001
0000
0110
0000
0011
,  // measure 154
0000
1100
0000
0010
1100
0000
0001
0000
,  // measure 155
0110
0010
1001
1000
,  // measure 156
0110
0100
0011
0001
,  // measure 157
0010
0001
0000
1010
0000
0101
0000
1010
,  // measure 158
0000
1001
0000
0100
0011
0000
0100
0000
,  // measure 159
0101
0100
0110
0010
,  // measure 160
1010
1000
1001
0001
,  // measure 161
0011
0100
0000
1001
0000
0011
0000
0110
,  // measure 162
0000
1010
0000
0001
1100
0000
0010
0000
,  // measure 163
1010
1000
0101
0001
,  // measure 164
0110
0100
0110
0010
,  // measure 165
1000
0001
0000
1100
0000
0101
0000
1010
,  // measure 166
0000
0101
0000
0010
1100
0000
0010
0000
,  // measure 167
0101
0000
0010
1000
0100
0001
0100
1000
,  // measure 168
0010
0001
0010
1000
0100
0010
0100
1000
,  // measure 169
0010
0001
0010
0100
0001
0100
0010
1000
,  // measure 170
0001
0010
0001
0010
0001
0010
0001
0010
,  // measure 171
0100
0010
0100
0010
0001
0100
0010
1000
,  // measure 172
1001
0110
0011
1100
,  // measure 173
0001
1010
0000
0110
0000
1010
0000
1001
,  // measure 174
0000
0110
0000
0010
1100
0000
0011
0000
,  // measure 175
0100
0010
1000
0001
0100
0010
1000
0001
,  // measure 176
0010
1000
0010
0001
0100
0010
0001
0010
,  // measure 177
1000
0101
0000
1010
0000
1100
0000
0110
,  // measure 178
0000
1001
0000
0100
1010
0000
0110
0000
,  // measure 179
0001
0010
0100
0001
0100
0010
0001
0100
,  // measure 180
0010
0001
0010
1000
0100
0010
0100
1000
,  // measure 181
0001
1100
0000
1010
0000
0110
0000
0101
,  // measure 182
0000
0011
0000
0100
1010
0000
0101
0000
,  // measure 183
0100
0010
0100
0001
0010
1000
0010
0001
,  // measure 184
0100
0010
0001
0010
1000
0100
1000
0100
,  // measure 185
1010
0101
1010
0101
,  // measure 186
1010
0011
0110
0011
,  // measure 187
1100
0110
1001
0110
,  // measure 188
1001
0000
0000
0000
,  // measure 189
1000
0100
0001
0100
1000
0010
0001
0010
,  // measure 190
1000
0100
0010
0100
1000
0001
0100
0010
,  // measure 191
0100
0001
0010
0100
0001
0100
0010
0001
,  // measure 192
1000
0000
1010
0010
0010
0000
0000
0000
,  // measure 193
1001
0000
1000
0010
0100
0000
0101
0000
,  // measure 194
0110
0000
0010
0001
0010
0000
0011
0000
,  // measure 195
0110
0000
0001
0010
0100
0000
0110
0000
,  // measure 196
0011
0000
0100
0010
1000
0000
0001
0000
,  // measure 197
1000
0100
0001
0100
1000
0010
0001
0010
,  // measure 198
1000
0100
0010
0100
1000
0001
0100
0010
,  // measure 199
0100
0001
0010
0100
0001
0100
0010
0001
,  // measure 200
0100
0000
0110
0010
0010
0000
1000
0000
,  // measure 201
0100
0000
0001
0100
1000
0010
0001
0010
,  // measure 202
1000
0000
0010
1000
0010
0000
0100
0000
,  // measure 203
1000
0001
0010
1000
0010
0001
0100
0010
,  // measure 204
0100
0000
0010
0100
0010
0000
0100
0000
,  // measure 205
0101
1010
0101
1010
,  // measure 206
0011
1100
0011
0110
,  // measure 207
0101
1010
0101
1010
,  // measure 208
1001
0000
1000
0001
1000
0000
0001
0000
,  // measure 209
0011
0001
0010
0100
,  // measure 210
1000
0000
0100
1000
0100
0000
1000
0000
,  // measure 211
0010
0100
0001
1000
0010
0100
0001
1000
,  // measure 212
0010
0000
1000
0010
1000
0000
0001
0000
,  // measure 213
1001
0000
1000
0100
1000
0000
0110
0000
,  // measure 214
0011
0000
0010
0100
0010
0000
0001
0000
,  // measure 215
0010
0100
0010
0001
0100
0010
1000
0100
,  // measure 216
0010
0001
0100
0010
1000
0100
0010
0001
,  // measure 217
1000
0100
1000
0100
1000
0100
1000
0100
,  // measure 218
1000
0100
1000
0100
1000
0100
1000
0100
,  // measure 219
1000
0100
0010
0100
0010
0100
0010
0100
,  // measure 220
0010
0100
0010
0001
0010
0001
0100
0010
,  // measure 221
0100
0001
0010
0100
0001
0100
0010
0001
,  // measure 222
0100
0010
0001
0010
1000
0100
0010
0100
,  // measure 223
1000
0001
0100
1000
0100
0010
1000
0100
,  // measure 224
0010
0100
1000
0001
0100
0010
0100
0001
,  // measure 225
0010
0100
0001
0100
0010
0001
0100
0010
,  // measure 226
1000
0100
0010
0001
0100
0010
1000
0100
,  // measure 227
1000
0010
0100
0001
0010
0100
1000
0100
,  // measure 228
0010
0001
0100
0010
0100
0001
1000
0100
,  // measure 229
0010
0100
1000
0001
0100
0010
0100
0001
,  // measure 230
0010
1000
0010
0001
0100
0010
0001
0010
,  // measure 231
1000
0100
0010
0100
1000
0100
0010
0100
,  // measure 232
1000
0001
0100
0010
0100
0001
0100
0010
,  // measure 233
1000
0100
0010
0100
,  // measure 234
0110
0000
0010
0001
0100
0000
0010
0000
,  // measure 235
1000
0001
0010
0100
,  // measure 236
0110
0000
0010
0001
0100
0000
0010
0000
,  // measure 237
0110
0000
0100
0001
0010
0000
0100
0000
,  // measure 238
1100
0000
1000
0001
0100
0000
0010
0000
,  // measure 239
0110
0000
0100
0001
0010
0000
0100
0000
,  // measure 240
1000
0100
0010
0001
0100
0000
0010
0000
,  // measure 241
0100
0001
0010
0100
1000
0000
0010
0000
,  // measure 242
0100
0001
1000
0100
1000
0000
0010
0000
,  // measure 243
0100
0001
1000
0001
0100
0000
0010
0000
,  // measure 244
0100
0010
0100
0010
0100
0000
0001
0000
,  // measure 245
0010
0001
0100
0010
1000
0100
0010
0001
,  // measure 246
0100
0010
1000
0100
1000
0010
0100
0001
,  // measure 247
0010
0100
0001
0100
0010
0001
1000
0010
,  // measure 248
0100
0001
1000
0010
0100
0001
1000
0010
,  // measure 249
0100
1000
0100
1000
0100
0000
0000
0001
,  // measure 250
0100
0001
0100
0001
0010
0000
0100
0000
,  // measure 251
0001
1000
0010
0100
,  // measure 252
0001
1000
0010
0100
,  // measure 253
0010
0001
0100
0001
0100
0001
0000
0001
,  // measure 254
0010
0001
0010
0001
0010
0100
0010
0100
,  // measure 255
0010
0100
0010
0100
0010
0100
0010
0100
,  // measure 256
0010
0100
0010
0100
0010
0100
0010
0010
,  // measure 257
1000
0010
1000
0010
1000
0010
1000
0010
,  // measure 258
1000
0010
1000
0010
1000
0010
1000
1000
,  // measure 259
0001
1000
0001
1000
0001
1000
0001
1000
,  // measure 260
0001
1000
0001
1000
0001
1000
0001
0001
,  // measure 261
0100
0010
0100
0010
0100
0010
0100
0010
,  // measure 262
0100
0010
0100
0010
0100
0010
0100
0100
,  // measure 263
1000
0100
1000
0100
1000
0100
1000
0100
,  // measure 264
1000
0100
1000
0100
1000
0100
1000
1000
,  // measure 265
1001
0000
1000
0000
0100
0000
0010
0100
,  // measure 266
0010
0001
0110
0100
,  // measure 267
0001
0000
0010
0000
0110
0000
0010
0001
,  // measure 268
0100
0010
1010
1000
,  // measure 269
0001
0000
0010
0000
0110
0000
0010
0001
,  // measure 270
0100
0010
1001
1000
,  // measure 271
0001
0000
0100
0000
0110
0000
0100
0001
,  // measure 272
0010
0100
0110
0010
,  // measure 273
0001
0100
0010
1000
0001
0000
0100
0000
,  // measure 274
0010
0100
0001
0010
0100
0000
0010
0000
,  // measure 275
0100
0010
0001
0100
0010
0000
1000
0000
,  // measure 276
0100
1000
0100
0001
0100
0000
1000
0000
,  // measure 277
0010
1000
0010
0001
0010
1000
0100
0010
,  // measure 278
0100
1000
0001
1000
0001
1000
0001
0100
,  // measure 279
0010
0100
0001
0100
0010
0100
0001
0100
,  // measure 280
0010
1000
0100
0010
0100
1000
0100
1000
,  // measure 281
1100
1000
0100
0010
0001
0100
0010
1000
,  // measure 282
0100
0010
0100
1000
0001
0100
0010
0100
,  // measure 283
0001
0010
0100
0001
0100
0010
0001
0100
,  // measure 284
0010
0001
0010
1000
0100
0010
0100
1000
,  // measure 285
0001
0100
0010
0100
0001
0010
0100
0010
,  // measure 286
0100
0010
0100
0010
0100
0010
0001
0010
,  // measure 287
0001
0010
0001
0100
0001
0100
0001
0100
,  // measure 288
0001
0100
0010
0100
0010
1000
0001
0100
,  // measure 289
0010
1000
0001
0010
1000
0010
0001
0100
,  // measure 290
0010
0100
0001
0100
0010
0100
0001
1000
,  // measure 291
0100
0010
0100
1000
0100
0010
0001
1000
,  // measure 292
0010
0001
0010
1000
0100
0001
0100
1000
,  // measure 293
0100
0001
0100
1000
0100
0001
0100
1000
,  // measure 294
0001
0100
0010
0100
0001
1000
0100
0010
,  // measure 295
0100
1000
0001
0100
0110
0000
0001
0010
,  // measure 296
0100
0001
0100
0010
0001
1000
0010
0100
,  // measure 297
0110
0101
0110
1001
,  // measure 298
1100
1000
0100
0010
,  // measure 299
0001
0010
0100
1000
,  // measure 300
0000
0110
0000
0000
0000
0000
0101
0000
,  // measure 301
1100
0101
0110
0101
,  // measure 302
1010
0100
0101
0100
,  // measure 303
0010
0000
1000
0001
1000
0000
0010
0100
,  // measure 304
0001
0000
0100
0010
0100
0000
0001
0010
,  // measure 305
0001
0000
0001
0010
0001
0000
0001
1000
,  // measure 306
0001
0000
0010
0100
0010
0000
0100
0001
,  // measure 307
0100
0000
0010
1000
0001
0000
0100
0010
,  // measure 308
0100
0000
0001
0010
0100
0000
0010
0001
,  // measure 309
0100
0000
0010
1000
0100
0000
1000
0100
,  // measure 310
0001
0000
0100
1000
0010
0000
1000
0010
,  // measure 311
0001
0010
1000
0100
0010
0100
1000
0001
,  // measure 312
0100
0010
0100
0001
0010
0100
1000
0100
,  // measure 313
0010
0001
0010
0001
0010
0001
0010
0001
,  // measure 314
0010
0001
0010
0001
0010
0001
0010
0001
,  // measure 315
0010
0001
0010
0001
0010
0001
0010
0001
,  // measure 316
0010
0001
0010
0001
0010
0001
0010
0001
,  // measure 317
0010
0100
0010
0100
0010
0100
0010
0100
,  // measure 318
0010
0100
0010
0100
0010
0100
0010
0100
,  // measure 319
0010
0100
0010
0100
0010
0100
0010
0100
,  // measure 320
0010
0100
0010
0100
0010
0100
0010
0100
,  // measure 321
1000
0100
1000
0100
1000
0100
1000
0100
,  // measure 322
1000
0100
1000
0100
1000
0100
1000
0100
,  // measure 323
1000
0100
1000
0100
1000
0100
1000
0100
,  // measure 324
1000
0100
1000
0100
1000
0100
1000
0100
,  // measure 325
1000
0001
1000
0001
1000
0001
1000
0001
,  // measure 326
1000
0001
1000
0001
1000
0001
1000
0001
,  // measure 327
1000
0001
1000
0001
1000
0001
1000
0001
,  // measure 328
1000
0001
1000
0001
1000
0001
1000
0010
,  // measure 329
0100
0010
0100
0010
0100
0010
0100
0010
,  // measure 330
0100
0010
0100
0010
0100
0010
0100
0010
,  // measure 331
0100
0001
0100
0010
0100
0001
1000
0100
,  // measure 332
0010
0100
1000
0001
0100
0010
0100
0001
,  // measure 333
0100
0001
0100
0001
0100
0001
0100
0001
,  // measure 334
0100
0001
0100
0001
0100
0001
0100
0001
,  // measure 335
0010
0100
0001
0100
0010
0001
1000
0010
,  // measure 336
0001
0010
1000
0100
0010
0100
1000
0100
,  // measure 337
1000
0100
1000
0100
1000
0100
1000
0100
,  // measure 338
1000
0100
1000
0100
1000
0100
1000
0100
,  // measure 339
1000
0001
0100
0010
1000
0001
0100
1000
,  // measure 340
0100
1000
0100
1000
0100
1000
0001
0100
,  // measure 341
0010
0100
0001
0100
0010
0100
0001
0100
,  // measure 342
0010
0100
0001
0100
0010
0100
0001
0100
,  // measure 343
0010
1000
0100
0010
0100
1000
0100
0010
,  // measure 344
0100
1000
0100
0010
0100
0010
0100
1000
,  // measure 345
0001
0100
0010
1000
0001
0100
0010
1000
,  // measure 346
0001
0010
1000
0010
0001
0100
0010
0001
,  // measure 347
0010
1000
0100
0010
0100
1000
0001
0100
,  // measure 348
0010
0100
0001
0010
0100
0001
0100
0010
,  // measure 349
0001
0100
0010
0001
0010
1000
0100
0010
,  // measure 350
0100
1000
0001
0100
0010
1000
0001
0100
,  // measure 351
0010
1000
0001
0010
0100
0010
0001
0100
,  // measure 352
0010
1000
0100
0010
0001
0100
0010
1000
,  // measure 353
0100
1000
0010
0100
0001
0010
0100
1000
,  // measure 354
0010
0100
0001
0010
0100
1000
0010
0100
,  // measure 355
0001
0010
0001
0100
0010
1000
0100
0010
,  // measure 356
0001
0100
0010
1000
0100
0010
0100
1000
,  // measure 357
0001
0100
0010
1000
0001
0100
0010
1000
,  // measure 358
0001
0010
1000
0010
0001
0100
0010
1000
,  // measure 359
0010
1000
0010
1000
0100
1000
0100
1000
,  // measure 360
0100
0010
0100
0010
0100
0010
0100
0010
,  // measure 361
0001
0010
0001
0010
0001
0010
0001
0010
,  // measure 362
0001
0010
0001
0010
0001
0010
0100
0010
,  // measure 363
0001
0100
0010
1000
0001
0100
0010
1000
,  // measure 364
0001
0100
0010
1000
0001
0010
0100
0010
,  // measure 365
0100
0010
0001
0100
0010
0100
0001
0010
,  // measure 366
0100
0010
0001
0100
0010
0100
0001
1000
,  // measure 367
0100
0010
0100
1000
0010
0100
0010
1000
,  // measure 368
0100
0010
0100
1000
0010
0100
1010
0000
,  // measure 369
1001
0000
0110
0000
,  // measure 370
0101
0000
1100
0000
,  // measure 371
0011
0000
0110
0000
,  // measure 372
0101
0000
1010
0000
,  // measure 373
1000
0001
0100
0010
1000
0001
0100
0010
,  // measure 374
1000
0001
0010
1000
0010
0001
0100
0010
,  // measure 375
0001
0010
1000
0100
0010
0100
1000
0001
,  // measure 376
0100
0010
1000
0001
0100
0010
1000
0001
,  // measure 377
2002
0000
0000
0000
,  // measure 378
0000
0000
0000
0000
,  // measure 379
0000
0000
0000
0000
,  // measure 380
3003
0000
0000
0000
;

//---------------dance-single - ----------------
#NOTES:
     dance-single:
     :
     Medium:
     9:
     0.631,0.887,0.350,0.143,0.000,1343.000,120.000,49.000,0.000,0.000:  // measure 1
1000
0100
0010
0001
,  // measure 2
1000
0100
1000
0010
,  // measure 3
1001
0100
0110
1000
,  // measure 4
1001
0100
0110
0010
,  // measure 5
1000
0100
1000
0000
0100
0010
0001
0000
,  // measure 6
0010
0100
0010
0000
1000
0100
0010
0000
,  // measure 7
0001
0100
0001
0010
0001
0100
0001
0000
,  // measure 8
1000
0100
1000
0100
0010
0001
0010
0001
,  // measure 9
1000
0000
0100
0000
0000
0010
0000
0000
,  // measure 10
0001
0000
0100
0000
0000
0010
0000
0000
,  // measure 11
1000
0000
0001
0000
0000
0100
0000
0000
,  // measure 12
0010
1000
0001
1000
,  // measure 13
0010
0000
0100
0000
0000
0001
0000
0000
,  // measure 14
0010
0000
0001
0000
0000
1000
0000
0000
,  // measure 15
0001
0000
0010
0000
0000
0100
0000
0000
,  // measure 16
1000
0010
0100
0010
,  // measure 17
2000
0000
0100
0000
0000
3100
0000
0000
,  // measure 18
0002
0000
0100
0000
0000
0103
0000
0000
,  // measure 19
2000
0000
0010
0000
0000
3010
0000
0000
,  // measure 20
0001
0010
0001
0010
,  // measure 21
2000
0000
0100
0000
0000
3020
0000
0000
,  // measure 22
0230
0000
0001
0000
0000
0310
0000
0000
,  // measure 23
0002
0000
0010
0000
0000
0203
0000
0000
,  // measure 24
0310
0001
0100
0010
,  // measure 25
1000
0000
0100
0000
0000
0010
0000
0001
,  // measure 26
0100
0000
0010
0000
0000
1000
0000
0100
,  // measure 27
0010
0000
0001
0000
0000
0100
0000
0010
,  // measure 28
1000
0100
0010
0001
,  // measure 29
1000
0000
0010
0000
0000
0100
0000
0001
,  // measure 30
0010
0000
0100
0000
0000
1000
0000
0010
,  // measure 31
0100
0000
0001
0000
0000
0010
0000
0100
,  // measure 32
1000
0010
0100
0001
,  // measure 33
1000
0000
0100
0000
0000
0100
0000
0100
,  // measure 34
0010
0000
0001
0000
0000
0100
0000
0100
,  // measure 35
0010
0000
1000
0000
0000
0001
0000
0001
,  // measure 36
0100
0010
1000
0001
,  // measure 37
0100
0000
0010
0000
0000
0001
0000
0001
,  // measure 38
1000
0000
0100
0000
0000
0010
0000
0010
,  // measure 39
0001
0000
0100
0000
0000
0010
0000
0010
,  // measure 40
1000
0100
0010
0001
,  // measure 41
1000
0100
0010
0001
,  // measure 42
1000
0010
0100
0010
,  // measure 43
1000
0000
0100
0000
0010
0001
0000
0010
,  // measure 44
0001
0100
0010
0000
,  // measure 45
1000
0100
0010
0001
,  // measure 46
0100
0010
1000
0010
,  // measure 47
0100
0000
0001
0000
0010
0100
0000
0010
,  // measure 48
0100
1000
0001
0000
,  // measure 49
1000
0000
0100
0000
0010
0001
0000
0010
,  // measure 50
0001
0000
0100
0000
0010
1000
0000
0010
,  // measure 51
1000
0000
0100
0000
0010
0001
0000
0001
,  // measure 52
0010
0100
1000
0000
,  // measure 53
0001
0000
0100
0000
0010
1000
0000
0010
,  // measure 54
1000
0000
0100
0000
0010
0001
0000
0010
,  // measure 55
0001
0000
0100
0000
0010
1000
0000
1000
,  // measure 56
0010
0100
0001
0000
,  // measure 57
1100
0000
0000
0022
0000
0000
0000
0000
,  // measure 58
0033
0000
0000
0001
,  // measure 59
0101
0000
0000
0011
0000
0000
0010
0000
,  // measure 60
0110
0000
0000
1100
0000
0000
1000
0000
,  // measure 61
1010
0000
0000
0220
0000
0000
0000
0000
,  // measure 62
0330
0000
0000
1000
,  // measure 63
1100
0000
0000
0110
0000
0000
0010
0000
,  // measure 64
0022
0000
0033
0000
,  // measure 65
1010
0000
0000
0202
0000
0000
0000
0000
,  // measure 66
0303
0000
0000
0010
,  // measure 67
1010
0000
0000
1100
0000
0000
0100
0000
,  // measure 68
0110
0000
0000
0011
0000
0000
0001
0000
,  // measure 69
1001
0000
0000
2200
0000
0000
0000
0000
,  // measure 70
3300
0000
0000
0001
,  // measure 71
0101
0000
0000
1010
0000
0000
1000
0000
,  // measure 72
1200
0000
2300
0000
,  // measure 73
3010
0000
1010
0000
,  // measure 74
1000
0010
0001
0000
,  // measure 75
0010
0000
0011
0000
,  // measure 76
0001
0010
1000
0000
,  // measure 77
0010
1000
0010
0000
,  // measure 78
0010
0100
0010
0000
,  // measure 79
0010
0001
0010
0000
,  // measure 80
0110
0000
1010
0000
,  // measure 81
1000
0001
0101
0000
,  // measure 82
0001
1000
1100
0000
,  // measure 83
0001
0100
0010
0100
,  // measure 84
1000
0100
0100
0000
,  // measure 85
1000
1000
1000
0100
,  // measure 86
0001
0001
0001
0100
,  // measure 87
0010
0010
0010
0010
,  // measure 88
0010
0010
0010
0000
,  // measure 89
0010
0001
0010
0001
,  // measure 90
1000
0010
1000
0010
,  // measure 91
0001
0010
0001
1000
,  // measure 92
0010
0001
0100
1000
,  // measure 93
0001
0010
0010
0001
,  // measure 94
1000
0010
1000
0010
,  // measure 95
0001
0010
0001
0010
,  // measure 96
1000
0100
0001
0010
,  // measure 97
1000
0100
0010
0010
,  // measure 98
0010
0100
1000
0000
,  // measure 99
0001
0100
0010
0010
,  // measure 100
0010
0100
0001
0000
,  // measure 101
0010
0001
1000
1001
,  // measure 102
0100
1000
0001
1001
,  // measure 103
1000
0100
0001
0100
,  // measure 104
1000
0000
1001
0000
,  // measure 105
0010
0000
0010
0000
0010
0001
0100
0000
,  // measure 106
1000
0000
0100
0000
0001
0100
0010
0000
,  // measure 107
1000
0000
0100
0000
0010
0001
1000
0000
,  // measure 108
0001
0000
0100
0000
0001
1000
0100
0000
,  // measure 109
0010
0001
1000
0100
0000
0001
0100
0000
,  // measure 110
0010
1000
0100
1000
0000
0001
0010
0000
,  // measure 111
0100
1000
0001
0100
0000
0010
1000
0000
,  // measure 112
0100
0010
0001
1000
0000
1000
0100
0000
,  // measure 113
0011
0000
0010
0000
0010
0100
0010
0100
,  // measure 114
1000
0001
1000
0010
0001
0010
1000
0000
,  // measure 115
0110
0000
0010
0001
1000
0001
0100
0000
,  // measure 116
0010
0001
1000
0001
1000
0001
0100
0000
,  // measure 117
1010
0000
0010
0000
0010
0100
0010
0100
,  // measure 118
0001
1000
0001
0010
1000
0010
0001
0000
,  // measure 119
1001
0000
0010
1000
0001
1000
0100
0000
,  // measure 120
0010
1000
0001
1000
0001
1000
0100
0000
,  // measure 121
1000
0100
0010
0001
,  // measure 122
0100
0010
1000
0000
,  // measure 123
1000
0010
0001
0000
,  // measure 124
0110
0000
0000
0000
,  // measure 125
0001
0100
1000
0000
,  // measure 126
0110
0000
0001
0000
,  // measure 127
0010
1000
0001
0000
,  // measure 128
0011
0000
1100
0000
,  // measure 129
0001
0010
0100
1000
,  // measure 130
0010
0100
0001
0000
,  // measure 131
0001
0010
1000
0000
,  // measure 132
0110
0000
0000
0000
,  // measure 133
0001
0000
1000
0000
,  // measure 134
0100
0000
1001
0000
,  // measure 135
0010
1000
0100
0000
,  // measure 136
0011
0000
1001
0000
,  // measure 137
1000
0100
1000
0100
,  // measure 138
0001
0100
0001
0100
,  // measure 139
1000
0010
1000
0010
,  // measure 140
0001
0010
0001
0010
,  // measure 141
1000
0100
0001
1000
,  // measure 142
0010
0001
1000
0000
,  // measure 143
0001
0010
1000
0001
,  // measure 144
0100
1000
0001
0000
,  // measure 145
0100
0010
1000
0100
,  // measure 146
0010
0001
0010
0001
,  // measure 147
0100
0010
0100
0010
,  // measure 148
1000
0100
0010
0000
,  // measure 149
1000
0100
0001
0000
,  // measure 150
0001
0100
1000
0000
,  // measure 151
0001
0010
1000
0000
,  // measure 152
1000
0010
0001
0000
,  // measure 153
1000
0100
0000
0010
0000
0001
0000
0100
,  // measure 154
0000
0010
0000
1000
0100
0000
0010
0000
,  // measure 155
0001
0100
0010
1000
,  // measure 156
0100
1000
0010
0100
,  // measure 157
0001
1000
0000
0010
0000
0100
0000
0001
,  // measure 158
0000
0010
0000
0100
1000
0000
0001
0000
,  // measure 159
1000
0100
0010
0001
,  // measure 160
0100
0001
0010
0100
,  // measure 161
1000
0001
0000
0010
0000
0001
0000
0100
,  // measure 162
0000
0010
0000
1000
0100
0000
0010
0000
,  // measure 163
0001
0100
0001
0010
,  // measure 164
0001
0100
0001
0010
,  // measure 165
0001
1000
0000
0010
0000
0100
0000
0001
,  // measure 166
0000
1000
0000
0100
0010
0000
0001
0000
,  // measure 167
1000
0100
1000
0010
,  // measure 168
1000
0100
1000
0010
,  // measure 169
1000
0100
0000
0010
0000
0001
0000
0100
,  // measure 170
0000
0010
0000
1000
0100
0000
0010
0000
,  // measure 171
0001
1000
0000
1000
0001
0000
0001
0010
,  // measure 172
0000
0010
0001
0000
1000
0000
0100
0000
,  // measure 173
0010
0001
0000
0010
0000
0100
0000
1000
,  // measure 174
0000
0010
0000
0100
0001
0000
0010
0000
,  // measure 175
0100
1000
0000
1000
0100
0000
0010
0001
,  // measure 176
0000
0001
0010
0000
0100
0000
1000
0000
,  // measure 177
1000
0100
0000
0010
0000
0001
0000
0010
,  // measure 178
0000
0100
0000
1000
0001
0000
0010
0000
,  // measure 179
0100
1000
0000
1000
0100
0000
0010
0001
,  // measure 180
0000
0001
0010
0000
0100
0000
1000
0000
,  // measure 181
0001
0100
0000
0010
0000
1000
0000
0100
,  // measure 182
0000
0010
0000
0001
1000
0000
0010
0000
,  // measure 183
0100
0001
0000
1000
0001
0000
0010
0001
,  // measure 184
0000
0100
0001
0000
0010
0001
0000
0001
,  // measure 185
1000
0100
1000
0100
,  // measure 186
0001
0100
0001
0100
,  // measure 187
1000
0010
0100
0001
,  // measure 188
1000
0000
0000
0000
,  // measure 189
1000
0010
0000
0000
0010
0100
0000
0000
,  // measure 190
0100
0001
0000
0000
0001
1000
0000
0000
,  // measure 191
1000
0100
0000
0000
0100
0000
0010
0000
,  // measure 192
0001
0000
1000
0001
1000
0000
0000
0000
,  // measure 193
0001
0000
0010
0001
0010
0000
0001
0000
,  // measure 194
1000
0000
0010
1000
0010
0000
1000
0000
,  // measure 195
0001
0000
0100
0010
0100
0000
0001
0000
,  // measure 196
1000
0000
0100
0010
0100
0000
1000
0000
,  // measure 197
0001
0100
0000
0000
0100
0010
0000
0000
,  // measure 198
0010
1000
0000
0000
1000
0100
0000
0000
,  // measure 199
0100
0010
0000
0000
0010
0000
0100
0000
,  // measure 200
1000
0000
0001
1000
0001
0000
1000
0000
,  // measure 201
0100
0000
0010
0001
0010
0000
0001
0000
,  // measure 202
0100
0000
0010
1000
0010
0000
1000
0000
,  // measure 203
0001
0000
0100
0010
0100
0000
0001
0000
,  // measure 204
1000
0100
0010
0001
,  // measure 205
1000
0100
0000
0000
0100
0001
0000
0000
,  // measure 206
0001
0100
0000
0000
0100
1000
0000
0000
,  // measure 207
1000
0100
0010
0001
,  // measure 208
1000
0000
0010
0100
0010
0000
1000
0000
,  // measure 209
0002
0000
0010
0000
,  // measure 210
0100
0000
0010
0000
,  // measure 211
0100
0000
0010
0000
,  // measure 212
1000
0000
2003
0000
,  // measure 213
3200
0000
0010
0000
,  // measure 214
1000
0000
0010
0000
,  // measure 215
0320
0000
0001
0001
,  // measure 216
0032
0000
2003
0001
,  // measure 217
3001
0000
0101
0000
,  // measure 218
1000
0000
1100
0000
,  // measure 219
0001
0000
0101
0000
,  // measure 220
1000
0000
1100
0000
,  // measure 221
0001
0010
0100
0000
,  // measure 222
1000
0001
0010
0000
,  // measure 223
0100
1000
0001
0000
,  // measure 224
0010
0000
1001
0000
,  // measure 225
0001
0100
0010
0000
,  // measure 226
1000
0100
0010
0000
,  // measure 227
0001
1000
0100
0000
,  // measure 228
0010
0001
0100
0000
,  // measure 229
0010
0000
1100
0000
,  // measure 230
0010
0000
0101
0000
,  // measure 231
1000
0000
1100
0000
,  // measure 232
1001
0000
0101
0000
,  // measure 233
0001
0010
0100
1000
,  // measure 234
0010
0100
1000
0100
,  // measure 235
0001
0010
0100
1000
,  // measure 236
0010
0100
1000
0000
,  // measure 237
0001
1000
0100
0010
,  // measure 238
1000
0010
0100
1000
,  // measure 239
0001
1000
0100
0010
,  // measure 240
1000
0010
0100
1000
,  // measure 241
0001
1000
0100
0001
,  // measure 242
0100
0010
1000
0010
,  // measure 243
0001
1000
0100
0001
,  // measure 244
0100
0010
1000
0010
,  // measure 245
0001
0100
0010
0001
,  // measure 246
1000
0100
0010
1000
,  // measure 247
0001
0100
0010
0001
,  // measure 248
1000
0100
0010
1000
,  // measure 249
0002
0000
0000
0000
,  // measure 250
0100
0000
0000
0000
,  // measure 251
0000
0000
0000
0000
,  // measure 252
0000
0000
0000
0000
,  // measure 253
0100
0000
0000
0000
,  // measure 254
0100
0000
0000
0000
,  // measure 255
0000
0000
0003
0000
,  // measure 256
1001
0000
0000
0000
,  // measure 257
1100
0000
0001
0000
,  // measure 258
0100
0001
1000
0000
,  // measure 259
0010
0000
0100
1000
,  // measure 260
0001
0100
1000
0000
,  // measure 261
0101
0000
1000
0000
,  // measure 262
0100
1000
0001
0000
,  // measure 263
0010
0000
0100
0001
,  // measure 264
1000
0100
0001
0000
,  // measure 265
0001
1000
0100
0010
,  // measure 266
0001
1000
0010
0000
,  // measure 267
0001
0100
0010
0100
,  // measure 268
0010
1000
0010
0000
,  // measure 269
0001
0010
1000
0001
,  // measure 270
0100
1000
0100
0000
,  // measure 271
0001
1000
0100
0010
,  // measure 272
0001
1000
0100
0000
,  // measure 273
0001
0001
0100
0100
,  // measure 274
1000
0100
0010
0001
,  // measure 275
1000
1000
0100
0100
,  // measure 276
0010
0001
0100
0000
,  // measure 277
0001
0001
1000
0001
,  // measure 278
0001
0001
1000
0001
,  // measure 279
0001
0001
1000
0001
,  // measure 280
1000
1000
0001
0000
,  // measure 281
1000
0100
1000
0010
,  // measure 282
0100
0001
0010
0001
,  // measure 283
0100
0010
0001
0010
,  // measure 284
0100
1000
0100
0001
,  // measure 285
0010
0100
1000
0010
,  // measure 286
0100
0001
0010
0001
,  // measure 287
0100
1000
0100
0010
,  // measure 288
1000
0100
0010
0000
,  // measure 289
0001
0010
0001
0100
,  // measure 290
1000
0100
0010
0001
,  // measure 291
0010
1000
0100
0010
,  // measure 292
0001
0100
0000
0100
0001
0000
0010
0000
,  // measure 293
1000
0100
0010
0001
,  // measure 294
0100
0010
1000
0100
,  // measure 295
1000
0100
0001
0100
,  // measure 296
1000
0010
0100
0000
,  // measure 297
1000
0100
0010
0100
,  // measure 298
1000
0010
0001
0010
,  // measure 299
1000
0100
0010
0001
,  // measure 300
1000
0010
0000
0010
1000
0000
0100
0000
,  // measure 301
0001
0010
0001
0100
,  // measure 302
0010
1000
0100
0010
,  // measure 303
1000
0010
0001
0100
,  // measure 304
0010
1000
0100
0000
,  // measure 305
0001
0010
1000
0010
,  // measure 306
0001
0100
0010
1000
,  // measure 307
0100
0010
1000
0010
,  // measure 308
0001
1000
0000
1000
0001
0000
0010
0000
,  // measure 309
1000
0100
0010
1000
,  // measure 310
0010
0100
0001
0100
,  // measure 311
1000
0010
0100
0001
,  // measure 312
0010
0100
1000
0000
,  // measure 313
0100
0001
0100
0001
,  // measure 314
0100
1000
0100
1000
,  // measure 315
0100
0001
0100
0001
,  // measure 316
0100
1000
0100
1000
,  // measure 317
0100
0001
0100
1000
,  // measure 318
0100
0001
0100
1000
,  // measure 319
0100
0001
0100
1000
,  // measure 320
0100
0010
0100
0010
,  // measure 321
0001
0100
0001
0010
,  // measure 322
0001
0100
0001
0010
,  // measure 323
0001
1000
0001
1000
,  // measure 324
0001
0100
0001
0100
,  // measure 325
1000
0001
1000
0001
,  // measure 326
1000
0010
1000
0010
,  // measure 327
1000
0100
1000
0010
,  // measure 328
1000
0100
0110
0000
,  // measure 329
1000
0100
1000
0010
,  // measure 330
0001
0010
1000
0100
,  // measure 331
0010
1000
0010
0001
,  // measure 332
0100
0010
1000
0000
,  // measure 333
0001
0100
1000
0010
,  // measure 334
0100
1000
0100
0001
,  // measure 335
0010
0100
1000
0010
,  // measure 336
0100
0001
0010
0000
,  // measure 337
1000
0100
0000
1000
0100
0000
0100
0010
,  // measure 338
0000
0100
0010
0000
0010
0001
0000
0010
,  // measure 339
0001
0000
0001
1000
0000
0001
1000
0000
,  // measure 340
0010
0100
1001
0000
,  // measure 341
0001
0100
0000
0100
0001
0000
1000
0010
,  // measure 342
0000
0010
1000
0000
0100
0010
0000
0010
,  // measure 343
0100
0001
1000
0010
,  // measure 344
0100
0001
0000
0100
0001
0000
0010
0000
,  // measure 345
0011
0000
0000
2020
0000
0000
0000
0000
,  // measure 346
3030
0000
0000
1000
,  // measure 347
1001
0000
0000
0011
0000
0000
0010
0000
,  // measure 348
0110
0000
0000
1100
0000
0000
1000
0000
,  // measure 349
1001
0000
0000
0202
0000
0000
0000
0000
,  // measure 350
0303
0000
0000
1000
,  // measure 351
1010
0000
0000
0101
0000
0000
0001
0000
,  // measure 352
0022
0000
0033
0000
,  // measure 353
1001
0000
0000
0220
0000
0000
0000
0000
,  // measure 354
0330
0000
0000
0010
,  // measure 355
1001
0000
0000
1100
0000
0000
0100
0000
,  // measure 356
0011
0000
0000
0101
0000
0000
0100
0000
,  // measure 357
1010
0000
0000
2002
0000
0000
0000
0000
,  // measure 358
3003
0000
0000
0010
,  // measure 359
1001
0000
0000
1010
0000
0000
0010
0000
,  // measure 360
0101
0000
0000
1001
0000
0000
0100
0000
,  // measure 361
1010
0000
0000
0022
0000
0000
0000
0000
,  // measure 362
0033
0000
0000
0011
,  // measure 363
1001
0000
0000
0101
0000
0000
1010
0000
,  // measure 364
1001
0000
0000
1100
0000
0000
0110
0000
,  // measure 365
0011
0000
0000
0202
0000
0000
0000
0000
,  // measure 366
0303
0000
0000
0110
,  // measure 367
1010
0000
0000
1001
0000
0000
0101
0000
,  // measure 368
0022
0000
0033
0000
,  // measure 369
1100
0000
0000
0022
0000
0000
0000
0000
,  // measure 370
0033
0000
0000
1001
,  // measure 371
0101
0000
0000
1010
0000
0000
1100
0000
,  // measure 372
0110
0000
0000
0011
0000
0000
1001
0000
,  // measure 373
0101
0000
0000
0022
0000
0000
0000
0000
,  // measure 374
0033
0000
0000
0011
,  // measure 375
0011
0000
0000
1100
0000
0000
1010
0000
,  // measure 376
1010
0000
0000
0101
0000
0000
1001
0000
,  // measure 377
2002
0000
0000
0000
,  // measure 378
0000
0000
0000
0000
,  // measure 379
0000
0000
0000
0000
,  // measure 380
0000
0000
0000
3003
;

//---------------dance-single - ----------------
#NOTES:
     dance-single:
     :
     Easy:
     7:
     0.517,0.665,0.426,0.047,0.000,1078.000,146.000,16.000,0.000,0.000:  // measure 1
1000
1000
1000
1000
,  // measure 2
0010
0100
0010
0000
1000
0001
1000
0000
,  // measure 3
0010
0000
0010
0000
0010
0100
0001
0000
,  // measure 4
1000
0000
1000
0000
1000
0010
0100
0000
,  // measure 5
0001
0100
0100
0100
,  // measure 6
0010
0010
0010
1000
,  // measure 7
0100
0010
0001
0000
1000
0100
0010
0000
,  // measure 8
0001
1000
0001
1000
,  // measure 9
0110
0000
1000
0000
,  // measure 10
1001
0000
0010
0000
,  // measure 11
0110
0000
0001
0000
,  // measure 12
0011
0000
1010
0000
,  // measure 13
0001
0100
0010
0000
,  // measure 14
1000
0100
0010
0000
,  // measure 15
0001
1000
0010
0000
,  // measure 16
0100
0001
1000
0000
,  // measure 17
0110
0000
1001
0000
,  // measure 18
0010
0000
0101
0000
,  // measure 19
1000
0000
0110
0000
,  // measure 20
0011
0000
1010
0000
,  // measure 21
0001
0010
0100
0000
,  // measure 22
1000
0100
0010
0000
,  // measure 23
0001
0100
0010
1000
,  // measure 24
0010
0100
0001
0000
,  // measure 25
1000
0100
0010
0001
,  // measure 26
1000
0100
0010
0001
,  // measure 27
1000
0100
0010
0001
,  // measure 28
0100
0000
0100
0000
,  // measure 29
0010
1000
0001
0100
,  // measure 30
0010
1000
0001
0100
,  // measure 31
0010
1000
0001
0100
,  // measure 32
0010
0000
0010
0000
,  // measure 33
1000
0001
0100
0000
,  // measure 34
0010
1000
0001
0000
,  // measure 35
0100
0010
1000
0000
,  // measure 36
0100
0010
0001
0000
,  // measure 37
1000
0100
1000
0100
,  // measure 38
0010
0001
0010
0001
,  // measure 39
0100
0000
0110
0000
,  // measure 40
0110
0000
1001
0000
,  // measure 41
0001
0100
0001
0100
,  // measure 42
0010
1000
0010
1000
,  // measure 43
0100
0010
0100
0010
,  // measure 44
0001
1000
0001
0000
,  // measure 45
0100
0010
0100
0010
,  // measure 46
1000
0001
1000
0001
,  // measure 47
0010
0100
1000
0001
,  // measure 48
0010
0100
1000
0000
,  // measure 49
0001
0100
0001
0000
,  // measure 50
1000
0100
1000
0000
,  // measure 51
0010
0100
0010
0000
,  // measure 52
1000
0001
1000
0000
,  // measure 53
0010
0100
0001
0100
,  // measure 54
0010
0100
0001
0100
,  // measure 55
0010
0000
1100
0000
,  // measure 56
1001
0000
0101
0000
,  // measure 57
1000
0100
0010
0000
,  // measure 58
1000
0100
0010
0000
,  // measure 59
0001
0100
0010
0000
,  // measure 60
0001
0100
0010
0100
,  // measure 61
0001
0010
0100
0000
,  // measure 62
1000
0010
0100
0000
,  // measure 63
0001
1000
0001
1000
,  // measure 64
0010
0000
0000
0000
,  // measure 65
0101
0000
1001
0000
,  // measure 66
0110
0000
1100
0000
,  // measure 67
0001
0000
0011
0000
,  // measure 68
1000
0000
1010
0000
,  // measure 69
0001
0010
0100
0000
,  // measure 70
1000
0010
0100
0000
,  // measure 71
0011
0000
1010
0000
,  // measure 72
0101
0000
1100
0000
,  // measure 73
0001
0010
0001
0100
,  // measure 74
0001
0010
0001
0100
,  // measure 75
0001
0010
0001
0100
,  // measure 76
0001
0010
0001
0000
,  // measure 77
1000
0010
1000
0100
,  // measure 78
1000
0010
1000
0100
,  // measure 79
1000
0010
1000
0100
,  // measure 80
1000
0010
1000
0000
,  // measure 81
0110
0000
1001
0000
,  // measure 82
0001
0010
0100
0000
,  // measure 83
0100
0010
0001
0000
,  // measure 84
1000
0100
0010
0000
,  // measure 85
0101
0000
1100
0000
,  // measure 86
0001
0010
0100
0000
,  // measure 87
1000
0100
0010
0001
,  // measure 88
1000
0100
0010
0000
,  // measure 89
0001
0010
0011
0000
,  // measure 90
0001
0010
0100
0100
,  // measure 91
1000
0100
1100
0000
,  // measure 92
1000
0100
0010
0000
,  // measure 93
0001
1000
1001
0000
,  // measure 94
1000
0100
0010
0010
,  // measure 95
0100
1000
1100
0000
,  // measure 96
0001
0010
0100
0000
,  // measure 97
1001
0000
1000
0000
,  // measure 98
0110
0000
0010
0000
,  // measure 99
1001
0000
0001
0000
,  // measure 100
0110
0000
0100
0000
,  // measure 101
0001
1000
0001
1000
,  // measure 102
0010
0100
0010
0100
,  // measure 103
0001
0010
0100
1000
,  // measure 104
0001
0010
0100
0000
,  // measure 105
2002
0000
0000
0000
,  // measure 106
0000
3000
2003
0000
,  // measure 107
0100
0000
0000
3020
0000
0000
0000
0000
,  // measure 108
0000
1000
0000
0000
,  // measure 109
1030
0000
0100
0000
,  // measure 110
0010
0000
0001
0100
,  // measure 111
0110
0000
0000
1001
0000
0000
0000
0000
,  // measure 112
1000
0100
0010
0001
,  // measure 113
0100
0100
0100
0100
,  // measure 114
0010
1000
0010
0000
0100
0001
0100
0000
,  // measure 115
0010
0010
0010
0010
,  // measure 116
1000
0001
1000
0000
0010
0100
0010
0000
,  // measure 117
1000
1000
1000
1000
,  // measure 118
0010
0100
0010
0000
1000
0100
1000
0000
,  // measure 119
0001
0001
0001
0001
,  // measure 120
0100
0010
0100
0000
0001
0010
0001
0000
,  // measure 121
1000
0000
1100
0000
,  // measure 122
0100
0000
1100
0000
,  // measure 123
0010
0100
0100
0010
,  // measure 124
0100
0010
0010
0000
,  // measure 125
0001
0000
0101
0000
,  // measure 126
0100
0000
0101
0000
,  // measure 127
1000
0100
1000
0100
,  // measure 128
1000
0001
0100
0000
,  // measure 129
1100
0000
1000
0000
,  // measure 130
1100
0000
0100
0000
,  // measure 131
0010
0001
0100
0001
,  // measure 132
0010
0001
0100
0000
,  // measure 133
0110
0000
0001
0000
,  // measure 134
0110
0000
0001
0000
,  // measure 135
1000
0100
1000
0010
,  // measure 136
1000
0000
1100
0000
,  // measure 137
0001
0010
0100
0000
,  // measure 138
0001
0010
0100
0000
,  // measure 139
1000
0100
0010
0000
,  // measure 140
1000
0100
0010
0000
,  // measure 141
0001
0100
0001
0000
,  // measure 142
1000
0100
1000
0000
,  // measure 143
0001
0010
0100
0000
,  // measure 144
1000
0100
0010
0000
,  // measure 145
0101
0000
0101
0000
,  // measure 146
0101
0000
0101
0000
,  // measure 147
1100
0000
1100
0000
,  // measure 148
1100
0000
1100
0000
,  // measure 149
0011
0000
1010
0000
,  // measure 150
0011
0000
1010
0000
,  // measure 151
0101
0000
1100
0000
,  // measure 152
0101
0000
1100
0000
,  // measure 153
0001
0100
0010
0000
,  // measure 154
1000
0010
0100
0000
,  // measure 155
1001
0000
1001
0000
,  // measure 156
0010
0100
0001
0000
,  // measure 157
1100
0000
0101
0000
,  // measure 158
1000
0010
0100
0000
,  // measure 159
0011
0000
1000
0000
,  // measure 160
0100
0010
0001
0000
,  // measure 161
1100
0000
0010
0000
,  // measure 162
0101
0000
0010
0000
,  // measure 163
1000
0001
0100
0000
,  // measure 164
0010
1000
0100
0000
,  // measure 165
0011
0000
0100
0000
,  // measure 166
1010
0000
0100
0000
,  // measure 167
0001
1000
0001
1000
,  // measure 168
0010
0100
0010
0100
,  // measure 169
0001
0000
1100
0000
,  // measure 170
0001
0000
1100
0000
,  // measure 171
0010
0100
0010
0000
,  // measure 172
0001
0001
1000
1000
,  // measure 173
0100
0010
0001
0000
,  // measure 174
1000
0100
0010
0000
,  // measure 175
0101
0000
1000
0000
,  // measure 176
0110
0000
1000
0000
,  // measure 177
0001
0100
0010
0100
,  // measure 178
0001
0100
0010
0000
,  // measure 179
1100
0000
0001
0000
,  // measure 180
0101
0000
1000
0000
,  // measure 181
0010
0100
0010
0100
,  // measure 182
0001
0010
0001
0010
,  // measure 183
0100
1000
0100
0010
,  // measure 184
0001
0010
0100
1000
,  // measure 185
0100
0000
0100
0000
,  // measure 186
0100
0000
0100
0000
,  // measure 187
0010
0000
0010
0000
,  // measure 188
0010
0000
0000
0000
,  // measure 189
0001
0000
0100
0000
,  // measure 190
0010
0000
0100
0000
,  // measure 191
0001
0000
1000
0100
,  // measure 192
0010
0000
1001
0000
,  // measure 193
1000
0100
0010
0000
,  // measure 194
0010
0100
1000
0000
,  // measure 195
0001
0010
0100
0000
,  // measure 196
1001
0000
1001
0000
,  // measure 197
1000
0010
0100
0000
,  // measure 198
0100
0010
1000
0000
,  // measure 199
0001
0100
0010
0100
,  // measure 200
0001
0000
0001
0000
,  // measure 201
1000
0100
1000
0000
,  // measure 202
0010
0100
0010
0000
,  // measure 203
1000
0001
1000
0000
,  // measure 204
0010
0100
0010
0000
,  // measure 205
1000
0100
1000
0000
,  // measure 206
0001
0010
0001
0000
,  // measure 207
0100
0010
0100
0000
,  // measure 208
1100
0000
0101
0000
,  // measure 209
1000
0010
1000
0000
,  // measure 210
0100
0010
0100
0000
,  // measure 211
1000
0001
1000
0000
,  // measure 212
0010
0100
0010
0000
,  // measure 213
1000
0100
1000
0100
,  // measure 214
0010
0100
0010
0100
,  // measure 215
1000
0001
1000
0001
,  // measure 216
0010
0001
0010
0001
,  // measure 217
0100
0000
0100
0000
,  // measure 218
0100
0000
0100
0000
,  // measure 219
0010
0000
0010
0000
,  // measure 220
0010
0000
0010
0000
,  // measure 221
1000
0000
1000
0000
,  // measure 222
0001
0000
0001
0000
,  // measure 223
0010
0000
0100
0000
,  // measure 224
1000
0000
0001
0000
,  // measure 225
0200
0000
0310
0000
,  // measure 226
0020
0000
0130
0000
,  // measure 227
2000
0000
3100
0000
,  // measure 228
0200
0000
1300
0000
,  // measure 229
0002
0000
0103
0000
,  // measure 230
0200
0000
0301
0000
,  // measure 231
2000
0000
3200
0000
,  // measure 232
0320
0000
0032
0000
,  // measure 233
1003
0000
1000
0000
,  // measure 234
1000
0000
1000
0000
,  // measure 235
0010
0100
0010
0000
,  // measure 236
1000
0001
1000
0000
,  // measure 237
0010
0000
0010
0000
,  // measure 238
0010
0000
0010
0000
,  // measure 239
0100
0001
0100
0000
,  // measure 240
0010
1000
0010
0000
,  // measure 241
0100
0000
0100
0000
,  // measure 242
0100
0000
0100
0000
,  // measure 243
0001
0010
0001
0000
,  // measure 244
1000
0010
1000
0000
,  // measure 245
0100
0000
0100
0000
,  // measure 246
0100
0000
0100
0000
,  // measure 247
0010
0001
0010
0000
,  // measure 248
0100
1000
0100
0000
,  // measure 249
0011
0000
1000
0000
,  // measure 250
0100
1000
0100
0000
,  // measure 251
0010
0000
0010
0000
,  // measure 252
0001
0100
0001
0000
,  // measure 253
1100
0000
0010
0000
,  // measure 254
0010
0100
1000
0000
,  // measure 255
0001
0010
0001
0010
,  // measure 256
0001
0100
0010
1000
,  // measure 257
0100
0000
0101
0000
,  // measure 258
1000
0100
0010
0000
,  // measure 259
0101
0000
1001
0000
,  // measure 260
1100
0000
1001
0000
,  // measure 261
0001
0100
0010
0000
,  // measure 262
0001
0100
0010
0000
,  // measure 263
1000
0001
0100
0001
,  // measure 264
1000
0000
0110
0000
,  // measure 265
0001
0010
0100
1000
,  // measure 266
0001
0010
0100
0000
,  // measure 267
1000
0000
0010
0000
,  // measure 268
0100
0000
0001
0000
,  // measure 269
1000
0010
0100
0001
,  // measure 270
1000
0010
0100
0000
,  // measure 271
0001
0000
0010
0000
,  // measure 272
0100
0000
1000
0000
,  // measure 273
0010
0100
0001
0000
,  // measure 274
0010
0100
0001
0000
,  // measure 275
0110
0000
1100
0000
,  // measure 276
0101
0000
0110
0000
,  // measure 277
1000
0001
0100
0000
,  // measure 278
1000
0001
0100
0000
,  // measure 279
1010
0000
1000
0000
,  // measure 280
1010
0000
0010
0000
,  // measure 281
0100
0001
0100
0000
,  // measure 282
0100
0010
0100
0000
,  // measure 283
0010
1000
0010
0000
,  // measure 284
0010
0100
0010
0000
,  // measure 285
1000
0100
1000
0000
,  // measure 286
1000
0010
1000
0000
,  // measure 287
0001
0100
0001
0000
,  // measure 288
0001
0010
0001
0000
,  // measure 289
0100
0010
0100
0010
,  // measure 290
0100
0001
0100
0000
,  // measure 291
0010
1000
0010
1000
,  // measure 292
0010
0100
0010
0000
,  // measure 293
1000
0100
0010
0000
,  // measure 294
0010
0100
1000
0000
,  // measure 295
0001
0010
0001
0010
,  // measure 296
0100
1000
0100
0000
,  // measure 297
0101
0000
0101
0000
,  // measure 298
0101
0000
0101
0000
,  // measure 299
1000
0100
0010
0000
,  // measure 300
1000
0100
0010
0000
,  // measure 301
0101
0000
1100
0000
,  // measure 302
1100
0000
1100
0000
,  // measure 303
0001
0010
0100
0000
,  // measure 304
0001
0010
0100
0000
,  // measure 305
1000
0010
1000
0010
,  // measure 306
0100
0010
0100
0000
,  // measure 307
0001
0010
0100
0000
,  // measure 308
0001
0010
0100
0000
,  // measure 309
1000
0001
1000
0001
,  // measure 310
0100
0001
0100
0000
,  // measure 311
0010
0100
0001
0000
,  // measure 312
0010
0100
1000
0000
,  // measure 313
0110
0000
1001
0000
,  // measure 314
1000
0001
0100
0001
,  // measure 315
1000
0000
0110
0000
,  // measure 316
0010
0000
0010
0000
,  // measure 317
0110
0000
1001
0000
,  // measure 318
0001
0010
0001
0010
,  // measure 319
0001
0000
0110
0000
,  // measure 320
0100
0000
0100
0000
,  // measure 321
1010
0000
1010
0000
,  // measure 322
0001
0100
0001
0100
,  // measure 323
0001
0000
0101
0000
,  // measure 324
1000
0000
1000
0000
,  // measure 325
1100
0000
0100
0000
,  // measure 326
0100
0010
0001
0010
,  // measure 327
0100
0000
1001
0000
,  // measure 328
0010
0000
1001
0000
,  // measure 329
0100
0000
0001
0000
,  // measure 330
1000
0100
0010
0000
,  // measure 331
0001
0010
0001
0000
,  // measure 332
0100
0010
0100
0000
,  // measure 333
1001
0000
1100
0000
,  // measure 334
0010
0001
0010
0000
,  // measure 335
0100
1000
0100
0000
,  // measure 336
0010
0001
0010
0000
,  // measure 337
1100
0000
1001
0000
,  // measure 338
0101
0000
1001
0000
,  // measure 339
0110
0000
1001
0000
,  // measure 340
1100
0000
0101
0000
,  // measure 341
1000
0000
0100
0000
,  // measure 342
0010
0000
0001
0000
,  // measure 343
1000
0100
0010
0001
,  // measure 344
1000
0100
0010
0001
,  // measure 345
0100
0000
1010
0000
,  // measure 346
0100
0000
0011
0000
,  // measure 347
1000
0100
0010
0001
,  // measure 348
0010
0100
1000
0100
,  // measure 349
0010
0000
0101
0000
,  // measure 350
0010
0000
1100
0000
,  // measure 351
0001
0010
0100
1000
,  // measure 352
0100
0010
0001
0010
,  // measure 353
0100
0000
1100
0000
,  // measure 354
0001
0000
0101
0000
,  // measure 355
1000
0010
0100
0000
,  // measure 356
0001
0010
0100
0000
,  // measure 357
1000
0000
0110
0000
,  // measure 358
0001
0000
1100
0000
,  // measure 359
0001
0100
0010
0000
,  // measure 360
1000
0100
0010
0001
,  // measure 361
0010
0000
1100
0000
,  // measure 362
0010
0000
0101
0000
,  // measure 363
1000
0010
0100
0010
,  // measure 364
1000
0100
0010
0000
,  // measure 365
0101
0000
1000
0000
,  // measure 366
0010
0100
0001
0000
,  // measure 367
1000
0010
0100
0001
,  // measure 368
0010
0000
0000
0000
,  // measure 369
0100
1000
0010
0100
,  // measure 370
0001
0010
0100
0000
,  // measure 371
1000
0001
0100
0001
,  // measure 372
0010
0001
0100
0001
,  // measure 373
0010
0000
1100
0000
,  // measure 374
0010
0100
0001
0000
,  // measure 375
1000
0010
1000
0000
,  // measure 376
0101
0000
1100
0000
,  // measure 377
0022
0000
0000
0000
,  // measure 378
0000
0000
0000
0000
,  // measure 379
0000
0000
0000
0000
,  // measure 380
0000
0000
0000
0033
;
