#TITLE:Hyperion;
#SUBTITLE:;
#ARTIST:Helix Eternal;
#TITLETRANSLIT:;
#SUBTITLETRANSLIT:;
#ARTISTTRANSLIT:;
#CREDIT:;
#BANNER:hyperion-bn.png;
#BACKGROUND:hyperion-bg.png;
#LYRICSPATH:;
#CDTITLE:;
#MUSIC:hyperion(short).mp3;
#OFFSET:-0.060;
#SAMPLESTART:40.780;
#SAMPLELENGTH:27.000;
#SELECTABLE:YES;
#BPMS:0.000=140.000;
#STOPS:;
#BGCHANGES:;
// cache tags:
#FIRSTBEAT:32.000;
#LASTBEAT:288.000;
#SONGFILENAME:Songs/StepMix 1.0/Hyperion/hyperion.sm;
#HASMUSIC:1;
#HASBANNER:1;
#MUSICLENGTH:127.399;
// end cache tags

//---------------dance-single - ----------------
#NOTES:
     dance-single:
     :
     Beginner:
     2:
     0.119,0.226,0.063,0.024,0.000,95.000,8.000,3.000,0.000,0.000:
0000
0000
0000
0000
,
0000
0000
0000
0000
,
0000
0000
0000
0000
,
0000
0000
0000
0000
,
0000
0000
0000
0000
,
0000
0000
0000
0000
,
0000
0000
0000
0000
,
0000
0000
0000
0000
,
1000
1000
0000
0000
,
0001
0001
0000
0000
,
0100
0100
0000
0000
,
0010
0010
0000
0000
,
0100
0001
0000
0000
,
0001
0100
0000
0000
,
0100
0010
0000
0000
,
0010
1000
0000
0000
,
1001
0000
0100
0000
,
1001
0000
0010
0000
,
1001
0000
0001
0000
,
1000
0000
0001
0000
,
0200
0000
0000
0000
,
0310
0000
0000
0000
,
2000
0000
0000
0000
,
0000
0000
0000
0000
,
3001
0000
0000
0100
,
0100
0000
0000
0000
,
1000
0000
0000
0100
,
0100
0000
0000
0000
,
1000
0000
0000
0001
,
0001
0000
0000
0000
,
1000
0000
0000
0010
,
0010
0000
0000
0000
,
1000
0000
0000
0001
,
0001
0000
0000
0000
,
1000
0000
0000
0010
,
0010
0000
0000
0000
,
1000
0000
0001
0000
,
1000
0000
0001
0000
,
0100
0000
0010
0000
,
0100
0000
0010
0000
,
1001
0000
0000
0000
,
1001
0000
0000
0000
,
1000
0000
0000
0000
,
0110
0000
0000
0000
,
0001
0000
0000
0000
,
0110
0000
0000
0000
,
0010
0000
0000
0000
,
1000
0000
0000
0000
,
0001
0000
0000
0000
,
1000
0000
0000
0000
,
0100
0000
0000
0000
,
0010
0000
0000
0000
,
0001
0000
0000
0000
,
1000
0000
0000
0000
,
0020
0000
0000
0000
,
0000
0000
0000
0000
,
1030
0000
0000
0001
,
0001
0000
0000
0000
,
1000
0000
0000
0010
,
0010
0000
0000
0000
,
0100
0000
0000
0001
,
0001
0000
0000
0000
,
1000
0000
0000
0100
,
0100
0000
0000
0000
,
1000
0000
0000
0100
,
0100
0000
0000
0000
,
0010
0000
0000
0001
,
0001
0000
0000
0000
,
0010
0000
0000
0100
,
0100
0000
0000
0000
,
0001
0000
0000
1000
,
1000
0000
1000
0001
,
1001
0000
0000
0000
;

//---------------dance-single - ----------------
#NOTES:
     dance-single:
     :
     Challenge:
     11:
     0.820,0.763,0.094,0.047,1.000,713.000,12.000,6.000,2.000,0.000:
0000
0000
0000
0000
,
0000
0000
0000
0000
,
0000
0000
0000
0000
,
0000
0000
0000
0000
,
0000
0000
0000
0000
,
0000
0000
0000
0000
,
0000
0000
0000
0000
,
0000
0000
0000
0000
,
1000
0100
0000
0100
0010
0000
0010
0001
0000
0001
0100
0000
0100
0010
1000
0100
,
0010
0001
0000
0001
0100
0000
0100
0001
0000
0001
0010
0000
0010
0001
1000
0010
,
0100
0001
0000
0001
1000
0000
0001
0100
0000
0001
0010
0000
0010
0001
0100
0010
,
1000
0010
0000
0100
0001
0000
0100
0010
0000
1000
0100
0000
1000
0100
0010
0001
,
0010
0100
0000
0010
0001
0000
0010
0100
0000
1000
0001
0000
1000
0001
0010
0001
,
0100
0010
0000
0010
0001
0000
0001
0010
0000
0010
0100
0000
0100
0001
0010
0100
,
1000
0100
0000
0100
0001
0000
0001
0100
0000
0100
1000
0000
1000
0100
0010
0100
,
1000
0001
0000
0001
0100
0000
0100
1000
0000
1000
0100
0000
0100
0001
0010
0100
,
0010
0001
0000
0001
0100
0000
0100
0001
0000
0001
0010
0000
0010
0001
0100
0010
,
1000
0010
0000
0010
1000
0000
1000
0100
0000
0100
1000
0000
1000
0100
0010
0001
,
0100
0010
0000
0010
0100
0000
0100
1000
0000
1000
0100
0000
0100
0010
1000
0001
,
0010
0100
0000
0100
0010
0000
0010
0001
0000
0001
0100
0000
0100
0010
1000
0000
,
1001
M00M
1000
0100
0001
0100
1000
0100
,
0010
0001
0000
0001
0100
0000
0001
0000
0100
0000
1000
0000
0100
0000
0001
0000
,
0100
0000
0010
0000
0000
1000
0000
0000
0100
0000
0020
0000
0000
0002
0030
0000
,
0200
0003
0000
0020
0300
0000
2000
0030
0000
0002
3000
0000
0013
0000
0000
0000
,
1001
0000
0001
0010
0001
0000
0010
0100
0010
0000
0100
1000
0100
0000
1000
0001
,
1000
0000
0001
0100
0001
0000
0100
0010
0100
0000
0010
1000
0010
1000
0100
1000
,
0100
0000
1000
0100
0010
0000
0100
0010
0001
0000
0010
0001
0100
0000
0001
0100
,
0010
0000
0100
0010
1000
0000
0010
1000
0100
0000
1000
0100
0010
0100
1000
0010
,
0100
0000
0010
0100
0001
0000
0100
0001
0010
0000
0100
1000
0010
0000
1000
0010
,
0100
0000
0010
0100
0001
0000
0100
0001
1000
0000
0001
1000
0010
0100
0001
0010
,
0100
0000
0010
0100
1000
0000
0100
1000
0100
0000
1000
0001
0100
0000
0001
0100
,
0001
0000
0100
0001
0010
0000
0001
0010
0001
0000
0010
0100
1000
0100
0010
0100
,
0010
0000
0100
0010
0001
0000
0010
0001
0100
0000
0100
0010
1000
0100
0010
0001
,
1000
0010
0000
0010
0001
0000
0001
0010
0000
0010
1000
0000
1000
0010
0100
0001
,
1000
0000
0001
1000
0010
0000
1000
0010
0100
0000
0010
0100
0001
0000
0100
0001
,
0010
0000
0100
0010
0001
0000
0010
0001
0100
0000
0001
0100
0010
1000
0001
0010
,
0100
0000
0010
0100
1000
0000
0100
1000
0010
0000
1000
0010
1000
0001
0010
0001
,
1000
0100
0000
0100
0001
0000
0001
0100
0000
0100
1000
0000
1000
0100
0010
0100
,
1000
0001
0000
0001
1000
0000
1000
0001
0000
0001
0010
0000
0001
0010
0100
1000
,
0010
0000
1000
0010
1000
0000
0010
1000
0100
0010
0001
0000
0010
0100
1000
0100
,
0010
0000
0001
0000
0101
0000
0001
0100
0000
0010
0000
0100
0001
0000
0010
0000
,
0100
0000
1000
0000
1001
0000
0001
0100
0000
0010
0000
1000
0100
0000
0010
0000
,
0100
0000
1000
0000
1100
0000
1000
0010
0000
0100
0000
0001
0100
0000
0010
0000
,
0100
0000
0001
0000
0011
0000
0010
0100
0000
1000
0000
0010
0100
0000
0001
0000
,
1000
0010
1000
0100
1000
0000
0100
0010
0000
0100
0000
0010
0001
0000
0100
0000
,
0001
0100
0001
0100
0001
0000
0100
0010
0000
1000
0000
0001
0010
0000
0001
0000
,
0010
0001
0010
0001
0010
0000
0001
0100
0000
0010
0000
1000
0010
0000
0100
0000
,
0001
0010
0000
0100
1000
0000
0010
0100
0000
0001
0000
0010
0001
0000
1000
0000
,
0001
1000
0001
1000
0001
0000
1000
0010
0000
0100
0000
0010
0100
0000
0001
0000
,
0010
0100
0000
1000
0010
0000
0100
0001
0000
0010
0000
0100
1000
0000
0001
0000
,
0100
0001
0000
1000
0001
0000
1000
0010
0000
0100
0000
0010
1000
0000
0010
0000
,
1000
0001
0000
1000
0100
0000
1000
0010
0000
0100
0000
0001
1000
0000
0010
0000
,
1000
0100
0010
0100
1000
0000
0001
1000
0000
0010
0000
1000
0100
0000
1000
0000
,
0010
0100
0000
0010
1000
0000
0100
0010
0000
0001
0000
1000
0001
0000
1000
0000
,
0010
1000
0100
1000
0001
0000
1000
0010
0000
0100
0000
0001
0010
0000
0100
0000
,
1100
0000
0000
1001
0000
0000
0101
0000
0110
0000
0000
1010
0000
0000
1001
0000
,
1000
0010
0000
0010
0100
0000
0100
0001
0000
0001
0010
0000
0010
0100
1000
0000
,
1000
0010
0000
0010
0100
0000
0100
0001
0000
0001
1000
0000
1000
0001
0010
0000
,
0010
0001
0000
0001
0100
0000
0100
0010
0000
0010
0100
0000
0100
0001
0010
0000
,
0010
0100
0000
0100
1000
0000
1000
0001
0000
0001
0010
0000
0010
0001
0100
0000
,
0100
0010
0000
0010
0001
0000
0001
0010
0000
0010
1000
0000
1000
0100
0010
0000
,
0010
0100
0000
0100
1000
0000
1000
0100
0000
0100
0010
0000
0010
0001
1000
0000
,
1000
0010
0000
0100
0001
0000
0010
0100
0000
1000
0001
0000
1000
0001
0100
0000
,
0001
0100
0000
0010
0100
0000
0010
1000
0000
0010
0100
0000
0010
1000
0100
0000
,
1000
0010
0000
0100
0010
0000
0100
0001
0000
0010
0100
0000
0010
0100
1000
0000
,
0100
0010
0000
0100
1000
0000
0010
0100
0000
0001
1000
0000
0001
1000
0100
0010
,
0001
0100
0000
0001
0010
0000
0100
1000
0000
0100
0010
0000
0001
0100
0010
1000
,
0100
0010
0000
0100
1000
0000
0100
0010
0000
0001
0100
0000
0001
1000
0010
1000
,
0100
0010
0000
0100
0010
0000
0001
0100
0000
0010
0100
0000
0010
1000
0100
0010
,
0001
0100
0000
0010
1000
0000
0010
0100
0000
0001
1000
0000
0001
1000
0010
0100
,
0001
0010
0000
0001
1000
0000
0001
0100
0000
0001
0010
0000
0001
0010
0100
1000
,
0001
0000
1000
0001
0100
0000
0001
0010
0100
0000
1000
0100
0010
0001
0100
0010
,
1000
0000
0000
0000
;

//---------------dance-single - ----------------
#NOTES:
     dance-single:
     :
     Easy:
     5:
     0.272,0.311,0.102,0.071,0.000,221.000,13.000,9.000,0.000,0.000:
0000
0000
0000
0000
,
0000
0000
0000
0000
,
0000
0000
0000
0000
,
0000
0000
0000
0000
,
0000
0000
0000
0000
,
0000
0000
0000
0000
,
0000
0000
0000
0000
,
0000
0000
0000
0000
,
1000
0100
0010
0001
,
0100
0001
0100
0001
,
0100
0010
0100
0010
,
1000
0000
0010
0000
1000
0001
1000
0000
,
0001
0000
0100
0000
0001
0000
0010
0100
,
0010
0000
0100
0000
1000
0000
0001
1000
,
0001
0100
0010
1000
,
0001
0000
0010
0000
0100
0000
1000
0001
,
1000
0001
1000
0100
,
1001
0010
0100
0001
,
1000
0100
1000
0010
,
1000
0000
0001
0000
1000
0000
0001
1000
,
0001
1000
0000
0001
,
0101
0000
0000
0100
,
0010
0000
1000
0002
,
0010
0000
1000
0000
,
0103
0001
1001
0000
,
0001
1000
0001
0000
,
0100
0010
0100
0000
,
0001
0000
1000
0000
0001
1000
0001
0000
,
1000
0100
1000
0000
,
0100
1000
0010
0000
,
1000
0010
0100
0000
,
0010
0100
0001
1000
,
0001
0000
0100
0001
,
1001
0001
1000
0000
,
0002
1000
0000
0010
,
0013
0000
0010
0001
,
1000
0000
1000
0001
,
1001
0000
0000
0001
,
1000
0010
1000
0001
,
0010
0001
1000
0001
,
1001
0200
0000
0000
,
0301
0020
0000
0000
,
0130
2000
0000
0000
,
3001
0200
0000
0000
,
0301
2000
0000
0000
,
3001
0020
0000
0000
,
0130
1000
0001
0000
,
0001
1000
0010
0000
,
0010
0100
0001
0001
,
1000
0010
0010
0100
,
0001
0001
1000
0100
,
0100
1000
0001
0001
,
1000
0100
0100
1000
,
0100
0010
0001
1000
,
0001
0000
1000
0000
0010
1000
0000
2000
,
0000
0000
0000
0000
,
3100
0010
0001
0010
,
0011
0000
0001
0100
,
0010
1000
0001
1000
,
1001
0000
1000
0100
,
0010
0001
1000
0010
,
1010
0000
1000
0010
,
0100
0001
0010
0001
,
0011
0000
0001
0010
,
0100
0000
0010
0001
,
1001
0000
0001
0100
,
0010
1000
0001
0100
,
0101
0001
1000
0100
,
1000
0001
0100
0001
,
1000
0001
0010
0100
,
1000
0001
1000
0001
,
0100
0010
1000
0001
,
1001
0000
0000
0000
;

//---------------dance-single - ----------------
#NOTES:
     dance-single:
     :
     Hard:
     10:
     0.733,0.763,0.063,0.000,0.852,646.000,8.000,0.000,14.000,0.000:
0000
0000
0000
0000
,
0000
0000
0000
0000
,
0000
0000
0000
0000
,
0000
0000
0000
0000
,
0000
0000
0000
0000
,
0000
0000
0000
0000
,
0000
0000
0000
0000
,
0000
0000
0000
0000
,
1000
0100
0000
1000
0010
0000
0100
0000
0001
0000
0010
0100
1000
0000
0100
0000
,
0010
0001
0000
0100
0010
0000
1000
0100
0000
0010
0001
0000
1000
0010
0100
0000
,
0001
0010
0000
0100
1000
0000
0010
1000
0000
0010
0100
0000
0001
0000
0010
0000
,
0100
1000
0000
0100
0010
0000
0100
1000
0000
0001
0100
0000
0010
0000
1000
0000
,
0100
0010
0001
1000
0010
0000
1000
0000
0100
0000
0001
0000
0100
0000
1000
0000
,
0010
1000
0100
0010
0001
0000
0010
0000
0100
0000
1000
0000
0001
0000
0100
0000
,
0010
1000
0100
1000
0001
0000
0100
0001
0000
0010
0100
0000
0010
0000
0001
0000
,
1000
0010
0100
0001
0010
0000
0001
0000
0100
0000
0100
0001
0010
0000
0100
0000
,
1000
0010
0000
0100
0010
0000
0100
0000
0001
0000
0010
0000
0100
0000
1000
0010
,
0100
0000
0001
0000
0010
0000
0100
1000
0000
1000
0010
0000
0100
0000
0010
0000
,
1000
0001
0000
1000
0010
0000
0100
0001
0000
0100
0010
0000
1000
0000
0001
0000
,
0010
0100
0000
1000
0010
0000
0100
0000
0010
0000
0010
0100
0001
0000
0100
0000
,
0101
0000
0001
0000
1000
0000
0001
0100
,
1000
0000
0000
0100
0000
0000
0001
0000
1000
0000
0000
0000
1000
0000
0100
0000
,
0001
0000
0000
0000
0100
0000
0000
0000
1000
0000
0001
0000
0000
0100
0000
0000
,
0010
0000
0000
1000
0100
0000
0010
0000
0001
0000
1000
0000
0000
0000
0001
0000
,
1001
0000
1000
0100
0010
0000
0100
0010
0001
0000
0010
0001
0100
0000
0001
0100
,
0010
0000
1000
0000
0001
0010
0000
0010
0100
0000
0010
0100
1000
0010
0100
0001
,
0010
0000
0001
0010
0100
0000
0010
0100
1000
0000
0100
1000
0010
0000
1000
0010
,
0100
0000
0010
0000
0100
0001
0000
0001
0010
0000
0001
0010
0100
1000
0010
0100
,
0001
0000
0100
0001
0010
0000
0001
0010
0100
0000
0010
0100
1000
0000
0100
1000
,
0010
0000
1000
0000
0010
0100
0000
0100
0001
0000
0100
0001
0010
0100
1000
0100
,
0010
0000
0001
0000
0100
0000
0001
0100
0000
0100
0010
0000
0100
0000
0001
0010
,
0100
1000
0000
1000
0010
0000
1000
0010
0100
0000
0010
0100
0001
0010
0001
1000
,
0010
0000
1000
0000
0100
0000
0010
0001
00M0
0000
0001
0000
0100
0000
0001
0000
,
0010
0000
0100
0000
1000
0000
0100
0010
0M00
0010
0001
0100
0010
1000
0100
1000
,
0010
0000
1000
0000
0010
0000
0100
0001
0M00
0000
0001
0000
1000
0000
0010
0000
,
0100
0000
0001
0000
0010
0000
0100
1000
0M00
1000
0010
1000
0001
0010
0100
0010
,
0001
0000
0100
0000
0010
0000
1000
0100
M000
0000
0100
0000
0010
0000
0001
0000
,
1000
0000
0010
0000
0100
0000
0001
0010
000M
0010
0100
1000
0010
1000
0001
0010
,
0100
0010
0001
1000
0100
0001
0100
1000
,
0010
0000
0001
0000
0010
0000
1000
0000
0001
0000
0010
0000
0001
1000
0001
1000
,
0001
0000
1000
0000
1001
0000
M00M
0000
0000
0000
0001
0100
0010
0000
1000
0000
,
1000
0000
0001
0000
0101
0000
0M0M
0000
0000
0000
0100
0010
1000
0000
0100
0000
,
0100
0000
0010
0000
0011
0000
00MM
0000
0000
0000
0001
1000
0100
0000
0010
0000
,
0010
0000
0100
0000
1100
0000
MM00
0000
0000
0000
1000
0010
0100
0000
0001
0000
,
0010
0000
0001
0000
0100
0000
0010
1000
0000
0001
0000
1000
0100
0000
1000
0000
,
0010
0000
0100
0000
0001
0000
0100
0001
0000
0010
0000
0001
0100
0000
0001
0000
,
0010
0000
0100
0000
1000
0000
0001
0100
0000
0010
0000
1000
0100
0000
1000
0000
,
0001
0000
0010
0000
0001
0000
0100
0010
0000
1000
0000
0100
1000
0000
0100
0000
,
1001
0000
0001
0000
0100
0000
0010
1000
0000
0100
0000
0010
0001
0000
0010
0001
,
0100
0000
0001
0000
0100
0000
0010
1000
0000
0100
0000
1000
0001
0000
1000
0001
,
0100
0000
0001
0000
0010
0000
0001
0010
0000
0100
0000
0010
0001
0000
0100
0000
,
0010
0000
1000
0000
0001
0000
0010
0001
0000
1000
0000
0010
0100
0000
0010
0000
,
1000
0010
0100
0000
0001
0000
0010
0100
0000
0010
0000
0100
1000
0000
0001
0000
,
0100
0001
0000
0010
0100
0000
0010
0100
0000
1000
0000
0100
0010
0000
0001
0000
,
0100
0001
0000
0010
0001
0000
0010
0100
0000
0010
0000
0100
1000
0000
0100
0000
,
0010
0000
0000
0001
0000
0000
0100
0000
0010
0000
0000
1000
0000
0000
0001
0000
,
1001
0000
1000
0000
0001
0010
0000
0001
0100
0000
0010
0000
0100
0001
0000
0010
,
0100
0000
0010
0000
0001
0100
0000
0010
1000
0000
0010
1000
0100
0010
0001
0100
,
0010
0000
1000
0000
0100
0010
0000
0100
1000
0000
0100
0000
0010
0001
0000
0100
,
0010
0000
1000
0000
0001
1000
0000
0100
0010
0000
0100
0010
0001
0010
0100
1000
,
0001
0000
0100
0000
0010
0100
0000
0001
0010
0000
0100
0000
0010
0001
0000
0100
,
0010
0000
1000
0000
0010
1000
0000
0100
1000
0000
0100
0010
0001
0100
0010
0100
,
0001
0000
0100
0000
0010
1000
0000
0001
1000
0000
0001
0000
0010
0001
0000
0010
,
0100
0000
0010
0000
0100
1000
0000
0001
0100
0000
0010
1000
0100
1000
0001
0100
,
0010
0000
0100
0001
0010
0000
0001
0010
0001
0000
0010
0100
1000
0000
0100
1000
,
0010
0000
1000
0010
0100
0000
0010
0100
0001
0000
0100
0001
0010
0001
1000
0001
,
0100
0000
0001
0100
0010
0000
0100
0010
1000
0000
0100
0010
0001
0000
0010
0001
,
0100
0000
0010
1000
0100
0000
1000
0100
0010
0000
0100
1000
0010
1000
0001
0100
,
0010
0000
0100
0001
0010
0000
0001
0010
0100
0000
0010
0001
0100
0000
0001
0100
,
0010
0000
0100
0010
1000
0000
0010
1000
0100
0000
1000
0010
0100
0010
1000
0001
,
0010
0000
0001
0010
0100
0000
0010
0001
0100
0000
0001
0100
0010
0000
0100
0001
,
1000
0001
0100
0000
0010
1000
0100
1000
0010
0000
1000
0010
0100
0010
1000
0001
,
0010
0000
0000
0000
;

//---------------dance-single - ----------------
#NOTES:
     dance-single:
     :
     Medium:
     8:
     0.440,0.509,0.039,0.126,0.012,371.000,5.000,16.000,0.000,0.000:
0000
0000
0000
0000
,
0000
0000
0000
0000
,
0000
0000
0000
0000
,
0000
0000
0000
0000
,
0000
0000
0000
0000
,
0000
0000
0000
0000
,
0000
0000
0000
0000
,
0000
0000
0000
0000
,
1000
0100
0001
0100
1000
0100
0010
0000
,
0010
0001
0100
1000
0100
0001
0010
0000
,
0001
0010
1000
0010
0001
0100
0010
0000
,
1000
0000
0010
0000
0001
0000
0010
0000
1000
0000
0010
0000
1000
0100
0010
0000
,
0100
0010
0001
0010
1000
0010
0001
0000
,
0010
0100
1000
0010
0001
0010
1000
0000
,
1000
0100
0001
0100
0010
0001
0100
0000
,
0010
0000
1000
0000
0010
0000
0001
0000
0010
0000
1000
0000
0100
0010
0001
0000
,
0010
0001
0000
0001
0100
0010
0000
0010
,
1000
0100
0000
0100
1000
0001
0000
0001
,
0100
0010
0000
0010
1000
0001
0000
0001
,
1000
0000
0001
0000
0000
0000
1000
0000
0001
0000
1000
0001
1000
0000
0001
0000
,
2002
0000
3000
0013
,
0202
0000
0003
0310
,
2200
0000
0300
3002
,
0023
0230
2300
0000
,
3001
0100
0001
0010
0000
0010
0001
0000
,
0001
0100
0010
1000
0000
1000
0100
0000
,
1000
0100
0010
0001
0000
0001
0010
0000
,
0010
0001
0100
0010
0000
0010
1000
0000
,
1000
0010
1000
0001
0000
0001
0100
0000
,
0100
0010
1000
0100
0000
0100
1000
0000
,
1000
0100
0010
0100
0000
0100
1000
0000
,
1000
0001
0010
0001
0000
0001
1000
0000
,
1000
0010
0100
0001
0000
0001
1000
0100
,
0020
0000
0001
0001
0000
0100
0130
0000
,
0100
1000
0100
0010
0000
0010
0001
0100
,
0020
0000
1000
1000
0000
0100
0130
0000
,
0100
0001
0000
1000
0100
0000
1000
0010
,
0000
0001
0010
0000
0010
0001
1000
0001
,
0100
0001
0000
1000
0100
0000
0010
0001
,
0000
0010
0100
0000
1000
0010
0100
0001
,
1001
0000
0010
0000
0000
1000
1000
1000
,
0100
0000
0010
0000
0000
0001
0001
0001
,
0100
0000
0010
0000
0000
0100
0100
0100
,
0001
0000
1000
0000
0000
0010
0010
0010
,
0100
0000
0001
0000
0000
0001
0010
0010
,
0100
0000
1000
0000
0000
0100
0010
0010
,
0001
0000
0100
0000
0000
0010
0100
0100
,
0001
0000
0100
0000
0000
0001
1000
1000
,
0100
0000
1000
0000
0100
0010
0000
0100
,
1000
0000
1000
0010
0000
0010
0100
0000
,
0100
0001
0000
0001
0010
0000
0010
0001
,
0000
0001
0100
0000
0100
0010
1000
0001
,
1000
0100
0000
0100
0010
0000
0010
0001
,
0000
0001
1000
0000
1000
0001
0000
0001
,
0100
0002
0023
0230
,
2300
0000
0000
0000
,
3001
0100
0010
0000
0100
0001
0010
0000
,
0001
0010
0100
0000
0010
0100
1000
0000
,
0100
0010
0001
0000
0010
0001
0100
0000
,
0001
0100
0010
0000
0100
0010
1000
0000
,
1000
0100
0001
0000
0001
0100
1000
0000
,
1000
0010
0100
0000
0100
0010
1000
0000
,
1000
0010
0001
0000
0001
0010
1000
0000
,
1000
0100
0010
0000
0010
0001
0100
0000
,
0100
0010
1000
0000
1000
0001
1000
0000
,
0001
1000
0001
0000
1000
0100
1000
0000
,
0100
0010
0100
0000
0010
0001
0010
0000
,
0001
0100
0001
0000
0100
0010
0100
0000
,
0010
1000
0100
1000
0001
0000
0001
1000
,
0100
0010
0001
0000
0001
0100
0010
0000
,
1000
0100
0010
0001
0010
0100
1000
0001
,
1000
0001
0100
0001
0100
0010
0100
0001
,
1001
0000
0000
0000
;
