#TITLE:Rice & Curry;
#SUBTITLE:;
#ARTIST:Dr. Bombay;
#TITLETRANSLIT:;
#SUBTITLETRANSLIT:;
#ARTISTTRANSLIT:;
#CREDIT:Plaguefox (gamecast.org/plaguemix);
#BANNER:ricecurry-bn.png;
#BACKGROUND:ricecurry-bg.jpg;
#LYRICSPATH:;
#CDTITLE:pmacd.png;
#MUSIC:ricecurry.ogg;
#OFFSET:0.030;
#SAMPLESTART:34.780;
#SAMPLELENGTH:18.160;
#SELECTABLE:YES;
#BPMS:0.000=137.000;
#STOPS:;
#BGCHANGES:;
// cache tags:
#FIRSTBEAT:16.000;
#LASTBEAT:224.000;
#SONGFILENAME:Songs/Plaguemix Series/Rice & Curry/ricecurry.sm;
#HASMUSIC:1;
#HASBANNER:1;
#MUSICLENGTH:99.853;
// end cache tags

//---------------dance-single - HEAVY----------------
#NOTES:
     dance-single:
     HEAVY:
     Hard:
     7:
     0.465,0.449,0.100,0.341,0.010,281.000,10.000,34.000,0.000,0.000:
0000
0000
0000
0000
,
0000
0000
0000
0000
,
0000
0000
0000
0000
,
0000
0000
0000
0000
,
1000
1000
0010
0010
,
0100
0001
0100
0000
0010
1000
0010
0000
,
0001
0001
0100
0100
,
0010
1000
0010
0000
0100
0001
0100
0000
,
1000
0000
0010
0010
0100
0000
0010
0010
,
0100
0000
0010
0010
0001
0000
0010
0010
,
1000
0000
0100
0100
0001
0000
0100
0100
,
1000
0000
0100
0100
0001
0000
0110
0000
,
1000
0000
0010
0100
0010
0000
0100
0001
,
0000
0010
0100
0010
0100
0000
0100
0000
,
1000
0000
0010
0100
0010
0000
0100
0000
,
0001
0010
0100
0010
0100
0000
0100
0000
,
1000
0010
0100
0001
0010
0000
1100
0000
,
0001
0100
0010
1000
0100
0000
0011
0000
,
1000
0000
1001
0000
1000
0000
1000
0010
,
0000
0010
0100
0001
0100
0000
0010
2000
,
0000
3100
0010
0100
0010
0100
1000
0002
,
0000
0013
0100
1000
0100
0010
0001
2000
,
0000
3100
0010
0001
0010
0100
1000
0001
,
0100
0010
0100
0010
0100
0010
1000
0002
,
0000
0013
0100
0010
0100
0010
0001
2000
,
0000
3100
0010
0001
0010
0100
1000
0001
,
0001
0000
1000
1000
0000
0000
0000
0200
,
0000
0310
0001
0010
0100
0000
0000
0000
,
2000
0000
3002
0000
0203
0000
0300
0001
,
1000
0000
1000
0000
0001
0000
0000
0001
0000
0000
0001
0000
1000
0000
1000
0000
,
0002
0000
2003
0000
3200
0000
0300
1000
,
0001
0001
1000
1000
0001
0001
1000
1000
,
0002
0000
2003
0000
3200
0000
0300
1000
,
0001
0000
0001
0000
1000
0000
0000
1000
0000
0000
1000
0000
0001
0000
0001
0000
,
2000
3002
0203
0310
,
2002
0000
0000
3003
,
0001
0000
0100
0100
0010
0000
0100
0100
,
0010
0000
0100
0100
1000
0000
0100
0100
,
0001
0000
0010
0010
1000
0000
0010
0010
,
0001
0000
0010
0010
1000
0000
0110
0000
,
0001
0000
0100
0010
0100
0000
0010
0000
,
1000
0100
0010
0100
0010
0000
0010
0001
,
0100
0010
0100
0010
0100
0010
1000
0001
,
0010
0100
0010
0100
0010
0000
1001
0000
,
0001
0100
0010
1000
0100
0000
0011
0000
,
1000
0010
0100
0001
0010
0000
1100
0000
,
0001
0000
1001
0000
0001
0000
0001
0100
,
0000
0100
0010
1000
0010
0000
0100
0000
,
0002
0023
0230
0300
,
1000
0001
0010
0100
,
2000
0000
3020
0000
0230
0000
0300
0001
,
1000
1000
0010
0010
0100
0100
0001
0001
,
2000
3020
0230
0300
,
0001
1000
0010
0100
,
0002
0023
0230
0310
,
0002
0000
2000
0000
,
3003
0000
0000
0000
;

//---------------dance-single - STANDARD----------------
#NOTES:
     dance-single:
     STANDARD:
     Medium:
     5:
     0.336,0.393,0.140,0.341,0.000,187.000,14.000,34.000,0.000,0.000:
0000
0000
0000
0000
,
0000
0000
0000
0000
,
0000
0000
0000
0000
,
0000
0000
0000
0000
,
1000
0000
0010
0000
,
0100
0000
0001
0001
,
1000
0000
0100
0000
,
0010
0000
0001
0001
,
0000
0000
1000
1000
0000
0000
0100
0100
,
0000
0000
0010
0010
0000
0000
0001
0001
,
0000
0000
0100
0100
0000
0000
0010
0010
,
0000
0000
1000
1000
0000
0000
0000
0000
,
0010
0001
0010
0100
,
1000
0000
0100
0010
0100
0000
0000
0000
,
0100
1000
0100
0010
,
0001
0000
0010
0100
0010
0000
0000
0000
,
0100
1001
0010
1001
,
0100
1001
0010
1001
,
1000
0000
0001
0000
0100
0000
0010
1000
,
0000
1000
0010
0000
1001
0000
0000
0002
,
0000
0000
0100
0000
0103
0000
0000
0020
,
0000
0000
1000
0000
1030
0000
0000
2000
,
0000
0000
0100
0000
3100
0000
0000
0010
,
0002
0000
0010
0000
0013
0000
0000
2000
,
0000
0000
0100
0000
3100
0000
0000
0020
,
0000
0000
0001
0000
0031
0000
0000
0100
,
0010
0000
0010
0100
0000
0000
0000
0020
,
0000
0100
0130
0000
,
0002
0000
2003
0000
3200
0000
0300
1000
,
0001
0010
0100
0100
,
2000
0000
3002
0000
0203
0000
0300
0001
,
0010
0000
0100
0100
1000
0000
0010
0010
,
0200
0000
0302
0000
2003
0000
3000
0001
,
1000
0010
0100
0100
,
0020
2030
3002
1003
,
0220
0000
0000
0330
,
0000
0000
0001
0001
0000
0000
0010
0010
,
0000
0000
0100
0100
0000
0000
1000
1000
,
0000
0000
0010
0010
0000
0000
0100
0100
,
0000
0000
0001
0001
0000
0000
1001
0000
,
0100
1000
0100
0010
,
0001
0000
0010
0100
0010
0000
0100
0000
,
0010
0001
0010
0100
,
1000
0000
0100
0010
0100
0000
0000
0000
,
0010
1001
0100
1001
,
0010
1001
0100
1001
,
0001
0000
1000
0000
0010
0000
0100
0001
,
0000
0001
0100
0000
1001
0000
0000
0000
,
2000
3002
2003
3000
,
0100
0001
0100
1000
,
0002
2003
3002
0003
,
0100
1000
0100
0001
,
2000
3002
2003
3000
,
0010
0001
0010
1000
,
0002
2003
3001
0110
,
2002
0000
0000
0000
,
3003
0000
0000
0000
;

//---------------dance-single - LIGHT----------------
#NOTES:
     dance-single:
     LIGHT:
     Easy:
     3:
     0.235,0.280,0.070,0.010,0.000,156.000,7.000,1.000,0.000,0.000:
0000
0000
0000
0000
,
0000
0000
0000
0000
,
0000
0000
0000
0000
,
0000
0000
0000
0000
,
0001
0000
0001
0000
,
0001
0000
0010
0000
,
1000
0000
1000
0000
,
1000
0000
0010
0000
,
0000
0100
0000
0100
,
0000
0010
0000
0010
,
0000
0100
0000
0100
,
0000
0010
0000
0000
,
1000
0010
0100
0001
,
0010
0010
0010
0000
,
0001
0100
0010
1000
,
0100
0100
0100
0000
,
1000
0010
1000
0100
,
1000
0010
1000
0100
,
0010
0001
0100
0000
,
0010
1000
0100
0000
,
1001
1000
1000
0000
,
1001
0001
0001
0000
,
1001
0100
0100
0000
,
1001
0010
0010
0000
,
1001
1000
1000
0000
,
1001
0001
0001
0000
,
0010
0100
0010
0100
,
1000
0001
1000
0000
,
0001
0001
0001
0000
,
1000
0100
0001
0100
,
1000
1000
1000
0000
,
0001
0010
0001
0010
,
0001
0001
0001
0000
,
1000
0010
0001
0010
,
1000
1000
1000
0100
,
1001
0000
0000
0100
,
0000
0010
0000
0010
,
0000
0100
0000
0100
,
0000
0010
0000
0010
,
0000
0100
0000
0000
,
0001
0100
0010
1000
,
0100
0100
0100
0000
,
1000
0010
0100
0001
,
0010
0010
0010
0000
,
0001
0100
0001
0010
,
0001
0100
0001
0010
,
0100
1000
0010
0000
,
0100
0001
0010
0000
,
0100
0100
0100
0000
,
0100
1000
0100
0001
,
0100
0100
0100
0000
,
0001
1000
0001
1000
,
0100
0100
0100
0000
,
0100
0001
0100
1000
,
0100
0100
0100
0010
,
0200
0000
0000
0000
,
0300
0000
0000
0000
;
