#TITLE:Who the Hell Are You?;
#SUBTITLE:Illicit Mix;
#ARTIST:Madison Avenue;
#TITLETRANSLIT:;
#SUBTITLETRANSLIT:;
#ARTISTTRANSLIT:;
#CREDIT:Plaguefox (gamecast.org/plaguemix);
#BANNER:whothehell-bn.png;
#BACKGROUND:whothehell-bg.jpg;
#LYRICSPATH:;
#CDTITLE:pmacd.png;
#MUSIC:whothehell.ogg;
#OFFSET:0.024;
#SAMPLESTART:13.820;
#SAMPLELENGTH:19.240;
#SELECTABLE:YES;
#BPMS:0.000=129.990;
#STOPS:124.000=1.380
;
#BGCHANGES:;
// cache tags:
#FIRSTBEAT:15.000;
#LASTBEAT:189.000;
#SONGFILENAME:Songs/Plaguemix Series/Who the Hell Are You/whothehell.sm;
#HASMUSIC:1;
#HASBANNER:1;
#MUSICLENGTH:96.469;
// end cache tags

//---------------dance-single - HEAVY----------------
#NOTES:
     dance-single:
     HEAVY:
     Hard:
     7:
     0.389,0.416,0.124,0.104,0.098,241.000,12.000,10.000,0.000,0.000:
0000
0000
0000
0000
,
0000
0000
0000
0000
,
0000
0000
0000
0000
,
0000
0000
0000
0000
0000
0000
1000
1000
,
1000
0000
0010
0010
0010
0000
0100
0100
,
0100
0000
0001
0001
0001
0000
0010
0010
,
0010
0100
0100
1000
1000
0010
0100
0001
,
0020
0000
0030
0100
,
1000
0000
0001
0000
0100
0000
0010
0100
,
0001
0000
1000
0000
0100
0000
0010
0100
,
1000
0000
0001
0000
0100
0000
0010
0100
,
0001
0000
1000
0000
0100
0000
0010
0001
,
0001
0000
1000
0000
0100
0000
0010
0001
,
0010
0000
0100
0000
1000
0000
0010
1000
,
0001
0000
1000
0000
0100
0000
0010
0100
,
1000
0010
0100
0001
0010
0100
1000
0010
,
1000
0000
0000
0001
0000
0010
0000
0001
1000
0000
0000
0000
0010
0000
0000
0000
,
0110
0101
0110
1100
,
1000
0000
0000
0001
0000
0100
0000
0001
1000
0000
0000
0000
0100
0000
0000
0000
,
0011
0000
0000
0000
1100
0000
0000
0001
0000
0100
0000
0010
1000
0000
0000
0000
,
0001
0000
0000
1000
0000
0100
0000
1000
0001
0000
0000
0000
0100
0000
0000
0000
,
0001
0010
1000
0010
0001
0100
1000
0100
,
0001
0000
0000
1000
0000
0100
0000
1000
0001
0000
0000
0000
0010
0000
0100
0000
,
1000
0001
0010
0001
1000
0100
1000
0000
0000
0000
0000
0000
,
1001
0000
1000
0100
0100
1000
0010
0000
,
0100
0000
0001
0010
0010
0001
0100
0000
,
0010
1000
0100
0010
0001
0001
0100
0010
,
1000
1000
0100
0010
0001
0010
0100
0000
,
1001
0011
0012
1000
,
0013
1100
2100
0001
,
3100
0000
1000
0010
0100
0001
0010
0100
,
1000
0200
0000
2300
,
0000
0000
3002
0000
0000
0000
0013
0100
,
1000
0100
0020
0000
0000
0000
0032
0000
,
0000
0000
2003
0000
0000
0000
3100
0010
,
0001
0010
0100
0000
1000
0100
0100
1000
,
0010
0000
0100
0000
0001
0010
0010
0001
,
0010
0000
0100
0000
1000
0001
1000
0001
,
0000
0200
0000
0000
0300
0001
0010
0100
,
0010
0100
1000
0000
0001
0000
0010
0000
,
0100
0010
0001
0000
1000
0000
0010
0000
,
0100
0010
1000
0000
0001
0000
0010
0000
,
0100
0010
0001
0000
1000
0000
0010
0000
,
0100
0001
0001
0000
1000
0000
0010
0000
,
0100
0001
0100
0000
0010
0000
1000
0000
,
0100
1000
0001
0000
1000
0000
0010
0000
,
0100
0010
1000
0100
0010
0001
0100
0010
,
1000
0100
1000
0000
0000
0000
0000
0000
;

//---------------dance-single - STANDARD----------------
#NOTES:
     dance-single:
     STANDARD:
     Medium:
     5:
     0.305,0.367,0.176,0.073,0.021,182.000,17.000,7.000,0.000,0.000:


0000
0000
0000
0000
,
0000
0000
0000
0000
,
0000
0000
0000
0000
,
0000
0000
0000
0000
0000
0000
0000
1000
,
1000
0000
0000
0010
0010
0000
0000
0100
,
0100
0000
0000
0001
0001
0000
0000
1000
,
1000
0100
0010
0001
,
0200
0000
0000
0300
,
0010
1000
0100
1000
,
0001
0000
0100
0000
0010
0000
0100
0001
,
0010
0001
0100
0001
,
1000
0000
0100
0000
0010
0000
0100
1000
,
1000
0100
0010
0001
,
0010
0000
0100
0000
1000
0000
0010
0100
,
0001
0010
0100
0010
,
1001
1000
0001
1000
,
1001
0100
0100
0100
,
1001
0110
1001
0110
,
1001
0100
0100
0100
,
1001
0000
0110
0000
1000
0100
0010
0000
,
1001
0100
0100
0100
,
0010
1000
0100
0010
0001
0100
0010
1000
,
0100
0100
0100
0100
,
1000
0001
1000
0001
1000
0001
1000
0000
0000
0000
0000
0000
,
0100
0000
1000
0000
0100
0000
0000
1000
,
0100
0000
0001
0000
0100
0000
0000
0001
,
0100
0000
1000
0000
0010
0000
0000
1000
,
0010
0000
0001
0000
0010
0000
0000
0001
,
0010
0000
0100
0000
1000
0000
0000
0010
,
0100
0000
0001
0000
0010
0000
0000
0100
,
1000
0000
0010
0000
0100
0000
0000
0001
,
0010
0020
0000
0032
,
0000
0000
2003
0000
0000
0000
3010
0100
,
0010
0100
0020
0000
0000
0000
2030
0000
,
0000
0000
3002
0000
0000
0000
0013
0100
,
0010
0100
0010
0000
0001
0000
1000
0000
,
0000
0010
1000
0001
,
0000
0010
0001
1000
,
0100
1001
0110
1001
,
0110
1001
0001
0010
,
0001
1000
0010
0100
,
0010
1000
0100
0000
1000
0000
0010
0000
,
1000
0001
0010
0100
,
0010
0001
0001
0000
0010
0000
0100
0000
,
1000
0100
0010
0001
,
0100
0010
1000
0000
0100
0000
0010
0000
,
0100
1001
0010
0100
,
0010
1001
0000
0000
,;

//---------------dance-single - LIGHT----------------
#NOTES:
     dance-single:
     LIGHT:
     Easy:
     3:
     0.169,0.196,0.010,0.041,0.000,109.000,1.000,4.000,0.000,0.000:
0000
0000
0000
0000
,
0000
0000
0000
0000
,
0000
0000
0000
0000
,
0000
0000
0000
0000
,
0001
0000
0100
0000
,
0010
0000
0100
0000
,
0001
0000
1000
0010
,
0200
0000
0000
0300
,
0010
0000
0000
0010
,
0100
0000
0000
0100
,
0001
0000
0000
0001
,
1000
0000
0000
1000
,
1000
0000
0000
1000
,
0010
0000
0000
0010
,
0100
0000
0000
0100
,
0001
0010
0100
1000
,
0010
0000
1000
0000
,
0100
0100
0010
0010
,
0001
0000
0100
0000
,
0010
0010
1000
1000
,
0100
0000
0010
0000
,
0001
0100
1000
0100
,
0001
0000
0010
0000
,
0200
0000
0300
0000
,
1000
0100
1000
0000
,
0001
0010
0001
0000
,
1000
0100
0001
0100
,
1000
0100
0001
0000
,
0001
0100
0001
0000
,
1000
0010
1000
0000
,
0001
0100
1000
0100
,
0001
2000
0000
3001
,
0000
1000
0000
0100
,
0010
0002
0000
1003
,
0000
0001
0010
0100
,
1000
1001
0100
0100
,
0000
0000
0010
0010
,
0000
0000
0100
0100
,
0000
0100
0000
0000
0000
0000
0000
0000
,
0000
0100
0000
0000
,
0100
0010
0000
0000
,
0010
1000
0000
0000
,
1000
0001
0000
0000
,
0001
0001
0000
0000
,
0001
0100
0000
0000
,
0100
0010
0000
0000
,
0010
1000
0100
0010
,
0001
0100
0000
0000
;
