#TITLE:Final Fantasy Unlimited;
#SUBTITLE:- Romancing Train;
#ARTIST:Move;
#TITLETRANSLIT:;
#SUBTITLETRANSLIT:;
#ARTISTTRANSLIT:;
#CREDIT:Anime Toshokan;
#BANNER:Final Fantasy Unlimited - Romancing Train.png;
#BACKGROUND:Final Fantasy Unlimited - Romancing Train bg.png;
#LYRICSPATH:;
#CDTITLE:dejiko.png;
#MUSIC:Final Fantasy Unlimited - Romancing Train.mp3;
#OFFSET:0.333;
#SAMPLESTART:60.000;
#SAMPLELENGTH:14.200;
#SELECTABLE:YES;
#DISPLAYBPM:135.000;
#BPMS:0.000=135.000,116.000=135.840,128.000=135.000;
#STOPS:;
#BGCHANGES:22.000=Final Fantasy Unlimited - Romancing Train.avi=1.000=0=0=1,
257.000=Final Fantasy Unlimited - Romancing Train bg.png=1.000=0=0=1,
99999=-nosongbg-=1.000=0=0=0 // don't automatically add -songbackground-
;
// cache tags:
#FIRSTBEAT:6.000;
#LASTBEAT:264.000;
#SONGFILENAME:Songs/Anime Mix 2/Final Fantasy Unlimited - Romancing Train/Final Fantasy Unlimited - Romancing Train.sm;
#HASMUSIC:1;
#HASBANNER:1;
#MUSICLENGTH:120.502;
// end cache tags

//---------------dance-single - BASIC----------------
#NOTES:
     dance-single:
     BASIC:
     Easy:
     5:
     0.359,0.493,0.373,0.033,0.000,254.000,45.000,4.000,0.000,0.000:
0000
0000
0000
0000
,
0000
0000
0000
1001
,
1000
0001
0100
1000
,
0100
0001
1000
0001
,
0001
1000
1000
1001
,
1000
0001
0100
1000
,
0001
1000
0001
0100
,
0010
0001
0001
0010
,
0010
1000
1001
1000
,
0220
0000
0330
1000
,
0001
1000
0100
0001
,
1001
1000
1000
0001
,
0001
1000
0001
0100
,
0110
0010
1000
0001
,
0010
0100
1000
0010
,
0100
0001
0010
0100
,
1001
1001
0110
0110
,
1000
1000
0001
0100
,
1000
0010
0001
0001
,
1000
0100
0001
0010
,
1000
1000
0001
1000
,
0110
0001
0001
1000
,
1000
0010
0010
0100
,
0100
0001
1000
0010
,
0100
0001
1000
0110
,
1001
0100
0001
0010
,
1000
0100
1000
0000
,
0001
0100
1000
0010
,
0001
0000
0001
1000
0001
0000
1001
0000
,
0100
1000
0001
0100
,
1000
0000
1000
0001
1000
0000
1001
0000
,
1000
1000
0001
0001
,
0010
0010
0100
0100
,
2002
0000
0000
3003
,
1000
0001
0100
1000
,
0100
0001
1000
0001
,
0001
1000
1000
0110
,
1000
0001
0100
1000
,
1001
1000
0001
0100
,
0010
0001
1000
1000
,
0001
0001
0100
0100
,
0010
0010
1000
0100
,
0001
0010
0100
1000
,
0110
0001
0001
1000
,
0001
1000
0001
0010
,
1100
0010
1000
0101
,
1001
0100
1000
1000
,
0100
0001
0001
1000
,
0010
0100
0001
1000
,
1001
0001
1000
1000
,
0100
0010
0010
0001
,
0010
0100
0100
1000
,
0001
0001
0100
0010
,
1000
0100
0010
1000
,
1100
0001
0100
1010
,
0100
0001
0010
1100
,
0001
1000
1001
1100
,
0101
0010
0110
1000
,
1001
0100
0001
1010
,
0001
0100
1000
1010
,
0011
1100
1001
0100
,
0010
0001
1000
0100
,
0010
0010
0100
0100
,
0001
1000
0100
0010
,
0011
0110
1001
1100
,
0101
0110
1001
0110
,
1001
0000
0000
0000
;

//---------------dance-single - ANOTHER----------------
#NOTES:
     dance-single:
     ANOTHER:
     Medium:
     7:
     0.426,0.438,0.332,0.124,0.017,304.000,40.000,15.000,0.000,0.000:
0000
0000
0000
0000
,
0000
0000
0000
0110
,
1001
0000
0001
0100
0001
0000
1001
0000
,
1000
1000
0000
0001
0001
0000
1000
0100
,
1000
0001
0100
0001
1000
0000
0100
0000
,
0110
0000
0001
0001
1000
0000
0110
0000
,
1000
1000
0001
0000
1000
0000
1001
0000
,
0100
0000
0011
0000
1001
0000
1000
0100
,
1000
1001
0110
0110
,
2002
0000
0000
0000
0000
3003
0001
2000
,
0000
0000
0000
3000
0000
0000
1000
0000
0002
0000
0000
0000
1003
0000
2000
0000
,
0000
0000
0000
0000
,
0000
0000
3000
0000
0001
0001
0001
0001
,
0001
0000
0100
0000
0010
1000
0100
0010
,
0001
0000
0100
0000
0001
1000
0001
1000
,
0100
2000
0000
0000
0000
0000
3000
0000
,
0001
0000
0000
0001
0000
0000
0001
0000
1000
0000
0000
1000
0000
0000
1000
0000
,
0000
0000
0001
1000
0001
0000
0110
0000
,
1000
0010
1000
0000
0001
0100
0001
0000
,
1001
0000
1000
0010
0100
0000
0001
0010
,
0100
0000
1000
0001
0100
0000
1000
0100
,
0011
0000
1000
0100
0001
0000
1100
0000
,
0001
0100
1000
0000
0101
0000
1000
0001
,
1000
0000
0001
1000
0001
0000
0010
0000
,
0100
1000
0001
1000
0001
1000
0100
0000
,
1001
0001
0001
0100
,
0100
0000
0010
1000
0010
0000
0000
0000
,
0100
1000
1000
0100
,
0100
0000
0010
0001
0010
0000
0000
0000
,
1000
0100
0010
0001
,
0100
0000
1000
0100
1000
0000
0000
0000
,
0001
0010
0100
1000
0010
0100
0001
0010
,
0100
1000
0001
0100
1000
0010
0100
0001
,
2002
0000
0000
3003
,
1001
0000
0100
0000
0001
0100
0001
0000
,
1001
0000
1000
0100
1000
0000
1001
0000
,
0001
0001
0000
1000
1000
0000
0001
0100
,
0001
1000
0100
1000
0001
0000
0100
0000
,
0110
0000
1000
1000
0001
0000
0110
0000
,
0001
0001
1000
0000
0001
0000
1001
0000
,
0100
0000
1010
0000
1001
0000
0001
0100
,
0001
0110
1001
1001
,
0220
0000
0000
0000
0000
0000
0000
0000
0000
0330
0000
0000
0001
0000
0200
0000
,
0000
0000
0000
0300
0000
0000
0010
0000
2000
0000
0000
0000
3001
0000
0002
0000
,
0000
0000
0000
0000
,
0000
0000
0003
0000
0100
0100
0100
0100
,
0100
0000
0001
0000
1000
0001
1000
0010
,
0100
0000
0001
0000
1000
0010
1000
0001
,
1000
2000
0000
0000
0000
0000
3000
0000
,
0001
0000
0000
0001
0000
0000
0001
0000
1000
0000
0000
1000
0000
0000
1000
0000
,
0000
0000
0001
0000
1000
0001
0100
0000
,
0001
0000
0100
0000
0001
1000
0100
0000
,
0001
0100
0010
1000
,
0010
0001
0100
0000
0010
0001
0100
0000
,
1010
0000
1001
0000
0001
0100
0001
0000
,
0010
0000
0001
0000
0100
0010
0100
0000
,
1000
0100
0010
0001
,
0010
1000
0100
0000
0010
1000
0100
0000
,
0011
0000
0110
0000
0010
0001
0010
0000
,
1000
0000
0010
0000
0100
0001
0100
0000
,
1000
0100
0010
0001
,
1000
0100
0010
0000
1000
0100
0010
0000
,
0101
1001
0100
0001
,
0100
1000
0010
0001
,
0100
1001
0110
1001
,
1000
0010
0100
0001
0010
0200
0000
0000
,
0310
0000
0000
0000
;

//---------------dance-single - MANIAC----------------
#NOTES:
     dance-single:
     MANIAC:
     Hard:
     8:
     0.569,0.548,0.340,0.183,0.017,417.000,41.000,22.000,0.000,0.000:
0000
0000
0000
0000
,
0000
0000
0000
0000
1001
0000
0010
0001
,
1000
0100
1000
0001
0100
0000
1001
0000
,
0010
0010
0000
0100
0100
0000
0001
0100
,
0010
1000
0100
0010
0001
0100
0100
0000
,
1001
0000
1001
1100
0101
0000
0010
1000
,
0100
0010
0001
0100
0010
1000
1000
0000
,
0010
0100
0001
0010
0100
1000
0001
1000
,
0100
0010
1000
0010
0100
0000
0001
1000
,
2002
0000
0000
0000
3003
1000
0001
2000
,
0000
0000
3000
0001
0001
0000
0100
0020
,
0100
1000
0100
1000
,
0030
0100
0010
0000
0001
0100
1000
0100
,
0001
0000
1001
0000
1000
0010
0001
0010
,
1000
0000
1001
0000
0001
0100
1000
0010
,
0001
0002
0000
0100
2000
0000
3003
0000
,
1001
0000
0000
1001
0000
0000
1010
0000
0101
0000
0000
1100
0000
0000
1001
0000
,
0000
1000
0001
0010
0001
0010
0100
1000
,
0100
1000
0010
1000
0010
1000
0001
0100
,
0001
1000
0001
1000
0100
1000
0010
0100
,
0010
0100
0001
0010
1000
0100
0001
0010
,
1001
0000
1000
0100
1000
0001
0100
0001
,
1000
0010
1000
0001
0010
0001
1000
0100
,
0001
0100
1000
0001
0100
1000
0100
0001
,
0100
1000
0001
0010
0100
0010
0001
0000
,
1001
0000
1000
0010
0100
0000
0001
0000
,
0010
0000
0100
1000
0220
0000
0000
0330
,
0100
0000
0001
0010
0100
0000
1000
0000
,
0010
0000
0100
0001
0220
0000
0000
0330
,
1000
0000
0001
1000
0100
0000
1000
0000
,
0001
0000
1000
0001
0220
0000
0000
0330
,
0010
1000
0010
0100
0010
0001
0010
0100
,
0010
1000
0001
1000
0100
1000
0001
0010
,
0001
1000
0001
0100
1000
0001
0001
0010
,
1001
0000
0100
0010
2002
0000
0000
3003
,
0001
0100
0001
1000
0100
0000
1001
0000
,
1001
1010
0000
1001
0011
0000
1000
0100
,
0010
0001
0100
0010
1000
0010
0010
0000
,
0110
0000
1001
0101
1100
0000
0100
0001
,
0010
0100
1000
0010
0100
0001
0001
0000
,
0010
0100
1000
0010
0100
0001
1000
0001
,
0010
0100
1000
0010
0100
0000
0001
1000
,
2002
0000
0000
0000
3003
0001
1000
0002
,
0000
0000
0003
1000
1000
0000
0010
0200
,
0010
0001
0010
0001
,
0300
0010
0100
0000
1000
0100
0001
0100
,
1000
0000
1001
0000
0001
0010
1000
0010
,
0001
0000
1001
0000
1000
0100
0001
0010
,
1000
2000
0000
0100
0002
0000
3003
0000
,
0110
0000
0000
0110
0000
0000
0011
0000
1100
0000
0000
0101
0000
0000
1001
0000
,
0000
0001
1000
0001
0010
0001
1000
0100
,
0010
0001
1000
0100
1000
0001
0010
0001
,
1000
0100
0010
0100
1000
0001
0010
0001
,
1000
1000
0100
0010
0001
1000
0100
0010
,
0001
1000
0010
0001
0100
1000
0010
0100
,
0001
1000
0010
0100
0001
0001
1000
0001
,
1000
0001
1000
1000
0001
1000
0001
1000
,
0001
0010
1000
0100
0010
0001
1000
0100
,
0010
0001
1000
0001
0010
0100
1000
0001
,
0010
0100
0010
0001
1000
0100
0010
0001
,
0010
0100
0010
1000
0001
1000
0100
0010
,
0100
1000
0010
1000
0010
0100
0010
0100
,
0010
0100
0001
0100
0001
1000
0001
1000
,
0001
0010
0001
0010
0001
1000
0100
0010
,
0001
1000
0100
0010
0002
0000
0003
0010
,
1000
0000
0001
0000
0100
0000
0010
0000
0000
0000
0020
0000
0000
0030
0100
0000
,
0110
0000
0000
0000
;

//---------------dance-single - BEGINNER----------------
#NOTES:
     dance-single:
     BEGINNER:
     Beginner:
     2:
     0.188,0.274,0.216,0.033,0.000,129.000,26.000,4.000,0.000,0.000:
0000
0000
0000
0000
,
0000
0000
0000
0001
,
1000
0000
0100
0000
,
0100
0000
1000
0000
,
0001
0000
1000
0000
,
1000
0000
0100
0000
,
0001
0000
0001
0000
,
0010
0000
0001
0000
,
0010
0000
1001
0000
,
0220
0000
0330
1000
,
0001
0000
0100
0000
,
1001
0000
1000
0000
,
0001
0000
0001
0000
,
0110
0000
1000
0000
,
0010
0000
1000
0000
,
0100
0000
0010
0000
,
1001
0000
0110
0000
,
1000
0000
0001
0000
,
1000
0000
0001
0000
,
1000
0000
0001
0000
,
1000
0000
0001
0000
,
0110
0000
0001
0000
,
1000
0000
0010
0000
,
0100
0000
1000
0000
,
0100
0000
1000
0000
,
1001
0000
0001
0000
,
1000
0000
1000
0000
,
0001
0000
1000
0000
,
0001
0000
0001
0000
,
0100
0000
0001
0000
,
1000
0000
1000
0000
,
1000
0000
0001
0000
,
0010
0000
0100
0000
,
2002
0000
0000
3003
,
1000
0000
0100
0000
,
0100
0000
1000
0000
,
0001
0000
1000
0000
,
1000
0000
0100
0000
,
1001
0000
0001
0000
,
0010
0000
1000
0000
,
0001
0000
0100
0000
,
0010
0000
1000
0000
,
0001
0000
0100
0000
,
0110
0000
0001
0000
,
0001
0000
0001
0000
,
1100
0000
1000
0000
,
1001
0000
1000
0000
,
0100
0000
0001
0000
,
0010
0000
0001
0000
,
1001
0000
1000
0000
,
0100
0000
0010
0000
,
0010
0000
0100
0000
,
0001
0000
0100
0000
,
1000
0000
0010
0000
,
1100
0000
0100
0000
,
0100
0000
0010
0000
,
0001
0000
1001
0000
,
0101
0000
0110
0000
,
1001
0000
0001
0000
,
0001
0000
1000
0000
,
0011
0000
1001
0000
,
0010
0000
1000
0000
,
0010
0000
0100
0000
,
0001
0000
0100
0000
,
0011
0000
1001
0000
,
0101
0000
1001
0000
,
1001
0000
0000
0000
;
