#TITLE:On the Wave;
#SUBTITLE:;
#ARTIST:V-Band Selecta;
#TITLETRANSLIT:;
#SUBTITLETRANSLIT:;
#ARTISTTRANSLIT:;
#CREDIT:jammitch!;
#BANNER:On the Wave.png;
#BACKGROUND:On the Wave-bg.png;
#LYRICSPATH:;
#CDTITLE:jammitch!.png;
#MUSIC:On the Wave.ogg;
#OFFSET:-4.932;
#SAMPLESTART:48.994;
#SAMPLELENGTH:12.440;
#SELECTABLE:YES;
#BPMS:0.000=196.000;
#STOPS:;
#BGCHANGES:;
// cache tags:
#FIRSTBEAT:0.000;
#LASTBEAT:335.000;
#SONGFILENAME:Songs/StepMix 1.0/On the Wave/On the Wave.sm;
#HASMUSIC:1;
#HASBANNER:1;
#MUSICLENGTH:109.296;
// end cache tags

//---------------dance-single - Expert----------------
#NOTES:
     dance-single:
     Expert:
     Challenge:
     11:
     0.894,1.000,0.403,0.009,0.297,639.000,44.000,1.000,31.000,1.000:
0010
0000
1000
0001
0100
0000
0010
1000
,
0001
0010
0001
0100
0000
0010
1000
0010
,
0100
0000
0001
0010
0100
0000
1000
0010
,
0100
0010
1000
0001
0000
0100
0010
1000
,
0100
0000
0010
0001
1000
0000
0010
0100
,
1000
0100
0010
0001
0000
0010
1000
0100
,
0010
0000
0001
0100
0010
0000
0001
0010
,
0100
1000
0100
0001
0000
1000
0100
0010
,
0001
0000
0100
0100
0100
0100
0100
0100
,
0010
1000
0010
1000
0010
1000
0010
1000
,
0001
0010
0100
1000
1001
0000
0010
0000
,
1001
0000
0001
0100
1000
0000
0001
0000
,
0010
0001
0010
1000
1001
0000
0010
0000
,
0001
1000
0100
0010
1000
0100
1000
0010
,
1000
0001
0100
1001
0000
0100
0010
0000
,
0001
1000
0100
1001
0000
0010
0100
0000
,
0001
1000
0000
0011
1000
0000
0010
0000
,
1000
0001
0000
1100
0001
0000
0100
0000
,
0001
0010
0001
0010
0001
0010
0100
1000
,
0010
0100
0001
0100
0010
1000
0100
1000
,
0001
0100
0010
0100
0001
1000
0010
0100
,
0010
1000
0100
1001
0000
1001
0000
0101
,
1000
0010
1000
0010
1000
0010
0100
0001
,
0010
0001
1000
0010
1000
0001
0010
0100
,
1000
0010
0100
0010
1000
0001
0010
0001
,
0100
0010
0100
0001
1000
0100
0010
0001
,
1000
0000
0010
0000
1000
0000
0001
0100
0001
0100
0001
0000
1000
0000
0010
0100
,
0010
0100
0010
0000
1000
0000
0001
0010
0001
0010
0001
0000
1000
0000
0001
0000
,
0100
0001
0100
0001
1000
0010
1000
0010
0100
0000
0000
0000
0001
0000
0100
0000
,
0010
0000
100M
1M00
10M0
0000
0001
0100
,
0001
0010
0001
0010
0100
1000
0100
1000
0001
0000
0000
0000
1000
0000
0100
0000
,
0010
0000
M001
0M01
00M1
1000
0010
0100
,
0010
1000
0010
1000
0001
0100
0001
0100
0010
0000
1000
0000
0001
0000
1000
0000
,
0010
0100
0010
0100
0001
1000
0001
1000
0010
0000
0100
0000
0001
0000
1000
0000
,
0001
0100
0001
0100
0010
1000
0010
0100
0001
1000
0100
0010
0100
1000
0001
0010
,
0001
0100
0010
1000
0001
0010
0001
1000
0010
0100
0010
1000
0001
0010
0100
1000
,
0001
0000
01M0
10M0
0100
0000
M001
0010
,
0100
0001
M100
M010
0000
1000
0M10
0001
,
0100
0000
10M0
01M0
0001
0000
M010
0100
,
0001
0000
0100
0000
100M
0000
001M
0000
0000
0000
0100
0000
00M1
1000
01M0
0000
,
0010
0000
00M1
01M0
1000
0000
001M
0100
,
1000
0100
M010
M001
0000
1000
01M0
0001
,
0100
0000
M010
M001
0100
0000
001M
0100
,
1000
0001
0M10
1M00
0000
0100
M010
0000
,
1001
0001
0100
0010
0100
0001
1000
0100
,
0010
0000
0010
0000
0010
0000
0010
0000
0010
0001
0010
0001
0010
0001
0010
0001
,
1000
0010
0100
1000
0100
0010
0000
1000
,
0000
0001
0100
0010
0010
0000
1000
0001
,
0100
0000
0000
0000
0010
0000
0001
0000
0000
0000
0010
1000
0010
1000
0010
0000
,
0000
1100
0000
1001
0011
0000
0110
0000
,
1001
0010
1100
0010
0101
1000
0000
0010
,
0000
0100
0001
1000
1000
0101
0101
0010
,
1000
0000
0100
0001
0000
1100
1100
0001
,
0100
1010
0000
0011
0000
1100
0000
0101
,
1000
0100
0010
1000
0100
0010
1000
1001
,
0001
0010
0100
0001
0010
0100
0001
0010
,
1000
0000
0001
0000
0100
0100
0000
0010
,
1000
0000
0000
0000
0001
0000
1000
0000
0000
0000
0010
0000
0100
0001
0100
0001
,
0100
0010
1000
0100
0010
1000
0100
0110
,
0010
0001
0100
0010
0001
0100
0010
0001
,
0100
0000
0010
0000
1000
1000
0000
0001
,
0100
0000
0000
0000
0010
0000
1000
0000
0000
0000
0100
0000
1000
0010
1000
0010
,
1000
0000
0001
0001
0100
0000
1010
0000
,
0001
0000
0001
0000
0100
0000
0010
0000
0010
0000
1000
0000
0001
0010
0001
0000
,
1000
0000
0100
0100
1000
0000
0010
0100
,
0001
0010
0001
0010
0001
1000
0001
1000
0010
1000
0010
1000
0010
0100
0010
0100
,
0001
0000
1000
0010
0100
0100
0010
0010
,
1000
0000
0001
0100
0010
0010
0100
0100
,
0001
0000
1000
0001
0100
0100
0010
0010
,
0100
0000
0000
0000
0000
0000
0000
0000
1001
0000
0000
0000
0010
0100
0010
0100
,
0010
1000
1001
0001
0100
0010
0100
0001
,
0010
0001
0100
0010
0100
0001
0010
0100
,
1001
0010
1001
0100
0010
1000
0100
1000
,
0010
0000
0100
0000
0010
0000
1000
0000
0100
1000
0100
0000
1000
0000
0010
0000
,
1001
0100
1001
0010
0001
0100
0010
0001
,
0010
0100
0001
0010
0100
0010
0001
0100
,
1001
0100
1001
0010
1000
0100
0010
0100
,
1000
0010
0100
1000
0001
0001
0001
0001
,
0100
0010
0110
1001
0000
0010
1000
0000
,
0001
0000
0100
0000
0110
0000
1001
0000
0000
0000
0010
0000
1000
0001
1000
0000
,
0010
0100
0110
1001
0000
0100
0001
0000
,
1000
0000
0010
0000
0100
0000
0010
1000
0001
1000
0100
0010
0100
0000
1000
0000
,
0001
0001
0100
0100
0010
0010
1000
1000
,
0001
0200
0000
1001
0000
0000
0300
0000
;

//---------------dance-single - Hard----------------
#NOTES:
     dance-single:
     Hard:
     Hard:
     9:
     0.684,0.651,0.146,0.009,0.018,506.000,16.000,1.000,0.000,0.000:
0001
0000
1000
0100
0010
0000
0001
0100
,
0010
0100
0001
1000
0000
0010
0100
0001
,
1000
0000
0010
0100
0010
0000
1000
0100
,
0010
0001
0100
0010
0000
0100
0001
1000
,
0100
0000
0010
0001
1000
0000
0010
0100
,
0010
1000
0100
0010
0000
0001
0100
0010
,
0100
0000
0001
1000
0100
0000
1000
0010
,
0100
0010
1000
0100
0000
0010
0001
0000
,
0100
0000
0010
1000
0010
1000
0010
1000
,
0010
0100
0001
0010
0001
0010
0001
0010
,
0001
0100
0010
1000
0100
0000
1000
0000
,
0010
0000
0100
0001
1000
0000
0100
0000
,
1000
0010
0100
0010
1000
0000
0001
0000
,
0010
0001
0000
1000
0010
0000
0100
0000
,
0001
0000
1000
0100
0000
0100
0001
0000
,
1000
0000
0001
0100
0000
0100
1000
0000
,
0010
0100
0000
0001
0100
0000
0010
0000
,
1000
0100
0000
1000
0010
0000
0100
0000
,
0001
0000
0001
0000
0001
0000
0100
0010
,
1000
0001
0000
0100
0010
0000
0100
0001
,
1000
0010
0000
1000
0100
0000
0010
0001
,
0100
0010
0000
1000
0000
0001
0000
1000
,
0100
0000
0100
0000
0100
0000
1000
0010
,
0100
0001
0000
1000
0100
0000
1000
0010
,
0100
0010
0000
1000
0001
0000
0100
0001
,
0000
1000
0100
0000
0010
0001
0000
0100
,
0010
0000
1000
0001
0000
0010
0001
0000
,
1000
0010
0000
0100
0001
0000
1000
0010
,
1001
0000
0000
1001
0000
0000
0010
1000
,
0010
0000
0100
0100
0100
0000
0001
0100
,
1001
0000
0000
1001
0000
0100
0010
0001
,
0010
0000
0100
0100
0100
1000
0001
0010
,
1001
0000
0000
1001
0000
0010
0100
0001
,
1001
0000
0000
1001
0000
0010
1000
0100
,
1100
0000
0001
0100
0101
0000
0010
1000
,
0001
0100
0010
0100
0001
1000
0100
0010
,
0001
0000
0100
0010
0100
0000
0001
0010
,
0100
1000
0010
0100
0000
0010
1000
0001
,
0010
0000
0100
1000
0010
0000
0100
0010
,
1000
0001
0100
0010
0000
0100
0010
1000
,
0001
0000
0100
0010
0100
0000
0001
1000
,
0100
0010
0100
1000
0000
0010
0100
0010
,
1000
0000
0001
0010
0001
0000
0100
0010
,
0100
0001
0010
0100
0000
1000
0010
0100
,
0010
0000
1000
0100
0001
0000
1000
0000
,
0010
0001
0100
0001
0010
0001
0100
0001
,
1000
0000
0010
0100
0010
1000
0000
0001
,
0000
0010
0001
0100
0010
0000
0100
0010
,
1000
0000
0001
0100
0000
0010
1000
0001
,
0000
1100
0000
0001
0100
0000
1001
0000
,
0010
0000
1000
0100
0010
0001
0000
0100
,
0000
0010
1000
0001
0100
0010
0010
1000
,
0100
0000
0010
0001
0000
1000
0010
0000
,
0000
1100
0000
0101
0000
0011
0000
1000
,
0010
1000
0000
0001
0010
0000
0001
0100
,
0000
0010
1000
0000
0001
0000
1000
0100
,
0010
0000
0001
0000
0100
0010
0000
1000
,
0010
0000
0100
0001
0100
0010
1000
0100
,
0010
0001
0000
0100
0010
0000
1000
0100
,
0000
1000
0010
0000
0100
0000
0001
0010
,
0100
0000
1000
0000
0010
0100
0000
0001
,
0100
0000
0010
1000
0100
0010
0001
0100
,
0001
0000
1000
0100
0010
0000
1000
0000
,
0001
0010
0100
0010
0001
0100
0010
0010
,
1000
0000
0001
0010
0100
0000
0001
0000
,
1000
0000
0000
1000
0010
0000
0000
0010
0100
0000
0000
0100
0001
0000
0000
0001
,
1000
0000
0010
0100
0001
0100
0000
0001
,
0010
0000
0100
1000
0010
1000
0000
0001
,
0010
0000
0100
1000
0010
0100
0000
0001
,
0100
0000
1001
0000
,
0001
0010
0100
1000
0001
0100
0010
1000
,
0001
0100
0010
0100
0001
1000
0100
1000
,
0001
0010
0100
1000
0001
0100
0010
1000
,
0001
0100
0010
0100
0001
1000
0100
0010
,
1000
0100
0010
0001
1000
0010
0100
0001
,
1000
0010
0100
0010
1000
0001
0100
0001
,
1000
0100
0010
0001
1000
0010
0100
0001
,
1000
0010
0100
0010
1000
0001
1000
0001
,
1000
0000
1000
0010
0000
0000
0010
0000
,
0001
0000
0001
0010
0000
0100
0010
0000
,
1000
0000
0001
0100
0000
0000
0010
0000
,
1000
0100
1000
0010
0100
0001
0010
0100
,
0010
0001
0100
0010
1000
0100
1000
0010
,
0100
0020
0000
0001
0000
0000
0030
0000
;

//---------------dance-single - Medium----------------
#NOTES:
     dance-single:
     Medium:
     Medium:
     7:
     0.533,0.496,0.137,0.110,0.000,381.000,15.000,12.000,0.000,0.000:
0010
0000
0010
0000
0010
0000
1000
0001
,
1000
0000
0001
0100
0000
0001
1000
0000
,
0100
0000
0100
0000
0100
0000
1000
0010
,
1000
0000
0001
0100
0000
0001
0010
0001
,
1000
0000
1000
0000
1000
0000
0010
0100
,
0010
0000
1000
0100
0000
1000
0001
0000
,
0010
0000
0010
0000
0010
0000
0001
0100
,
0001
0000
1000
0100
0000
1000
0010
0000
,
0210
0010
0010
0010
,
0001
0001
0001
0301
,
1000
0010
0000
1000
0010
0000
0100
0000
,
0001
0000
1000
0100
1000
0000
0010
0000
,
0100
0001
0000
0100
0001
0000
1000
0000
,
0010
0100
0000
0010
0100
0000
0001
0000
,
1000
0000
0010
1000
0000
0010
1000
0000
,
0001
0000
0100
0001
0000
0100
0001
0000
,
1000
0100
0000
1000
0100
0000
0010
0000
,
0001
0100
0000
0001
0100
0000
0010
0000
,
1000
0000
1000
0000
1000
0000
0001
0100
,
0001
0000
1000
0010
1000
0000
0001
0000
,
0100
0010
0000
0100
0010
0000
1000
0100
,
0000
0010
0000
0100
0000
0010
0000
0100
,
1000
0000
1000
0000
1000
0000
0001
0100
,
0001
0000
1000
0100
1000
0000
0010
0000
,
0100
0001
0000
0100
0010
0000
0100
0001
,
0000
1000
0001
0000
1000
0010
0000
1000
,
0100
0000
0010
0100
0000
0010
0001
0000
,
0100
0001
0000
0100
0010
0000
1000
0001
,
2000
0000
0000
3020
0000
0000
0130
0000
,
0001
0000
1000
0001
1000
0000
0001
0100
,
0002
0000
0000
2003
0000
0000
3100
0010
,
0100
0000
1000
0000
0001
0000
0100
0010
,
0200
0000
0000
0302
0000
0000
1003
0000
,
0200
0000
0000
2300
0000
0000
3001
0000
,
0100
0010
0100
0010
,
0101
1010
1100
0011
,
1000
0000
1000
0000
1000
0000
0010
0100
,
0010
0000
1000
0100
0000
1000
0010
0000
,
0100
0000
0100
0000
0100
0000
0001
0010
,
0001
0000
1000
0010
0000
0100
0001
0000
,
0010
0000
0010
0000
0010
0000
0100
1000
,
0100
0000
0010
0001
0000
1000
0001
0000
,
0100
0000
0100
0000
0100
0000
0010
1000
,
0010
0000
1000
0100
0000
1000
0001
0000
,
0100
0000
0010
1000
0010
0000
0100
0000
,
1002
1000
1000
1003
,
0001
0000
0100
0000
0010
1000
0000
0100
,
0000
1000
0010
0000
0100
0000
0001
0010
,
0001
0000
1000
0100
0000
0010
0001
0000
,
0000
0100
0000
0010
1000
0000
0001
0000
,
0010
0000
0100
0000
1000
0001
0000
0100
,
0000
0010
1000
0000
0100
0000
0010
0000
,
0001
0000
0100
0010
0000
0100
0001
0000
,
0000
1000
0000
0010
0000
0100
0000
0001
,
1000
0000
0100
0000
1000
0000
0100
0010
,
0000
0000
0001
0000
0100
0000
0001
0010
,
0001
0000
1000
0000
0100
0000
1000
0001
,
0000
0000
0000
0000
,
0010
0000
0100
0000
0001
0000
1000
0010
,
0000
0000
0100
0000
0001
0000
1000
0100
,
1000
0000
0010
0000
0100
0000
0010
1000
,
0000
0000
0010
1000
0010
0000
0100
0001
,
0100
0000
0010
1000
0010
0000
0100
0000
,
0010
0000
0100
0001
0100
0000
0010
0000
,
1000
0000
0100
1000
0100
0000
0010
0000
,
2002
0000
0000
3000
,
1003
0010
0100
0010
,
1000
0001
0010
0100
,
1000
0010
0100
0010
,
1000
0001
0010
0001
,
1001
1001
0010
0001
,
0100
0010
0100
0001
,
1100
1100
0010
0001
,
0100
0010
1000
0100
,
0011
0011
1000
0100
,
1000
0010
0100
0001
,
1010
1010
0001
0100
,
0010
0000
0100
0000
0001
1000
0001
1000
,
0001
0000
1000
0100
0000
0000
1000
0000
,
1000
0000
0001
0100
0000
0000
0001
0000
,
0001
0000
1000
0010
0000
0000
1000
0000
,
1000
0000
0001
0010
0000
0000
0001
0000
,
0001
0100
1000
0010
,
0001
1000
0000
0100
0000
0000
0000
0000
;

//---------------dance-single - Beginner----------------
#NOTES:
     dance-single:
     Beginner:
     Beginner:
     2:
     0.161,0.266,0.064,0.000,0.000,116.000,7.000,0.000,0.000,0.000:
1000
0000
0000
0000
,
0001
0000
0001
0000
,
0100
0000
0000
0000
,
0010
0000
0010
0000
,
1000
0000
0000
0000
,
0100
0000
0100
0000
,
0001
0000
0000
0000
,
0010
0000
0010
0000
,
1000
0000
0000
0000
,
0001
0000
0000
0000
,
1000
0000
0000
0000
,
0001
0000
0000
0000
,
1000
0000
0000
0000
,
0100
0000
0000
0000
,
0010
0000
0010
0000
,
0001
0000
0001
0000
,
1000
0000
0100
0000
,
0010
0000
0001
0000
,
1000
0000
1000
0000
,
0010
0000
0000
0000
,
0100
0000
0000
0000
,
0001
0000
0001
0000
,
1000
0000
1000
0000
,
0001
0000
0000
0000
,
1000
0000
0010
0000
,
1000
0000
0010
0000
,
0100
0000
0001
0000
,
0100
0000
0001
0000
,
1001
0000
0000
0000
,
0000
0000
0000
0000
,
1001
0000
0000
0000
,
0000
0000
0000
0000
,
1001
0000
0000
0000
,
1001
0000
0000
0000
,
1001
0000
1001
0000
,
0010
0000
0010
0000
,
0010
0000
0000
0000
,
1000
0000
1000
0000
,
0001
0000
0000
0000
,
0100
0000
0100
0000
,
0001
0000
0000
0000
,
0010
0000
0010
0000
,
0001
0000
0000
0000
,
0010
0000
0010
0000
,
1000
0000
0100
0000
,
0010
0000
0001
0000
,
1000
0000
0000
0000
,
0010
0000
0000
0000
,
0100
0000
0000
0000
,
0001
0000
0001
0000
,
0001
0000
0000
0000
,
0100
0000
0000
0000
,
0010
0000
0000
0000
,
1000
0000
1000
0000
,
1000
0000
0000
0000
,
0001
0000
0000
0000
,
1000
0000
0000
0000
,
0001
0000
0000
0000
,
0100
0000
0000
0000
,
0010
0000
0000
0000
,
0100
0000
0000
0000
,
0010
0000
0000
0000
,
1000
0000
0000
0000
,
0010
0000
0000
0000
,
0100
0000
0000
0000
,
0001
0000
0000
0000
,
1000
0000
1000
0000
,
0001
0000
0001
0000
,
1000
0000
1000
0000
,
0001
0000
0001
0000
,
0100
0100
0000
0000
,
0000
0000
0000
0000
,
0010
0010
0000
0000
,
0000
0000
0000
0000
,
1000
1000
0000
0000
,
0000
0000
0000
0000
,
0001
0001
0000
0000
,
0000
0000
0000
0000
,
1000
0000
1000
0000
,
0001
0000
0001
0000
,
1000
0000
1000
0000
,
0001
0000
0001
0000
,
0100
0000
0100
0000
,
1001
0000
0000
0000
;

//---------------dance-single - Light----------------
#NOTES:
     dance-single:
     Light:
     Easy:
     4:
     0.288,0.382,0.055,0.101,0.000,203.000,6.000,11.000,0.000,0.000:
1000
0000
0010
0000
,
0100
0001
0100
0001
,
1000
0000
0100
0000
,
0010
0001
0010
0001
,
0100
0000
0010
0000
,
1000
0100
1000
0100
,
0010
0000
0001
0000
,
0100
0010
0100
0010
,
1000
1000
1000
1000
,
0001
0001
0001
0001
,
0100
0000
0100
0000
,
0010
0000
0010
0000
,
1000
0000
1000
0000
,
0001
0000
0001
0000
,
0010
0000
0010
0000
,
0100
0000
0100
0000
,
1000
0000
1000
0000
,
0001
0000
0001
0000
,
1000
1000
1000
0000
,
0010
0000
0100
0000
,
0001
0000
0001
0000
,
1000
0000
1000
0000
,
0100
0100
0100
0000
,
0010
0000
0001
0000
,
0100
0000
0010
0000
,
0100
0000
0010
0000
,
0100
0000
0010
0000
,
0100
0000
0010
0000
,
2002
0000
3003
0000
,
0020
0000
0130
0000
,
2200
0000
3300
0000
,
0002
0000
0103
0000
,
2020
0000
3030
0000
,
0202
0000
0303
0000
,
0011
0000
1100
0000
,
0010
0010
0010
0010
,
1000
0000
0001
0000
,
1000
0100
1000
0000
,
0001
0000
1000
0000
,
0001
0100
0001
0000
,
0010
0000
0100
0000
,
1000
0010
1000
0000
,
0100
0000
0010
0000
,
0001
0100
0001
0000
,
1000
1000
1000
1000
,
0001
0001
0001
0001
,
0100
0000
0010
0000
,
1000
0000
0010
0000
,
0100
0000
0001
0000
,
1000
0100
1000
0100
,
1000
0000
0001
0000
,
0010
0000
0100
0000
,
0010
0000
0001
0000
,
0010
0100
0010
0100
,
0010
0000
1000
0000
,
0010
0000
0100
0000
,
0001
0000
0010
0000
,
0001
0000
0100
0000
,
1000
0000
0010
0000
,
0100
0000
0010
0000
,
1000
0000
0001
0000
,
0010
0000
0001
0000
,
0100
0000
0010
0000
,
0100
0000
0001
0000
,
1000
0000
0100
0000
,
1000
1000
1000
1000
,
0001
0000
0100
0000
,
1000
0000
0010
0000
,
0001
0000
0100
0000
,
1000
0000
0010
0000
,
0001
0000
0001
0000
,
1000
1000
1000
1000
,
0010
0000
0010
0000
,
0100
0100
0100
0100
,
0001
0000
0001
0000
,
0010
0010
0010
0010
,
0100
0000
0100
0000
,
1000
1000
1000
1000
,
0001
0000
0001
0000
,
1000
0000
1000
0000
,
0010
0000
0010
0000
,
0100
0000
0100
0000
,
0001
0001
1000
1000
,
0020
0000
0030
0000
;
