#TITLE:omega;
#SUBTITLE:;
#ARTIST:DM Ashura vs. K;
#TITLETRANSLIT:;
#SUBTITLETRANSLIT:;
#ARTISTTRANSLIT:;
#CREDIT:;
#BANNER:omega.png;
#BACKGROUND:omega-bg.png;
#LYRICSPATH:;
#CDTITLE:;
#MUSIC:omega.mp3;
#OFFSET:-5.900;
#SAMPLESTART:64.056;
#SAMPLELENGTH:17.426;
#SELECTABLE:YES;
#BPMS:0.000=165.000;
#STOPS:;
#BGCHANGES:;
// cache tags:
#FIRSTBEAT:0.000;
#LASTBEAT:243.000;
#SONGFILENAME:Songs/StepMix 1.0/omega/omega.sm;
#HASMUSIC:1;
#HASBANNER:1;
#MUSICLENGTH:97.599;
// end cache tags

//---------------dance-single - ----------------
#NOTES:
     dance-single:
     :
     Hard:
     8:
     0.571,0.529,0.359,0.020,0.061,353.000,35.000,2.000,0.000,0.000:  // measure 1
1000
0000
1000
0000
0010
0100
0001
0100
,  // measure 2
0010
0010
1000
1000
,  // measure 3
0001
0010
0100
0010
0001
1000
0100
0000
,  // measure 4
0101
1001
1100
1001
,  // measure 5
0001
0010
0001
0100
0001
0010
0001
0000
,  // measure 6
1010
0011
1010
0011
,  // measure 7
1000
0100
1000
0010
1000
0100
1000
0000
,  // measure 8
0101
1001
1100
1001
,  // measure 9
0100
0010
0100
0001
0100
0010
0100
0000
,  // measure 10
1001
0110
1001
0110
,  // measure 11
0010
1000
0010
0100
0010
1000
0010
0000
,  // measure 12
0011
1001
1010
1001
,  // measure 13
1000
0100
1000
0000
0100
0000
0011
0000
,  // measure 14
0010
0100
1000
0000
0001
0000
0110
0000
,  // measure 15
1000
0001
0010
0000
0100
0000
1010
0000
,  // measure 16
0010
0100
0001
0000
1000
0000
1100
0000
,  // measure 17
0010
0100
0001
0000
0010
0000
0110
0000
,  // measure 18
1000
0001
0100
0000
0010
0000
1100
0000
,  // measure 19
0001
1000
0010
0000
0100
0001
0010
0000
,  // measure 20
0100
1000
0010
0000
0101
0000
1001
0000
,  // measure 21
1000
0100
0001
0100
1000
0100
0001
0000
,  // measure 22
0001
0100
1000
0100
0001
0100
1000
0000
,  // measure 23
0001
0100
1000
0100
0001
0100
1000
0000
,  // measure 24
1000
0100
0001
0100
1000
0100
0001
0000
,  // measure 25
1000
1100
0001
0101
,  // measure 26
1000
1010
0001
0011
,  // measure 27
1000
0100
1000
0010
0100
0001
0010
0001
,  // measure 28
1000
0010
1000
0100
0010
0001
0100
0001
,  // measure 29
1000
0001
1000
0001
,  // measure 30
0100
0010
0100
0010
,  // measure 31
1000
0100
1000
0100
,  // measure 32
0010
0001
0010
0001
,  // measure 33
1000
0010
1000
0010
,  // measure 34
0100
0001
0100
0001
,  // measure 35
0010
0100
0010
0100
,  // measure 36
1000
0001
1000
0001
,  // measure 37
1000
0000
0000
0100
0000
0000
0010
0000
0000
0000
0001
0000
0100
0000
0010
0000
,  // measure 38
1000
0000
0000
0100
0000
0000
0010
0000
0000
0000
0001
0000
0100
0000
0010
0000
,  // measure 39
1000
0000
0000
0001
0000
0000
0010
0000
0000
0000
0100
0000
1000
0000
0010
0000
,  // measure 40
0100
0000
0000
0001
0000
0000
0010
0000
0000
0000
0100
0000
1000
0000
0001
0000
,  // measure 41
0010
0000
0000
0100
0000
0000
1000
0000
0000
0000
0010
0000
0100
0000
0001
0000
,  // measure 42
1000
0000
0000
0010
0000
0000
0100
0000
0000
0000
0001
0000
1000
0000
0010
0000
,  // measure 43
0100
0000
0000
0001
0000
0000
1000
0000
0000
0000
0010
0000
0100
0000
0001
0000
,  // measure 44
0010
0000
0000
0100
0000
0000
1000
0000
0000
0000
0010
0000
0100
0000
0001
0000
,  // measure 45
1000
0100
1000
0100
0010
0001
0010
0001
,  // measure 46
1000
0100
1000
0010
1000
0100
0010
0000
,  // measure 47
0001
0000
0000
0100
0000
0000
0010
0000
0000
0000
1000
0000
0001
0000
0100
0000
,  // measure 48
0010
0000
0000
1000
0000
0000
0100
0000
0010
0000
0001
0000
0100
0000
0000
0000
,  // measure 49
0010
1000
0001
1000
0001
1000
0001
0100
,  // measure 50
0010
1000
0010
0100
0010
1000
0001
0000
,  // measure 51
0100
0000
0000
0010
0000
0000
1000
0000
0000
0000
0100
0000
0010
0000
0001
0000
,  // measure 52
0100
0000
0000
0010
0000
0000
1000
0000
0000
0000
0001
0000
0010
0000
0100
0000
,  // measure 53
1000
0001
0010
0001
1000
0001
0010
0001
,  // measure 54
0100
0010
0100
0001
0100
0010
0100
0001
,  // measure 55
1000
0010
0100
0010
1000
0010
0100
0001
,  // measure 56
1000
0001
0100
0001
1000
0001
0100
0010
,  // measure 57
1000
0100
1000
0010
1000
0100
1000
0010
,  // measure 58
0100
0001
0100
0010
0100
0001
0100
0010
,  // measure 59
1000
0001
1000
0001
1000
0001
1000
0001
,  // measure 60
0010
1001
0100
1001
,  // measure 61
0220
0000
0000
0330
;

//---------------dance-single - ----------------
#NOTES:
     dance-single:
     :
     Easy:
     5:
     0.416,0.436,0.236,0.205,0.000,241.000,23.000,20.000,0.000,0.000:  // measure 1
1000
1000
1000
1000
,  // measure 2
0001
0001
0001
0001
,  // measure 3
0010
0010
0010
0010
,  // measure 4
0100
0100
0100
0100
,  // measure 5
2000
3001
0002
1003
,  // measure 6
0010
0100
0001
0100
,  // measure 7
0020
1030
0200
0301
,  // measure 8
1000
0010
0010
1000
,  // measure 9
0002
0013
2000
3010
,  // measure 10
0001
0010
0100
1000
,  // measure 11
0200
0301
0200
1300
,  // measure 12
0001
0010
0100
1000
,  // measure 13
0001
0101
0001
0101
,  // measure 14
1000
0010
0010
1000
,  // measure 15
1000
1100
1000
1100
,  // measure 16
0001
0100
0100
0001
,  // measure 17
0001
0011
0010
0011
,  // measure 18
2000
0010
3100
1000
,  // measure 19
1000
1010
0010
1010
,  // measure 20
0002
0010
0103
0001
,  // measure 21
1000
0100
1000
0010
,  // measure 22
1000
1000
0100
0010
,  // measure 23
0001
0100
0001
0010
,  // measure 24
0001
0001
0100
0010
,  // measure 25
2000
0001
0010
3100
,  // measure 26
1000
1000
0010
0100
,  // measure 27
0002
1000
0100
0013
,  // measure 28
0001
0001
0100
0010
,  // measure 29
1000
0001
1000
0001
,  // measure 30
0010
0100
0010
0100
,  // measure 31
1000
0001
1000
0001
,  // measure 32
0100
0010
0100
0010
,  // measure 33
1000
0100
1000
0100
,  // measure 34
0010
0001
0010
0001
,  // measure 35
0100
0010
0100
0010
,  // measure 36
1000
0001
1000
0001
,  // measure 37
1100
1000
0100
1000
,  // measure 38
0101
0001
0100
0001
,  // measure 39
1010
1000
0010
1000
,  // measure 40
0011
0001
0010
0001
,  // measure 41
1100
0100
1000
0100
,  // measure 42
0101
0100
0001
0100
,  // measure 43
1010
0010
1000
0010
,  // measure 44
0011
0010
0001
0010
,  // measure 45
0001
1000
1000
0100
,  // measure 46
0010
0001
0001
0110
,  // measure 47
1000
1000
0100
0010
,  // measure 48
0001
0100
0010
0010
,  // measure 49
1000
1000
0001
0010
,  // measure 50
0100
1000
0010
0110
,  // measure 51
0001
0001
1000
0010
,  // measure 52
0100
0001
0010
0010
,  // measure 53
0200
1000
1000
0310
,  // measure 54
0020
0100
0100
0031
,  // measure 55
0002
0010
0010
0013
,  // measure 56
2000
0010
0010
3010
,  // measure 57
0002
0010
0010
1003
,  // measure 58
2000
0001
0001
3100
,  // measure 59
1000
1100
1000
1100
,  // measure 60
0001
0101
0001
0101
,  // measure 61
2002
0000
0000
3003
;
