#TITLE:Baldr Force;
#SUBTITLE:- Face of Fact;
#ARTIST:KOTOKO;
#TITLETRANSLIT:;
#SUBTITLETRANSLIT:;
#ARTISTTRANSLIT:;
#CREDIT:;
#BANNER:faceoffact.png;
#BACKGROUND:faceoffact-bg.png;
#LYRICSPATH:;
#CDTITLE:;
#MUSIC:faceoffact_successful_edit.mp3;
#OFFSET:0.087;
#SAMPLESTART:44.183;
#SAMPLELENGTH:12.000;
#SELECTABLE:YES;
#BPMS:0.000=270.000,528.000=135.020;
#STOPS:;
#BGCHANGES:0.000=faceoffact.avi=1.000=1=1=0,
560.250=faceoffact-bg.png=1.000=0=0=1,
99999=-nosongbg-=1.000=0=0=0 // don't automatically add -songbackground-
;
// cache tags:
#FIRSTBEAT:38.000;
#LASTBEAT:560.250;
#SONGFILENAME:Songs/Games/Face of Fact/faceoffact.sm;
#HASMUSIC:1;
#HASBANNER:1;
#MUSICLENGTH:136.680;
// end cache tags

//---------------dance-single - MANIAC----------------
#NOTES:
     dance-single:
     MANIAC:
     Hard:
     10:
     0.577,0.717,0.278,0.534,0.004,441.000,38.000,73.000,0.000,0.000:

0000
0000
0000
0000
,
0000
0000
0000
0000
,
0000
0000
0000
0000
,
0000
0000
0000
0000
,
0000
0000
0000
0000
,
0000
0000
0000
0000
,
0000
0000
0000
0000
,
0000
0000
0000
0000
,
0000
0000
0000
0000
,
0000
0000
0100
0001
,
1000
0000
0010
0000
,
0100
0000
0001
0000
,
0010
0000
0100
0000
,
0001
0000
0010
0100
,
1000
0000
0001
0000
,
0010
0000
0100
0010
,
0001
0000
0100
0000
,
0010
0000
0001
0000
,
0101
0000
0000
0000
,
0000
0000
0000
1000
,
0010
0000
0000
0000
,
0000
0000
0000
0010
,
0100
0000
0000
0000
,
0000
0000
0000
0001
,
1001
0000
0000
0000
,
1010
0000
0000
0000
,
1000
0010
0100
0010
,
0000
0100
0000
0001
,
0010
1000
0010
0100
,
0000
0010
0000
0002
,
2000
0000
0000
0000
,
0000
0000
3003
0010
,
0101
1000
0010
0100
,
0001
0010
0100
1000
,
0001
0000
0010
0000
0100
0001
0000
0001
,
0100
0010
0100
0001
0000
1000
0000
0100
,
0001
0010
1000
0001
,
0100
0001
0000
0010
0000
0100
0000
0010
,
1000
0010
0100
0001
,
0100
0010
0000
0001
0000
1000
0100
0010
,
0001
1000
0001
0000
0100
0000
1000
0000
,
0001
0010
0001
0000
0100
0000
1000
0000
,
0001
0010
0100
0001
,
1000
0001
0000
0020
0000
0130
0000
1000
,
0001
0010
0001
0010
,
0001
1000
0000
0200
0000
0310
0000
0001
,
1000
0010
0100
1000
,
0001
0100
0000
0020
0000
1030
0000
0010
,
0100
0001
0100
0000
0010
0000
0100
0000
,
1000
0010
1000
0000
0001
0000
0010
0000
,
2001
0000
0000
0000
3010
0000
0001
0100
,
0001
0000
0010
1000
0010
0000
0001
0000
,
1020
0000
0000
0000
0130
0000
1000
0010
,
1000
0000
0010
0100
0010
0000
1000
0000
,
0102
0000
0000
0023
,
2030
0000
3000
0000
,
0000
0000
0000
0000
,
0100
0001
0010
0001
,
0210
0000
0000
0000
1300
0000
0001
1000
,
0100
0000
0001
0010
0100
0000
0010
0000
,
0201
0000
0000
0000
1300
0000
0100
0010
,
0001
0000
0010
0100
1000
0000
0100
0000
,
0021
0000
0230
0000
,
0301
0010
1000
0001
,
0010
0000
0001
0000
1000
0010
0100
0000
,
0100
0010
0001
0000
0100
0000
0001
0000
,
1001
0000
0010
0000
0100
1000
0100
0010
,
0000
0001
0011
1000
,
0101
0000
0100
0000
0010
0001
0010
0100
,
0000
1000
1100
0001
,
0012
0000
0000
0023
0000
0000
2030
0000
,
3002
0000
0000
0203
0000
0000
0302
0000
,
2003
0000
0000
3200
0000
0000
0320
0000
,
0002
0000
0033
0000
,
0101
0000
0010
0000
0001
0010
0100
1000
,
0000
1000
1001
0100
,
0110
0000
0001
0000
1000
0100
0010
0001
,
0000
1000
0110
0001
,
2000
0000
3000
0020
0000
0000
0230
0000
,
2300
0000
0000
3002
0000
0000
2003
0000
,
0020
0000
0000
0000
,
0000
0000
0000
0000
,
3030
0000
0000
0000
,
0000
0000
0000
0000
,
1000
0100
0010
0100
,
2000
0000
0000
3001
0000
0000
1000
0000
,
0001
0000
0010
0100
0000
1000
0010
0000
,
0101
0000
0000
0000
,
0200
0000
0000
0302
0000
0000
2003
0000
,
3010
0100
0001
0010
,
1000
0000
0001
0100
0000
0010
1000
0000
,
1001
0000
0000
0000
,
0001
1000
0001
0000
1000
0010
1000
0100
,
0000
0001
0100
0000
1001
0000
0000
0000
,
1000
0001
1000
0000
0001
0100
0001
0010
,
0000
0100
1000
0000
1001
0000
0000
0000
,
0020
0000
0230
0302
,
2003
0000
0000
3002
0000
0000
0203
0000
,
0320
0000
0000
0032
0000
0000
0203
0000
,
2000
0000
0000
3300
,
0001
0000
0100
0000
0010
0000
1000
0010
,
0000
0001
0100
0000
0101
0000
0010
0000
,
1000
0000
0001
0100
0000
0010
1000
0000
,
2002
0000
0000
3003
,
0002
0000
0000
0203
0000
0000
0310
0000
,
1000
0001
0100
0010
,
0001
0000
0010
0100
0000
0100
0001
0000
,
1001
0000
0000
0000
,
0100
0010
1000
0000
0001
0100
1000
0100
,
0000
1000
0001
0000
1010
0000
0000
0000
,
0010
0100
0001
0000
1000
0100
0001
0100
,
0000
0001
1000
0000
0101
0000
0000
0000
,
0200
0000
2300
3200
,
0320
0000
0000
0230
0000
0000
2300
0000
,
3002
0000
0000
0203
0000
0000
0320
0000
,
0002
0033
2000
0000
,
0002
0000
0000
0000
,
3003
0000
0000
0000
1000
0010
0100
0000
,
1001
0000
0010
0000
0010
1000
0000
0000
,
0101
0000
0010
0000
0001
0100
0000
0000
,
1010
0000
0100
0000
0001
1000
0000
0000
,
0100
0010
0100
0000
0001
1000
0000
0000
,
0110
0000
0010
0000
1000
0001
0000
0000
,
0010
0100
0010
0000
0100
1000
0000
0000
,
0020
1000
0000
0000
0130
0000
0000
0000
,
0002
0100
0000
0000
0013
0000
0000
0000
,
2000
0001
0000
0000
3100
0000
0000
0000
,
0002
1000
0000
0000
0103
0000
1000
0000
,
0020
0100
0000
0000
0031
0000
0000
0000
,
2000
0010
0000
0000
3001
0000
0010
0000
,
0002
0100
0000
0000
1003
0000
0010
1000
,
0100
0000
0101
0000
,
2001
0000
3100
0000
,
0200
0000
0000
0310
0000
0000
1010
0000
,
0101
0000
0000
0000
0000
0001
1000
0010
,
0100
0000
0000
0020
0000
1030
0100
0000
,
0002
0000
0000
0103
0000
0000
0000
0000
,
0200
0000
0000
1300
0000
0000
0000
0000
,
0001
0010
0001
0100
0000
0010
0100
1000
,
0010
0001
0100
0010
0000
0110
0000
0000
,
0000
1001
0000
0000
0000
0000
0000
0000
0000
0000
0000
0000
0000
0000
0000
0000;

//---------------dance-single - ANOTHER----------------
#NOTES:
     dance-single:
     ANOTHER:
     Medium:
     8:
     0.402,0.564,0.161,0.322,0.004,319.000,22.000,44.000,0.000,0.000:

0000
0000
0000
0000
,
0000
0000
0000
0000
,
0000
0000
0000
0000
,
0000
0000
0000
0000
,
0000
0000
0000
0000
,
0000
0000
0000
0000
,
0000
0000
0000
0000
,
0000
0000
0000
0000
,
0000
0000
0000
0000
,
0000
0000
0000
0000
,
0001
0000
1000
0000
,
0010
0000
1000
0000
,
0100
0000
1000
0000
,
1100
0000
1000
0010
,
0100
0000
0001
0000
,
1000
0000
0001
0010
,
0001
0000
0100
0000
,
0001
0000
0010
0000
,
1001
0000
0000
0000
,
0000
0000
0000
0010
,
0100
0000
0000
0000
,
0000
0000
0000
0010
,
0100
0000
0000
0000
,
0000
0000
0000
0010
,
1000
0000
0000
0000
,
0001
0000
1000
0000
,
0010
0000
0001
0000
,
1000
0000
0001
0000
,
0100
0000
0001
0000
,
0100
0000
0010
0000
,
1000
0000
0010
0000
,
1000
0000
0100
0010
,
0001
0000
1000
0000
,
0010
0100
1000
0001
,
1000
0010
1000
0000
,
0000
0011
0000
0000
,
0100
0001
0010
0000
,
0000
1010
0000
0000
,
0010
1000
0100
0000
,
0000
0101
0000
0000
,
1000
0001
1000
0000
0000
0000
0000
0000
,
0010
0001
0010
0000
0000
0000
0000
0000
,
1000
0010
0001
0000
,
0000
0000
0001
0100
,
0010
0100
1000
0000
,
0000
0000
0100
1000
,
0010
0001
0100
0000
,
0000
0000
0001
0100
,
0010
1000
0010
0000
0100
0000
0010
0000
,
0100
0010
0100
0000
0001
0000
0010
0000
,
0200
0000
0000
0000
2300
0000
0000
3000
,
0010
1000
0000
0200
0000
0000
0310
0000
,
0002
0000
0000
0000
2003
0000
0000
3000
,
0010
0001
0000
0200
0000
0000
0310
0000
,
1100
0000
0000
2000
,
0002
0000
0000
0000
,
3003
0000
0000
0000
,
0000
0000
0000
0000
,
0002
0000
0000
0000
2003
0000
0000
3000
,
0100
0001
0000
0020
0000
0000
0130
0000
,
2000
0000
0000
0000
3020
0000
0000
0030
,
0100
1000
0000
0020
0000
0000
0130
0000
,
0101
0000
1000
0000
,
0010
0100
0001
1000
,
0000
0100
0010
1000
,
0202
0000
0000
0303
,
0100
0001
0100
0010
,
1000
0000
1001
0000
,
1000
0010
0100
1000
,
0010
0000
0101
0000
,
0010
0100
0010
0000
,
0100
0010
1000
0000
,
0100
0010
0001
0010
,
0001
1000
0100
0000
,
1000
0010
0001
1000
,
0100
0000
1010
0000
,
1000
0010
0100
1000
,
0010
0000
0110
0000
,
0001
0100
0010
0000
,
1000
0010
0100
0000
,
2002
0000
0000
0000
,
0000
0000
0000
0000
,
3003
0000
0000
0000
,
0000
0000
1000
0000
0001
1000
0000
0000
,
0010
0100
0001
0010
,
0200
0000
0000
0310
0000
0000
0001
0000
,
2000
0000
0000
3020
0000
0000
0031
0000
,
1000
0000
0000
0000
,
0020
0000
0000
0230
0000
0000
1300
0000
,
0010
0100
0001
0010
,
0100
1000
0010
0100
,
0001
0000
0110
0000
,
1100
0000
0010
0100
,
0001
0010
1000
0000
,
0101
0000
0010
1000
,
0010
0100
0001
0000
,
2010
0000
3010
0100
,
0001
0010
0010
0010
,
1000
0000
0000
0010
0000
0000
0100
0000
,
0001
0000
0000
0000
,
0001
1000
0100
0001
,
0020
0000
0000
2030
0000
3000
0100
0010
,
0200
0000
0000
0302
0000
0000
0103
0000
,
0010
0000
0000
0000
,
1000
0000
0000
0001
0000
0000
0001
0000
,
1000
0100
1000
0010
,
0010
0100
0001
0010
,
1000
0000
0000
0000
,
1100
0000
1000
0010
,
0100
0010
0001
0000
,
0101
0000
0010
0100
,
0001
0010
1000
0000
,
0201
0000
1300
1000
,
0010
1000
0100
0001
,
0010
0000
0000
1000
0000
0000
0100
0000
,
0001
0000
2000
0000
,
0002
0000
0000
0000
,
0000
0000
3003
0000
,
2000
0000
0010
0000
,
3200
0000
1000
0000
,
0302
0000
0100
0000
,
0003
0000
0010
0100
,
0002
0000
0010
0000
,
0203
0000
0001
0000
,
0320
0000
0000
0000
,
2030
0000
0000
0000
,
3002
0000
0000
0000
,
0203
0000
0000
0300
,
2002
0000
0000
0000
,
0000
3003
0010
0001
,
0100
0000
0010
0000
,
1000
0000
0001
0000
,
1000
0000
0001
0000
,
0010
0000
0000
0100
0000
0000
0010
0000
,
1000
0000
0000
0000
0000
1000
0010
0100
,
0001
0000
0000
0100
0000
0010
0100
0000
,
0001
0000
0000
1000
0000
0000
0000
0000
,
0010
0000
0000
0100
0000
0000
0000
0000
,
0001
0010
0100
2000
0000
0000
0000
3000
,
1000
0000
0100
0000
0010
0000
0002
0000
0000
0000
1000
0003
0000
0000
0000
0000
,
0000
1001
0000
0000
0000
0000
0000
0000
0000
0000
0000
0000
0000
0000
0000
0000;

//---------------dance-single - BASIC----------------
#NOTES:
     dance-single:
     BASIC:
     Easy:
     4:
     0.234,0.410,0.176,0.278,0.004,162.000,24.000,38.000,0.000,0.000:

0000
0000
0000
0000
,
0000
0000
0000
0000
,
0000
0000
0000
0000
,
0000
0000
0000
0000
,
0000
0000
0000
0000
,
0000
0000
0000
0000
,
0000
0000
0000
0000
,
0000
0000
0000
0000
,
0000
0000
0000
0000
,
0000
0000
0000
0000
,
0100
0000
0000
0000
,
0010
0000
0000
0000
,
1000
0000
0000
0000
,
0001
0000
0000
0000
,
0100
0000
0000
0000
,
0001
0000
0000
0000
,
0010
0000
0000
0000
,
0010
0000
0000
0000
,
2000
0000
0000
0000
,
3000
0000
0000
0000
,
0020
0000
0000
0000
,
0030
0000
0000
0000
,
2000
0000
0000
0000
,
3000
0000
0000
0000
,
0002
0000
0003
0000
,
2000
0000
3000
0000
,
1002
0000
0000
0003
,
0000
0000
0000
0000
,
2001
0000
3000
0000
,
0000
0000
0000
0000
,
1002
0000
0003
0000
,
0000
0000
0000
0000
,
1000
0000
0000
0000
,
0100
0000
0000
0000
,
0001
0000
0010
0000
,
0000
0000
0100
0000
,
1000
0000
0010
0000
,
0000
0000
1000
0000
,
0001
0000
0010
0000
,
0000
0000
0010
0000
,
1020
0000
0030
0000
,
0201
0000
0300
0000
,
0001
0000
0100
0000
,
0000
0000
1000
0000
,
0010
0000
0100
0000
,
0000
0000
0010
0000
,
1000
0000
0001
0000
,
0000
0000
0001
0000
,
0012
0000
0003
0000
,
2100
0000
3000
0000
,
0001
0000
0010
0000
,
0100
0000
1000
0000
,
0100
0000
0010
0000
,
0100
0000
0001
0000
,
2002
0000
0000
0000
,
3003
0000
0000
0000
,
0000
0000
0000
0000
,
0000
0000
0000
0000
,
0100
0000
0001
0000
,
0010
0000
0100
0000
,
0001
0000
1000
0000
,
0100
0000
0010
0000
,
0100
0000
0001
0000
,
2002
0000
0000
3003
,
0000
0000
1000
0000
,
0010
0000
0100
0000
,
0002
0000
0100
0003
,
0000
0000
0010
0000
,
0200
0000
0001
0300
,
0000
0000
1000
0000
,
0001
0000
0010
0000
,
1000
0000
0100
0000
,
1000
0000
0001
0000
,
0100
0000
0001
0000
,
0201
0000
0010
0300
,
0000
0000
0010
0000
,
2100
0000
0001
3000
,
0000
0000
0001
0000
,
0100
0000
0010
0000
,
1000
0000
0010
0000
,
0200
0000
0000
0000
,
0000
0000
0300
0000
,
0000
0000
0000
0000
,
0000
0000
0000
0000
,
2000
0000
0000
3010
,
0000
0001
0000
0100
,
0000
1000
0000
0001
,
0000
1000
0000
0001
,
0200
0000
0000
0000
,
0320
0000
0000
0000
,
0032
0000
0000
0000
,
1003
0000
0000
0000
,
0110
0000
0000
0000
,
0000
0000
0000
0000
,
0101
0000
0000
0000
,
0000
0000
0000
0000
,
2002
0000
0000
0000
,
0000
0000
0000
0000
,
0000
0000
0000
0000
,
3003
0000
0000
0000
,
0200
0000
0000
0310
,
0000
1000
0000
0010
,
0000
0100
0000
0001
,
0000
0100
0000
1000
,
0200
0000
0000
0000
,
2300
0000
0000
0000
,
3020
0000
0000
0000
,
0031
0000
0000
0000
,
1001
0000
0000
0000
,
0000
0000
0000
0000
,
0110
0000
0000
0000
,
0000
0000
0000
0000
,
2002
0000
0000
0000
,
0000
0000
0000
0000
,
0000
0000
0000
0000
,
3003
0000
0002
0000
,
1003
0000
0000
0000
,
0100
0000
0000
0000
,
0001
0000
0000
0000
,
0010
0000
0000
0000
,
1000
0000
0000
0000
,
0100
0000
0000
0000
,
0001
0000
0000
0000
,
0100
0000
0000
0000
,
2001
0000
0000
0000
,
3002
0000
0000
0000
,
0023
0000
0000
0000
,
2030
0000
0000
0000
,
3001
0000
0100
0000
,
1001
0000
0010
0000
,
1000
0000
0100
0000
,
0001
0000
0010
0000
,
1001
0000
0001
0010
,
0100
0000
0010
1000
,
0001
0000
0010
0100
,
0001
0010
1000
0001
,
0100
0000
1000
0010
,
0100
0000
0001
0100
,
1010
0000
0000
0000
,
0101
0000
0000
1001
0000
0000
0000
0000
,
0000
1001
0000
0000
0000
0000
0000
0000
0000
0000
0000
0000
0000
0000
0000
0000;
