#TITLE:Juke-Joint Jezebel;
#SUBTITLE:Metropolis Mix;
#ARTIST:KMFDM;
#TITLETRANSLIT:;
#SUBTITLETRANSLIT:;
#ARTISTTRANSLIT:;
#CREDIT:Plaguefox (gamecast.org/plaguemix);
#BANNER:jukejointjezebel-bn.png;
#BACKGROUND:jukejointjezebel-bg.png;
#LYRICSPATH:;
#CDTITLE:pmacd.png;
#MUSIC:jukejointjezebel.ogg;
#OFFSET:0.029;
#SAMPLESTART:60.440;
#SAMPLELENGTH:12.000;
#SELECTABLE:YES;
#BPMS:0.000=129.082;
#STOPS:;
#BGCHANGES:;
// cache tags:
#FIRSTBEAT:12.000;
#LASTBEAT:213.500;
#SONGFILENAME:Songs/Plaguemix Series/Juke-Joint Jezebel/jukejointjezebel.sm;
#HASMUSIC:1;
#HASBANNER:1;
#MUSICLENGTH:105.049;
// end cache tags

//---------------dance-single - HEAVY----------------
#NOTES:
     dance-single:
     HEAVY:
     Hard:
     8:
     0.367,0.356,0.209,0.076,0.143,240.000,22.000,8.000,0.000,0.000:
0000
0000
0000
0000
,
0000
0000
0000
0000
,
0000
0000
0000
0000
,
0001
1000
1000
0001
0100
0100
0001
1000
,
0010
0000
0000
0100
0000
0000
0001
0000
0000
0010
0000
0000
0100
0000
1000
0000
,
0010
0000
0000
0100
0000
0000
0001
0000
0000
0100
0000
0000
0010
0000
0000
0000
,
0100
0000
0000
0010
0000
0000
1000
0000
0000
0100
0000
0000
0010
0000
0001
0000
,
0100
0000
0000
0010
0000
0000
1000
0000
0000
0010
0000
0000
0100
0000
0000
0000
,
0010
0000
0000
0100
0000
0000
0001
0000
0000
0010
0000
0000
0100
0000
1000
0000
,
0001
0000
0000
0100
0000
0000
1000
0000
0000
0100
0000
0000
0001
0000
0000
0000
,
0100
0000
0000
0010
0000
0000
1000
0000
0000
0100
0000
0000
0010
0000
0001
0000
,
1000
0000
0000
0010
0000
0000
0001
0000
0000
0010
0000
0000
1000
0000
0000
0000
,
1000
0000
0000
0010
0000
0000
0100
0000
0000
0001
0000
0000
0000
0000
0100
0000
,
0000
1001
0010
0100
,
0010
0000
0100
0001
0010
0000
0100
0001
,
0010
0100
1001
0001
,
0100
0000
0010
1000
0100
0000
0001
0000
,
1000
0100
1001
0001
,
0100
0000
0010
1000
0100
0000
0010
1000
,
0100
0010
1001
1000
,
0010
0000
0100
0001
0010
0000
1000
0000
,
0001
0010
1001
0100
,
1000
0000
0001
0010
0001
0000
0010
0100
,
0010
0100
1000
0001
,
0010
0000
0100
0010
0000
0100
0000
0010
,
0100
1000
0001
0010
,
0001
0000
1000
0100
1000
0000
0100
0010
,
0100
0010
0001
1000
,
0100
0000
0010
0100
0000
0010
0000
0100
,
0010
0000
0001
0100
0020
0000
0000
0000
,
0000
0000
0000
0030
,
1000
0001
0010
0000
0200
0000
0000
0000
,
0000
0000
0300
0000
1000
0100
0010
0001
,
1000
0020
0000
0030
2000
0000
3000
0000
,
1100
0000
1010
0000
0100
0000
1000
0001
,
0000
0001
1000
0000
0002
0000
0003
0000
,
0101
0000
0000
0000
0011
0000
0000
0000
1000
0000
0000
0010
0000
0000
0100
0000
,
0000
0001
0000
0000
0010
0000
0000
0000
1010
0000
0000
0000
0011
0000
0000
0000
,
1000
0001
0100
0000
0001
1000
0000
0100
,
1000
0000
0001
0100
0000
0001
0000
0000
,
0101
0000
0000
0000
0011
0000
0000
0000
0001
0000
0000
0010
0000
0000
0100
0000
,
0000
1000
0000
0000
0010
0000
0000
0000
0200
0000
0000
0000
0300
0000
0000
0000
,
0110
0000
0101
0000
0100
0000
0001
1000
,
0000
1000
0001
0000
2000
0000
3000
0000
,
1010
0000
0000
0000
0101
0000
0000
0000
0001
0000
0000
0100
0000
0000
0010
0000
,
0000
1000
0000
0000
0100
0000
0000
0000
0010
0000
0000
0000
0001
0000
0000
0000
,
0101
0000
1010
0000
0020
0000
0030
1000
,
0100
0010
0000
0001
0000
1000
0000
0000
,
1010
0000
0000
0000
1100
0000
0000
0000
1000
0000
0000
0100
0000
0000
0010
0000
,
0000
0001
0000
0000
0100
0000
0000
0000
0100
0000
0001
0000
0010
0000
0100
0000
,
1000
0000
0010
0000
0100
0000
0001
0000
0010
0000
0000
0001
0000
0000
0100
0000
,
0000
0010
0000
0000
0000
0000
1000
0000
0100
0000
1000
0000
0010
0000
0100
0000
,
0001
0000
0010
0000
0100
0000
1000
0000
0010
0000
0000
1000
0000
0000
0100
0000
,
0000
0010
0000
0000
0000
0000
1001
0000
0000
0000
0000
0000
0000
0000
0000
0000
;

//---------------dance-single - STANDARD----------------
#NOTES:
     dance-single:
     STANDARD:
     Medium:
     6:
     0.332,0.329,0.162,0.209,0.000,205.000,17.000,22.000,0.000,0.000:










0000
0000
0000
0000
,
0000
0000
0000
0000
,
0000
0000
0000
0000
,
1000
1000
1000
0001
0001
0001
0100
0010
,
0100
0000
0010
0010
,
1001
0000
0100
1000
,
0101
0000
0010
0010
,
1100
0010
0100
1000
,
0101
0000
0010
0100
,
1001
0000
0010
0001
,
0110
0000
0001
1000
,
1010
0100
1000
0100
,
0020
0000
0000
0000
0000
0000
0000
0130
,
0000
1001
0100
0001
,
0100
0000
1010
0110
,
0101
0010
0001
0100
,
0001
0000
0000
0000
0010
1000
0010
0000
,
0100
0001
0100
0000
0010
0000
1000
0000
,
0010
0000
0101
0110
,
1010
0100
1000
0010
,
1000
0000
0000
0000
0100
0001
0100
0000
,
0010
1000
0010
0000
0010
0000
0001
0000
,
0100
0000
0010
0000
1000
0100
1000
0000
,
0010
0100
0010
0000
1000
0000
0001
0000
,
0100
0000
0010
0000
1000
0000
0100
0010
,
0100
1001
0100
1000
,
0010
0000
0100
0000
0001
0010
0001
0000
,
0100
0010
0100
0000
0001
0000
1000
0000
,
0010
0000
0100
0000
0001
0000
0010
0100
,
0010
1001
2000
0000
,
0000
0000
0000
3001
,
0200
0000
0320
0000
,
0000
0000
0030
0000
0001
0010
0100
1000
,
0010
0200
0000
0300
0001
0000
0010
0000
,
0100
1000
0100
0000
0020
0000
0031
0000
,
0100
0010
2000
3100
,
0010
0001
0010
0000
0200
0000
1300
0000
,
0010
0100
0001
0001
,
0001
1000
0001
0000
0020
0000
0130
0000
,
1000
0001
2000
3100
,
1000
0001
1000
0000
0020
0000
0130
0000
,
0001
0010
2002
3003
,
0010
0010
2000
3001
,
0100
0001
0020
0130
,
1000
0001
1000
0000
0002
0000
0013
0000
,
0100
1000
0020
0130
,
0001
0100
0001
0000
0020
0000
0130
0000
,
1000
0001
2000
3100
,
0010
0001
0010
0000
0200
0000
1300
0000
,
0010
0000
0100
0000
0001
1000
0001
1000
,
0010
0100
0010
0100
0002
0000
0000
0000
,
0000
0000
0003
0000
1000
0001
1000
0001
,
0100
0010
0100
0010
2000
0000
0000
0000
,
0000
3000
0000
0000
,;

//---------------dance-single - LIGHT----------------
#NOTES:
     dance-single:
     LIGHT:
     Easy:
     3:
     0.252,0.279,0.095,0.295,0.000,144.000,10.000,31.000,0.000,0.000:
0000
0000
0000
0000
,
0000
0000
0000
0000
,
0000
0000
0000
0000
,
1000
0000
0000
0001
0000
0000
1000
0000
,
0002
0003
0100
0010
,
2000
3000
0100
0010
,
0002
0003
1000
0100
,
0020
0130
1000
0010
,
0200
0300
0001
1000
,
0020
0030
1000
0001
,
0200
0300
0010
1000
,
0002
0013
0100
1000
,
2002
0000
0000
0000
,
3003
0110
1000
0010
,
0000
0100
0000
0100
,
0001
0001
0001
0010
,
0000
0100
0000
0100
,
0010
0010
0010
0100
,
0000
1000
0000
1000
,
0010
0010
0010
0100
,
0000
0001
0000
0001
,
1010
0100
1010
0100
,
0000
0100
0000
0010
,
1000
1000
1000
0100
,
0000
0010
0000
0010
,
0100
0100
0100
0010
,
0000
0001
0000
0001
,
0100
0100
0100
0010
,
0000
1000
0000
1000
,
0101
0010
0102
0000
,
0000
0000
0003
0000
,
1001
0000
2010
0000
,
0000
3000
0010
0100
,
0010
1001
2000
3100
,
0000
0100
0002
0103
,
0000
0100
2000
3100
,
0010
0100
2000
3010
,
0000
0100
0002
0013
,
0000
0010
2000
3010
,
0000
0010
0002
0013
,
0100
0010
0002
0103
,
0000
0100
2002
0000
,
3003
0000
2000
3100
,
0000
0010
0002
0103
,
0010
0100
0002
0013
,
0000
0100
2000
3010
,
0000
0100
0020
1030
,
0000
0100
0020
0031
,
0100
0001
0020
0130
,
0000
0000
1000
0000
0100
0000
0000
0100
,
0000
0100
0200
0000
,
0000
0000
0300
0000
0010
0000
0000
0010
,
0000
0010
0020
0000
,
0000
0030
0000
0000
;
