#TITLE:Sakura Taisen;
#SUBTITLE:- Geki! Teikoku Kageki-Dan;
#ARTIST:Chisa Yokoyama;
#TITLETRANSLIT:;
#SUBTITLETRANSLIT:;
#ARTISTTRANSLIT:;
#CREDIT:Anime Toshokan;
#BANNER:Sakura Taisen - Geki! Teikoku Kageki-Dan.png;
#BACKGROUND:Sakura Taisen - Geki! Teikoku Kageki-Dan bg.png;
#LYRICSPATH:;
#CDTITLE:dejiko.png;
#MUSIC:Sakura Taisen - Geki! Teikoku Kageki-Dan.mp3;
#OFFSET:1.169;
#SAMPLESTART:35.770;
#SAMPLELENGTH:13.400;
#SELECTABLE:YES;
#BPMS:0.000=142.480,48.000=142.170,72.000=142.570,144.000=142.360,183.000=132.620,184.000=141.960,192.000=71.190,208.000=142.460,244.000=143.180;
#STOPS:;
#BGCHANGES:21.000=Sakura Taisen - Geki! Teikoku Kageki-Dan.avi=1.000=0=0=1,
260.000=Sakura Taisen - Geki! Teikoku Kageki-Dan bg.png=1.000=0=0=1,
99999=-nosongbg-=1.000=0=0=0 // don't automatically add -songbackground-
;
// cache tags:
#FIRSTBEAT:21.000;
#LASTBEAT:263.500;
#SONGFILENAME:Songs/DDR Anime 3rd Mix/Sakura Taisen - Geki! Teikoku Kageki-Dan/Sakura Taisen - Geki! Teikoku Kageki-Dan.sm;
#HASMUSIC:1;
#HASBANNER:1;
#MUSICLENGTH:118.964;
// end cache tags

//---------------dance-single - BASIC----------------
#NOTES:
     dance-single:
     BASIC:
     Easy:
     4:
     0.318,0.388,0.446,0.067,0.000,204.000,53.000,8.000,0.000,0.000:
0000
0000
0000
0000
,
0000
0000
0000
0000
,
0000
0000
0000
0000
,
0000
0000
0000
0000
,
0000
0000
0000
0000
,
0000
0100
0100
0100
,
1001
1000
0100
0001
,
0100
1000
0100
0000
,
0010
0001
0010
0100
,
0001
0100
1000
0100
,
1001
1001
0010
0010
,
1001
1001
0100
0100
,
0110
0010
0010
0100
,
0110
0100
0200
0300
,
0100
0100
0100
0001
,
0100
0001
1000
1001
,
0000
0110
0000
0110
,
0000
0110
0001
0010
,
1001
0100
1000
0010
,
0100
0100
1000
0000
,
0100
1000
0100
0001
,
1001
1001
1100
0101
,
1001
1000
0001
1000
,
1000
0001
1000
0100
,
1100
0010
0101
0010
,
1000
0010
0010
1000
,
1000
0000
1000
0100
,
0010
0000
0100
0000
,
0001
0100
0010
0001
,
0100
0100
0100
0100
,
0001
0100
1001
0110
,
1001
0000
0100
0100
,
0100
0000
1001
1001
,
1001
0000
0010
0010
,
0010
0000
0110
1001
,
0110
0000
0100
0010
,
0100
1000
0010
0110
,
0110
0000
0100
0001
,
0001
0000
0110
1001
,
0110
0000
1000
1000
,
1000
0000
1001
1001
,
1001
0000
0001
0001
,
0001
0000
1001
0110
,
1001
0000
1000
0100
,
0010
0011
0101
0010
,
0100
1000
0100
0010
,
0100
0000
0001
0010
,
0100
0010
0010
0010
,
1001
0010
0100
0010
,
1000
0100
0010
0000
,
0100
1000
0100
0001
,
0010
0010
0200
0300
,
0110
0000
0100
0100
,
0010
0100
0100
0010
,
1001
0000
0000
0000
0000
0000
0000
1001
,
0000
0000
0000
0110
0000
0000
0000
1001
,
0000
0100
0010
0010
,
0100
0100
0000
0010
,
0010
0001
0100
0100
,
0000
0100
1000
1000
,
0010
0000
0010
0000
1000
0000
0000
1001
,
0000
0100
0100
0100
,
2000
0000
3000
0002
0000
0003
2002
0000
,
3003
1000
0001
1000
,
2002
0000
3003
0000
,
0000
0110
0000
0000
0110
0000
0000
0110
;

//---------------dance-single - ANOTHER----------------
#NOTES:
     dance-single:
     ANOTHER:
     Medium:
     6:
     0.431,0.526,0.496,0.134,0.017,284.000,59.000,16.000,0.000,0.000:
0000
0000
0000
0000
,
0000
0000
0000
0000
,
0000
0000
0000
0000
,
0000
0000
0000
0000
,
0000
0000
0000
0000
,
0000
0011
0110
1100
,
1001
1001
1100
1001
,
0101
1001
0011
1001
,
1010
0110
1001
0100
,
0010
0100
1001
0010
,
0110
0110
0110
0000
1000
0001
1000
0000
,
0110
0110
0110
0000
0001
1000
0001
0000
,
0100
1000
0100
0000
0001
0100
0001
0000
,
1000
0100
1000
0001
0200
0000
0300
0000
,
1001
0000
0100
1000
0100
0000
0000
0000
,
1000
0001
0100
0010
1000
0000
0000
0000
,
1000
0100
0010
0000
0001
0100
0010
0000
,
1001
0100
0001
0100
,
1001
0000
0010
1000
0100
0000
0010
0001
,
0200
0000
0000
0000
0300
0000
0000
0001
,
1000
0001
1000
0100
0000
0100
0010
0000
,
1001
0100
1001
0000
,
1001
0000
1000
0100
0002
0000
0003
0000
,
0010
0100
0010
0100
0010
0000
0000
0000
,
1001
0000
0010
0010
0010
0000
0100
0100
,
0100
1000
0001
1001
,
2002
3003
0000
0001
1000
0001
1000
0001
,
2000
0000
0000
3000
0100
0000
0000
0001
,
1000
0001
1000
0001
1000
0001
1000
0000
,
0100
1000
0100
1000
0100
1000
0100
0010
,
0001
0010
0001
0010
0001
0000
0110
0000
,
1000
1001
0101
1001
,
1100
0000
1001
0100
,
1001
0000
0000
1000
0001
1000
0001
1000
,
0100
0010
1100
0010
,
0101
0000
0000
0000
1100
0000
0010
0001
,
0100
0000
1001
0000
0010
1000
0100
0000
,
1001
0000
0000
0010
0001
1000
0001
1000
,
0100
0000
1001
0100
,
1001
0000
0001
0100
0001
0000
1000
0100
,
1000
0000
1001
0100
,
1001
0000
0000
0001
1000
0001
1000
0001
,
0100
0010
1100
0001
,
0101
0000
0000
0000
1001
0000
0010
1000
,
0100
0000
1001
0000
0010
0001
0100
0000
,
1001
0000
0000
0010
0001
1000
0001
1000
,
0100
0000
1000
0001
0100
0000
0000
1100
,
0000
0000
1100
0101
,
0200
0300
0000
0000
1000
0000
0001
0000
0200
0000
0300
0000
0010
0000
0000
0000
,
2000
0000
0000
0000
3000
0000
0000
0000
0000
0000
0000
0000
0100
0000
0000
0000
0000
0000
0010
0000
0000
0000
0000
0000
0002
0000
0000
0000
0000
0000
0000
0000
0000
0000
0000
0000
0000
0000
0000
0003
0000
0000
0000
0000
0000
0000
0000
0000
,
0200
0300
1000
0010
0200
0000
0000
0000
,
0320
0000
0000
0030
0002
0000
0003
0000
,
0110
0000
0001
0000
1000
0001
0010
0000
,
1001
0000
1000
0000
0001
1000
0010
0000
,
1001
0000
0000
0000
0000
1000
1000
0100
,
0000
0001
0001
0100
0000
0100
0100
0100
,
0000
0000
0100
1000
0100
0000
0001
0000
,
0100
0000
1000
0100
0000
0000
0010
1000
,
0010
0000
0100
0001
0000
0000
1000
0001
,
0000
0001
0100
0000
1000
0100
1000
0000
,
0010
0001
0010
0000
0000
1000
0001
0100
,
0000
1000
0100
0000
0000
0000
0000
0000
,
1000
0000
0000
0100
0000
0000
0001
0000
0000
0010
0000
0000
1000
0000
0000
0100
,
0000
0000
1000
0100
0001
0100
1000
0000
,
0110
0000
0000
2002
0000
0000
0000
0000
0000
3003
0000
0000
0000
0000
0000
0000
,
1000
1000
0000
0001
0001
0000
0100
0100
;

//---------------dance-single - MANIAC----------------
#NOTES:
     dance-single:
     MANIAC:
     Hard:
     8:
     0.555,0.637,0.588,0.177,0.143,371.000,70.000,21.000,0.000,0.000:
0000
0000
0000
0000
,
0000
0000
0000
0000
,
0000
0000
0000
0000
,
0000
0000
0000
0000
,
0000
0000
0000
0000
,
0000
1010
0110
0101
,
1001
0000
0100
1000
0010
0000
0100
0001
,
0010
1000
0010
0001
0100
0000
1010
0000
,
0100
0000
0000
0100
0001
0000
0100
0000
0010
0000
1000
0000
0100
0000
0010
0000
,
0001
0000
0100
0010
0100
0000
0010
0000
1000
0000
0000
0000
0100
0000
0000
0000
,
1100
0000
1100
0000
1100
0000
0000
0000
0010
0001
0010
0001
0010
0000
0000
0000
,
0101
0000
0101
0000
0101
0000
0000
0000
0010
1000
0010
1000
0010
0000
0000
0000
,
0100
0001
0010
1000
0010
0001
0100
0000
,
0100
0010
0000
0010
1000
0000
0000
1000
0200
0000
0000
0000
0000
0000
0000
0000
,
0310
0000
0100
1000
0101
0000
0000
0000
,
0100
0000
0010
0001
0000
0000
1000
0000
0100
0000
0000
0000
1001
0000
0000
0000
,
1000
0000
0000
1000
0100
0000
0010
0000
0001
0000
0000
0001
0100
0000
0010
0000
,
1000
0000
0100
0010
0001
0100
0010
1000
,
1001
0000
0100
0001
1000
0100
0010
0001
,
0200
0000
0000
0000
0300
0000
0000
0010
1000
0000
0000
0000
0000
0000
0100
0001
,
0100
0010
1000
0200
0000
0310
0001
0000
,
1001
0000
1001
0000
1100
0010
0101
0000
,
1001
0000
1000
0100
0001
0100
1000
0001
,
1000
0010
0001
0010
1000
0000
0100
0000
,
1100
0000
0000
0100
0010
0000
0010
0000
0101
0000
0000
0100
0010
0000
0010
0000
,
1000
0100
0010
0001
0010
0100
1000
0001
,
2000
0000
0000
0000
0000
3000
0001
0000
1000
0000
0001
0000
0100
0000
1000
0000
,
0020
0000
0000
0000
0130
0000
0000
0100
,
0001
0010
0100
1000
0010
0100
0002
0003
,
0100
1000
0100
0010
0100
1000
0100
0010
,
0001
0010
0100
0010
1001
0000
0110
0000
,
1001
0100
0010
0001
0100
1000
0100
0001
,
0010
0000
1100
0011
,
0101
0000
0000
0010
1000
0100
0010
0001
,
0100
0000
0100
0000
0002
0003
1000
0001
,
0020
0000
0000
0000
0030
0000
0000
0000
0100
1000
0100
0000
0010
0000
0001
0000
,
0100
0010
1000
0100
0010
0001
0110
0101
,
2200
3300
0000
1000
0100
0010
0001
0100
,
0001
0000
1001
0110
,
1001
0100
0010
1000
0100
0001
0100
1000
,
0010
0100
0001
0010
0101
0000
0110
0000
,
1010
0100
0001
0100
1000
0010
0100
0001
,
0010
0000
0100
0000
2000
3000
0001
1000
,
0020
0000
0000
0000
0030
0000
0000
0000
1000
0100
0010
0000
0001
0000
0100
0000
,
0010
1000
0100
0010
0001
0100
1010
0110
,
0202
0303
0000
0001
0100
0001
1000
0100
,
1000
0000
0000
0010
0000
0000
0001
0000
0100
0000
0010
0000
1000
0000
1100
0000
,
0000
1000
0100
0010
0011
0000
1100
0000
,
0200
0000
0300
0000
1000
0000
0001
0000
0100
0001
0000
0001
0010
0000
0100
0000
,
2000
0000
0000
0000
3000
0000
0000
0000
0000
0001
0000
0000
0100
0000
0000
0000
0000
0000
0010
0000
0000
0100
0000
0000
0020
0000
0000
0000
0000
0000
0000
0000
0000
0000
0000
0000
0000
0000
0000
0000
0000
0000
0030
0000
0000
0000
0000
0000
,
0200
0000
0300
0000
1000
0000
0010
0000
0100
0001
0000
0100
0001
0000
1000
0100
,
0010
0000
0001
0100
0010
0000
1000
0000
0200
0000
0000
0000
0000
0300
0000
0000
,
0110
0000
1000
0100
0001
0100
1000
0000
,
1001
0000
1000
0100
0010
0001
0101
0000
,
1001
0000
0000
0000
0000
1000
0100
1100
,
0000
0001
0100
0101
0000
1000
0100
1100
,
0000
0000
1000
0001
0010
0000
0011
0000
,
1100
0000
1000
0100
0000
0001
0100
0000
,
0110
0000
0010
0100
0000
0000
0010
1001
,
0000
1001
0100
0000
1000
0100
0010
0000
,
0001
0100
0010
1000
0100
0010
0001
0110
,
0000
1100
0110
0000
0011
0000
0000
0000
,
1100
0000
0000
1010
0000
0000
0011
0000
0000
0101
0000
0000
0110
0000
0000
1001
,
0000
0000
0000
0000
1000
0100
0000
0000
0100
0010
0000
0000
0010
0001
0000
0000
,
0002
0000
0000
0200
0000
0000
0000
0000
0000
0000
0303
0000
0000
0000
0000
0000
,
0110
1001
0000
1001
0110
0000
0110
1001
;

//---------------dance-single - BEGINNER----------------
#NOTES:
     dance-single:
     BEGINNER:
     Beginner:
     2:
     0.187,0.246,0.286,0.042,0.000,117.000,34.000,5.000,0.000,0.000:
0000
0000
0000
0000
,
0000
0000
0000
0000
,
0000
0000
0000
0000
,
0000
0000
0000
0000
,
0000
0000
0000
0000
,
0000
0100
0100
0000
,
1001
0000
0100
0000
,
0100
0000
0100
0000
,
0010
0000
0010
0000
,
0001
0000
1000
0000
,
1001
0000
0010
0000
,
1001
0000
0100
0000
,
0110
0000
0010
0000
,
0110
0000
0200
0300
,
0100
0000
0100
0000
,
0100
0000
1000
0000
,
0000
0110
0000
0110
,
0000
0110
0001
0000
,
1001
0000
1000
0000
,
0100
0000
1000
0000
,
0100
0000
0100
0000
,
1001
0000
1100
0000
,
1001
0000
0001
0000
,
1000
0000
1000
0000
,
1100
0000
0101
0000
,
1000
0000
0010
0000
,
1000
0000
1000
0000
,
0010
0000
0100
0000
,
0001
0000
0010
0000
,
0100
0000
0100
0000
,
0001
0000
1001
0000
,
1001
0000
0100
0000
,
0100
0000
1001
0000
,
1001
0000
0010
0000
,
0010
0000
0110
0000
,
0110
0000
0100
0000
,
0100
0000
0010
0000
,
0110
0000
0100
0000
,
0001
0000
0110
0000
,
0110
0000
1000
0000
,
1000
0000
1001
0000
,
1001
0000
0001
0000
,
0001
0000
1001
0000
,
1001
0000
1000
0000
,
0010
0000
0101
0000
,
0100
0000
0100
0000
,
0100
0000
0001
0000
,
0100
0000
0010
0000
,
1001
0000
0100
0000
,
1000
0000
0010
0000
,
0100
0000
0100
0000
,
0010
0000
0200
0300
,
0110
0000
0100
0000
,
0010
0000
0100
0000
,
1001
0000
0000
0000
,
0110
0000
0000
0000
,
0000
0100
0010
0000
,
0100
0000
0000
0010
,
0010
0000
0100
0000
,
0000
0100
1000
0000
,
0010
0000
1000
0000
,
0000
0100
0100
0000
,
2000
3000
0000
0000
,
0000
1000
0001
0000
,
2002
0000
3003
0000
,
0110
0000
0000
0000
;
