#TITLE:Dirty Pair Flash;
#SUBTITLE:- Kimi Ga Daisuke;
#ARTIST:Mariko Kouda;
#TITLETRANSLIT:;
#SUBTITLETRANSLIT:;
#ARTISTTRANSLIT:;
#CREDIT:Anime Toshokan;
#BANNER:Dirty Pair Flash - Kimi Ga Daisuke.png;
#BACKGROUND:Dirty Pair Flash - Kimi Ga Daisuke bg.png;
#LYRICSPATH:;
#CDTITLE:dejiko.png;
#MUSIC:Dirty Pair Flash - Kimi Ga Daisuke.mp3;
#OFFSET:-0.645;
#SAMPLESTART:49.980;
#SAMPLELENGTH:14.160;
#SELECTABLE:YES;
#BPMS:0.000=135.990;
#STOPS:;
#BGCHANGES:;
// cache tags:
#FIRSTBEAT:8.000;
#LASTBEAT:270.000;
#SONGFILENAME:Songs/Anime Mix 2/Dirty Pair Flash - Kimi Ga Daisuke/Dirty Pair Flash - Kimi ga Daisuke.sm;
#HASMUSIC:1;
#HASBANNER:1;
#MUSICLENGTH:122.914;
// end cache tags

//---------------dance-single - BASIC----------------
#NOTES:
     dance-single:
     BASIC:
     Easy:
     5:
     0.432,0.549,0.504,0.350,0.000,267.000,62.000,43.000,0.000,0.000:
0000
0000
0000
0000
,
0000
0000
0000
0000
,
0110
1001
0011
1100
,
0011
1100
0011
1001
,
1001
1001
0010
0001
,
0010
0001
0100
0000
0010
1000
0100
0000
,
0010
0001
1000
0100
,
0010
0001
1000
0100
,
0010
1000
0100
0001
,
0010
0001
0100
0000
0010
1000
0100
0000
,
1001
1001
0010
0001
,
0020
1030
0200
0301
,
0020
0031
0200
1300
,
0020
0031
0200
1300
,
0010
0000
0100
0000
,
0010
0000
0100
0000
,
0010
0010
0100
0100
,
0010
0001
1000
0001
,
1000
0000
0100
0100
0100
0000
1001
0000
,
0010
0001
0100
0000
0010
0010
0010
0000
,
2000
3001
0002
1003
,
2000
3001
0002
1003
,
0010
1000
0100
0001
,
0010
0001
0010
1000
,
0010
1001
0010
1001
,
0010
1001
0010
1001
,
0010
1001
0010
1001
,
1001
1001
1001
0010
,
0010
0000
1000
0000
0100
0000
0010
2000
,
3001
0010
0100
0010
,
0010
0001
0100
0020
,
0000
0000
0000
0000
0000
0000
0000
0030
0000
0000
0000
0000
0000
0000
0000
0000
0000
0000
0000
0000
0000
0000
0000
0000
0001
0000
0000
0000
0001
0000
0000
0000
,
1000
1000
0001
0001
1000
1000
0001
0001
,
0001
1000
0001
1000
,
0002
1003
2000
3001
,
0002
1003
2000
3001
,
0002
1003
2000
3001
,
0010
1000
0100
0000
0010
0000
1000
0000
,
2002
3003
0010
1001
,
1010
1100
0101
0011
,
1010
1100
0101
0011
,
1010
1100
0101
0011
,
2000
0000
0000
3001
,
0001
1000
0001
1000
,
2000
3001
0002
1003
,
2000
3001
0002
1003
,
2000
0000
3001
0000
0002
0000
1003
2000
,
0000
3001
0010
0010
,
0002
1003
2000
3001
,
0020
0032
0203
1300
,
0010
1000
0001
0100
,
0010
0100
1100
0011
,
1010
1100
0101
0011
,
1010
1100
0011
0101
,
1000
0100
0010
0001
,
1000
0100
0010
0001
,
0002
1003
2000
3001
,
0010
1000
0100
0002
,
1003
1010
0101
1001
,
2002
3003
0020
0031
,
1001
1001
0100
0100
,
0010
0001
0100
1000
,
0010
1000
0100
0001
,
0010
0001
0100
1000
,
2002
3003
2002
3003
0000
0000
1001
0000
,
1010
1100
0101
0011
,
1001
1001
0100
0010
,
0010
0010
0010
0010
1001
0000
0000
0000
;

//---------------dance-single - ANOTHER----------------
#NOTES:
     dance-single:
     ANOTHER:
     Medium:
     6:
     0.471,0.494,0.431,0.439,0.016,298.000,53.000,54.000,0.000,0.000:
0000
0000
0000
0000
,
0000
0000
0000
0000
,
1001
1001
0000
0000
,
0010
0100
0100
1000
,
1010
0000
1010
0000
0000
0100
1001
0000
,
0010
0010
0100
0000
1001
0000
1001
0000
,
0110
0000
0110
0000
0000
0100
0010
0000
,
0010
0001
0100
0100
1001
0000
0110
0000
,
1001
1001
0010
0001
,
0010
0000
0001
0000
0100
0000
0010
0001
,
1001
0010
1000
0010
,
0001
0010
0001
1000
,
1001
1001
0010
0100
,
0010
0001
0100
0000
0010
0001
0100
0000
,
0000
0000
0000
0000
0001
0000
0000
0000
0010
0000
0000
0000
0000
0000
0000
0000
0100
0000
0000
0000
0001
0000
0000
0000
0202
0000
0000
0000
0000
0000
0000
0303
,
0020
0030
0010
0010
0010
0000
1001
0000
,
1001
0000
1001
0000
0000
0010
1000
0000
,
0000
0000
0000
0000
0000
0000
0000
0010
1001
0000
0000
0000
1001
0000
0000
0000
,
0110
0000
0110
0000
0000
0010
1001
0000
,
0000
0000
0000
0000
0010
0001
0100
0000
,
0010
0001
0100
0000
0010
0001
0100
0000
,
0010
0001
0100
0000
0010
0001
0100
0000
,
0010
0001
0100
0000
0010
0001
0100
0000
,
0010
1000
0100
0000
0010
1000
0100
0000
,
0010
1000
0100
0000
0010
1000
0100
0000
,
0020
0030
2000
3000
0200
0300
0002
0003
,
0001
0001
0001
0000
1000
1000
1000
0000
,
0010
0000
0001
0000
0100
0000
0000
0000
0001
0000
0100
0000
0010
0010
0001
0000
,
2002
3003
0100
0000
0010
0000
0010
2002
,
0000
3003
0000
0000
0000
0000
0100
0100
,
1001
0000
1001
0000
0100
0000
0010
0010
,
0010
0100
1000
0000
0010
0100
1000
0000
,
0020
0030
0002
0003
0200
0300
2000
3000
,
0020
0000
0000
0000
0000
0000
0000
0030
0002
0000
0000
0000
0000
0000
0000
0003
0200
0000
0000
0000
0000
0000
0000
0300
2000
0000
0000
0000
0000
0000
0000
3000
,
2000
0000
0000
0000
0000
0000
0000
0000
0000
0000
0000
0000
0000
0000
0000
3000
0002
0000
0000
0000
0000
0000
0000
0000
0000
0000
0000
0000
0000
0000
0000
0003
,
0020
0000
0000
0000
0000
0000
0000
0030
2000
0000
0000
0000
0000
0000
0000
3000
0200
0000
0000
0000
0000
0000
0000
0300
0001
0000
0000
0000
0001
0000
0000
0000
,
1001
0000
0010
0000
0001
0000
1000
2000
,
0000
0000
0000
0000
0000
0000
0000
3000
0000
0000
0000
0000
0000
0000
0000
0000
0000
0000
0000
0000
0000
0000
0000
0000
0010
0000
0000
0000
0010
0000
0000
0000
,
0010
0000
0010
0000
0010
0000
0010
0200
,
0000
0300
0000
0000
0000
0000
0010
0001
,
0010
0001
0100
1000
,
0020
0000
0000
0000
0000
0000
0000
0030
0002
0000
0000
0000
0000
0000
0000
0003
0200
0000
0000
0000
0000
0000
0000
0300
2000
0000
0000
0000
0000
0000
0000
3000
,
2000
0000
0000
0000
0000
0000
0000
3000
0000
0000
0000
0000
0000
0000
0000
0000
0000
0000
0000
0000
0000
0000
0000
0000
0010
0000
0000
0000
0010
0000
0000
0000
,
0010
0000
0001
0000
0100
0000
1000
1000
,
1001
0000
0010
0000
1001
0000
1001
2002
,
0000
3003
0000
0000
0000
0000
0010
0001
,
2002
3003
0010
0000
2002
3003
0010
0020
,
0000
0030
0000
0000
0000
0000
0100
0100
,
0010
0100
0010
0100
,
0010
1000
0001
0100
,
2002
0000
0000
0000
0000
0000
0000
3003
0000
0000
0000
0000
0000
0000
0000
0000
0000
0000
0000
0000
0000
0000
0000
0000
0010
0000
0000
0000
0100
0000
0000
0000
,
0010
0000
1000
0000
0100
0100
0001
0001
,
2000
0000
0000
0000
0000
0000
0000
3000
0002
0000
0000
0000
0000
0000
0000
0003
2000
0000
0000
0000
0000
0000
0000
3000
0001
0000
0000
0000
0001
0000
0000
0000
,
0010
1000
0100
0000
0010
0001
0100
0000
,
0010
0001
0100
0000
0010
0001
0100
0000
,
0010
1000
0100
0000
0010
1000
0100
0000
,
0010
0001
0100
0000
0010
0001
0100
0000
,
0010
1000
0100
0000
0010
1000
0100
0100
,
0010
0010
0010
0000
0100
0100
0100
0000
,
0010
0000
0010
0000
0010
0000
0010
0000
0010
0000
0010
0000
0010
0010
0010
0000
,
1001
2002
0000
3003
,
0000
0000
0010
0010
2002
3003
1001
0000
,
1001
0000
0000
0000
1001
0000
0000
0000
0000
0000
0000
0010
1001
0000
0000
0000
,
0020
0000
0000
0000
0000
0000
0000
0030
0002
0000
0000
0000
0000
0000
0000
0003
0200
0000
0000
0000
0000
0000
0000
0300
2000
0000
0000
0000
0000
0000
0000
3000
,
1001
0000
0000
0000
0000
0000
0000
0000
1001
0000
0000
0000
0000
0000
0000
0000
0000
0000
0000
0000
0010
0000
0000
0000
2002
0000
0000
0000
0000
0000
0000
3003
,
0100
1001
0110
1001
,
1001
0000
0110
0000
0000
0010
0000
0200
,
0000
0000
0000
0000
0000
0000
0000
0300
0010
0000
0000
0000
0010
0000
0000
0000
1001
0000
0000
0000
0000
0000
0000
0000
0000
0000
0000
0000
0000
0000
0000
0000
;

//---------------dance-single - MANIAC----------------
#NOTES:
     dance-single:
     MANIAC:
     Hard:
     8:
     0.521,0.632,0.212,0.203,0.004,397.000,26.000,25.000,0.000,0.000:
0000
0000
0000
0000
,
0000
0000
0000
0000
,
0000
0000
0000
0000
,
0000
0000
0000
0000
,
1001
0000
1001
0000
0010
0001
0100
0000
,
0010
0001
0100
0010
0001
0100
0100
0100
,
1001
0000
1001
0000
0010
1000
0100
0000
,
0010
1000
0100
0010
1000
0100
0010
0010
,
0010
0001
0100
0000
0010
0010
0010
0000
,
0010
1000
0100
0010
0010
1000
0100
0100
,
0010
0001
0100
0000
0010
0001
0100
0000
,
0010
0100
1000
0100
1000
0100
0100
0100
,
0010
0000
0000
0000
0001
0000
0000
0000
0100
0000
0000
0000
0000
0000
0000
0000
0010
0000
0000
0000
0000
0000
0000
0000
1000
0000
0000
0000
0200
0000
0000
0300
,
0010
0001
0100
0010
0001
0100
1000
0100
,
2002
3003
1001
0000
0010
1001
1001
0000
,
0010
0001
0100
0010
0010
0010
1100
1001
,
1001
0000
1001
0000
0010
0100
0100
0010
,
0010
0001
0100
0010
0001
0100
0010
1000
,
0100
0000
0000
0000
0010
0000
0000
0000
1000
0000
0000
0100
0000
0000
0000
0000
0010
0000
0000
0000
0001
0000
0000
0000
0100
0000
0000
0000
0100
0000
0000
0000
,
0010
0000
0010
0000
0100
0100
0100
0000
,
0020
0000
0000
0000
0000
0000
0000
0000
0000
0000
0000
0000
0000
0000
0000
0000
0001
0000
0000
0000
0001
0000
0000
0000
0001
0000
0000
0000
0000
0000
0000
0030
,
0200
0000
0000
0000
0000
0000
0000
0000
0000
0000
0000
0000
0000
0000
0000
0000
0000
0000
0000
0000
0000
0000
0000
0000
1000
0000
0000
0000
1000
0000
0000
0300
,
1001
0000
0010
0001
0100
0000
0010
1000
,
0200
0010
0010
0010
,
0302
0100
1000
0100
,
0100
1000
0100
0103
,
0002
1003
2000
3001
,
0002
1003
2000
3001
,
0010
0001
0100
0000
0010
0001
0100
0000
,
0010
1000
0010
1000
0100
0100
0010
1001
,
0010
0001
0100
0000
0010
0001
0100
0000
,
0010
1100
0010
1000
0010
1000
0010
1001
,
0020
0032
0203
0301
,
0010
0001
0100
0010
0001
0100
0100
1000
,
0002
1003
2000
3001
,
0010
1000
0100
0010
1000
0100
0100
0100
,
0010
0100
2000
3001
,
0010
0100
0100
0001
0010
0100
0100
0001
,
0010
1000
0001
0000
0010
1000
0100
0000
,
0010
1000
0100
0100
0010
1000
0100
0100
,
0002
1000
1003
0000
2000
0001
3001
0000
,
0010
0001
0100
0100
0100
0010
0001
0100
,
2000
0000
0001
0000
0000
0000
3001
0001
,
0001
1000
0100
0000
0010
1000
0100
0000
,
0002
1003
2000
3002
,
0000
0000
0000
0000
0000
0000
0000
0003
0010
0000
0000
0000
1000
0000
0000
0000
0100
0000
0000
0000
0010
0000
0000
0000
1000
0000
0000
0000
0100
0000
0000
0000
,
0010
1000
0100
0000
0010
1000
0100
0000
,
0010
1000
0100
0010
1000
0100
0100
0100
,
0010
0100
1000
0010
0001
0001
0100
0100
,
0001
0001
0001
0000
1000
1000
1000
0000
,
2002
0000
0000
0000
3003
0000
0010
0010
,
0010
0000
0010
0000
0001
0000
0001
0001
,
0010
0001
0100
0000
0010
0001
1000
0000
,
0010
0001
0100
0000
0010
0001
1000
0000
,
0010
0001
0010
0010
0001
0010
0001
0010
,
0010
1000
0100
0010
1000
0100
0100
0100
,
0010
0001
0100
0010
0001
0100
0100
0100
,
0010
1000
0001
0010
1000
0100
0010
1000
,
0010
1000
0100
1000
0100
0010
1000
0100
,
0010
0010
0010
0010
,
1001
0000
1001
0000
0010
0001
0100
0000
,
0010
0001
0100
0010
1000
0100
0010
0001
,
1001
0000
1001
0010
0001
0100
0010
0001
,
0010
0000
1000
0000
0100
0100
0010
0010
,
1001
0000
1001
0000
0001
0001
1000
1000
,
0010
0010
0100
0100
0001
0001
1000
1000
,
1001
0000
1001
0010
0001
0100
0010
0001
,
1000
0100
0010
0010
1001
0000
0000
0000
;

//---------------dance-single - BEGINNER----------------
#NOTES:
     dance-single:
     BEGINNER:
     Beginner:
     2:
     0.184,0.275,0.228,0.000,0.000,130.000,28.000,0.000,0.000,0.000:
0000
0000
0000
0000
,
0000
0000
0000
0000
,
0110
0000
1001
0000
,
1001
0000
0110
0000
,
1001
0000
0010
0000
,
0010
0000
0010
0000
,
0010
0000
1000
0000
,
0010
0000
1000
0000
,
0010
0000
0100
0000
,
0010
0000
0010
0000
,
1001
0000
0010
0000
,
0010
0000
0100
0000
,
0010
0000
0100
0000
,
0010
0000
0100
0000
,
0010
0000
0100
0000
,
0010
0000
0100
0000
,
0010
0000
0100
0000
,
0010
0000
1000
0000
,
1000
0000
0100
0000
,
0010
0000
0010
0000
,
1000
0000
0001
0000
,
1000
0000
0001
0000
,
0010
0000
0100
0000
,
0010
0000
0010
0000
,
0010
0000
0010
0000
,
0010
0000
0010
0000
,
0010
0000
0010
0000
,
1001
0000
1001
0000
,
0010
0000
0100
0000
,
0001
0000
0100
0000
,
0010
0000
0100
0000
,
0000
0000
0000
0001
,
1000
0000
1000
0000
,
0001
0000
0001
0000
,
0001
0000
1000
0000
,
0001
0000
1000
0000
,
0001
0000
1000
0000
,
0010
0000
0010
0000
,
1001
0000
0010
0000
,
0110
0000
1001
0000
,
0110
0000
1001
0000
,
0110
0000
1001
0000
,
1000
0000
0000
0001
,
0001
0000
0001
0000
,
1000
0000
0001
0000
,
1000
0000
0001
0000
,
1000
0000
0001
0000
,
1000
0000
0010
0000
,
0001
0000
1000
0000
,
0010
0000
0100
0000
,
0010
0000
0001
0000
,
0010
0000
1001
0000
,
0110
0000
1001
0000
,
0110
0000
1001
0000
,
1000
0000
0010
0000
,
1000
0000
0010
0000
,
0001
0000
1000
0000
,
0010
0000
0100
0000
,
1000
0000
0110
0000
,
1001
0000
0010
0000
,
1001
0000
0100
0000
,
0010
0000
0100
0000
,
0010
0000
0100
0000
,
0010
0000
0100
0000
,
1001
0000
0000
0000
,
0110
0000
1001
0000
,
1001
0000
0100
0000
,
0010
0000
1001
0000
;
