#TITLE:Neon Genesis Evangelion;
#SUBTITLE:- Cruel Angel's Thesis;
#ARTIST:Yoko Takahasi;
#TITLETRANSLIT:;
#SUBTITLETRANSLIT:;
#ARTISTTRANSLIT:;
#CREDIT:Anime Toshokan;
#BANNER:Neon Genesis Evangelion - Cruel Angel's Thesis.png;
#BACKGROUND:Neon Genesis Evangelion - Cruel Angel's Thesis bg.png;
#LYRICSPATH:;
#CDTITLE:dejiko.png;
#MUSIC:Neon Genesis Evangelion - Cruel Angel's Thesis.mp3;
#OFFSET:-2.678;
#SAMPLESTART:68.560;
#SAMPLELENGTH:14.960;
#SELECTABLE:YES;
#BPMS:0.000=80.160,16.000=128.830,64.000=129.060,104.000=128.740;
#STOPS:;
#BGCHANGES:0.000=Neon Genesis Evangelion - Cruel Angel's Thesis.avi=1.000=0=0=1,
174.750=Neon Genesis Evangelion - Cruel Angel's Thesis bg.png=1.000=0=0=1,
99999=-nosongbg-=1.000=0=0=0 // don't automatically add -songbackground-
;
// cache tags:
#FIRSTBEAT:8.000;
#LASTBEAT:179.000;
#SONGFILENAME:Songs/DDR Anime 3rd Mix/Neon Genesis Evangelion - Cruel Angel's Thesis/Neon Genesis Evangelion - Cruel Angel's Thesis.sm;
#HASMUSIC:1;
#HASBANNER:1;
#MUSICLENGTH:92.003;
// end cache tags

//---------------dance-single - BASIC----------------
#NOTES:
     dance-single:
     BASIC:
     Easy:
     4:
     0.312,0.438,0.293,0.283,0.000,148.000,27.000,26.000,0.000,0.000:
0000
0000
0000
0000
,
0000
0000
0000
0000
,
0000
0000
0000
0000
,
0000
0000
0000
0000
,
0000
0000
0000
0000
,
1000
0001
1000
0100
,
0001
1000
0001
0100
,
1001
0100
0010
0100
,
1010
0001
0100
0001
,
1000
0010
0100
0001
,
1000
0100
0010
0001
,
0100
0001
1000
0010
,
0200
0000
0320
0000
,
1030
0100
1000
0000
,
0001
0010
0001
0000
,
2000
0000
3002
0000
,
0203
0000
0320
0000
,
1030
0001
0100
0010
,
1000
0100
0001
0100
,
1000
0010
0001
0010
,
1000
0010
0100
0001
,
2000
0000
3200
0000
,
0320
0000
0032
0000
,
0013
0010
0100
0100
,
1001
0100
0010
0100
,
2000
0001
3020
0100
,
0032
1000
0203
0010
,
0302
1000
0203
0010
,
2300
3020
0230
0301
,
0120
0130
1002
1003
,
0210
0310
2001
3001
,
0120
0130
2001
3001
,
0210
0310
1100
0011
,
1001
0100
0001
0010
,
0101
0010
1000
0100
,
1010
0001
0010
1000
,
0011
1000
0100
0001
,
1100
0001
0010
0100
,
1001
1000
0100
0010
,
0101
1000
0001
0100
,
1010
0001
1000
0010
,
1001
0010
0100
0010
,
1100
0010
0001
0010
,
0101
0010
1000
0010
,
1001
0110
1001
0110
;

//---------------dance-single - ANOTHER----------------
#NOTES:
     dance-single:
     ANOTHER:
     Medium:
     6:
     0.377,0.389,0.272,0.022,0.217,216.000,25.000,2.000,0.000,0.000:
0000
0000
0000
0000
,
0000
0000
0000
0000
,
1000
0000
0001
0100
,
0010
0000
0000
0000
1000
0000
0000
0000
0020
0000
0000
0200
0000
0000
0000
0000
,
0000
0000
0000
0330
,
1001
0000
0000
0000
0110
0000
0000
0000
1000
0000
0000
0001
0000
0000
0100
0000
,
0010
1000
0001
0010
0100
0000
0010
0000
,
0101
0000
0000
0000
1010
0000
0000
0000
0100
0000
0000
0010
0000
0000
1000
0000
,
0010
0000
0100
0000
0010
0000
0100
0000
0001
0000
0000
0100
0000
0000
0000
0000
,
1001
0000
0010
0000
0100
0000
0000
1000
,
0100
0000
0000
0010
0000
0000
0001
0000
1000
0000
0000
0000
0000
0000
0100
0000
,
0010
0000
0000
0001
0000
0000
0100
0000
0010
0000
0000
1000
0000
0000
0010
0000
,
0100
0000
0000
0001
0000
0000
0010
0000
0100
0000
0000
0000
0000
0000
1000
0000
,
0001
0000
0000
0100
0000
0000
1000
0000
0001
0000
0000
0000
0000
0000
0001
0000
,
1000
0000
0000
0010
0000
0000
0001
0000
1000
0000
0000
0000
0000
0000
1000
0000
,
0100
0000
0000
1000
0000
0000
0001
0000
0010
0000
0000
0000
0001
0000
0000
0000
,
1000
0000
0000
0100
1000
0000
0000
0000
,
1100
0000
0000
0000
0010
0000
0000
0001
0000
0000
0000
0000
0000
0000
1000
0000
,
0010
0000
0000
0100
0000
0000
0001
0000
0010
0000
0000
0000
0000
0000
1000
0000
,
0100
0000
0000
0001
0000
0000
1000
0000
0100
0000
0000
0001
0000
0000
1000
0000
,
0010
0000
0000
0001
0000
0000
1000
0000
0010
0000
0000
0000
0000
0000
0010
0000
,
0001
0000
0000
0100
0000
0000
0010
0000
0100
0000
0000
0000
0000
0000
0010
0000
,
1000
0000
0000
0100
0000
0000
0010
0000
0100
0000
0000
0000
0000
0000
1000
0000
,
0010
0000
0000
0100
0000
0000
0001
0000
0010
0000
0000
0100
0000
0000
1000
0000
,
0011
0010
1100
0100
,
1000
0000
0000
1000
0000
0000
1000
0000
0100
0000
0000
0100
0000
0000
0100
0000
,
0010
0000
0000
0010
0000
0000
0010
0000
0001
0000
0000
0001
0000
0000
0001
0000
,
1000
0000
0000
1000
0000
0000
1000
0000
0010
0000
0000
0010
0000
0000
0010
0000
,
1100
0100
0101
0100
,
0010
0000
0000
0010
0000
0000
0010
0000
0100
0000
0000
0100
0000
0000
0100
0000
,
0001
0000
0000
0001
0000
0000
0001
0000
0010
0000
0000
0010
0000
0000
0010
0000
,
1000
0000
0000
1000
0000
0000
1000
0000
0100
0000
0000
0100
0000
0000
0100
0000
,
1001
0000
0000
0000
0000
0000
0000
0000
1000
0000
0000
0100
0000
0000
0010
0000
,
0001
0000
0000
0000
0100
0000
0000
0000
0001
0000
0000
0100
0000
0000
1000
0000
,
0010
0000
1000
0010
0100
0000
1000
0000
,
0110
0000
0000
0000
0010
0000
0000
0000
0011
0000
0000
0010
0000
0000
1000
0000
,
0100
0010
0001
0010
1000
0000
0010
0000
,
1100
0000
0000
0000
0001
0000
0000
0000
1010
0000
0000
0100
0000
0000
1000
0000
,
0010
0100
0001
0010
0100
0000
1000
0000
,
1100
0000
0000
0000
0010
0000
0000
0000
0101
0000
0000
1000
0000
0000
0100
0000
,
0001
0010
0001
0100
0001
0000
0010
0000
,
1001
0000
0000
0000
0100
0000
0000
0000
1010
0000
0000
0100
0000
0000
0001
0000
,
0010
1000
0010
0001
0010
0000
0010
0000
,
1001
0000
0000
0000
0110
0000
0000
0000
1001
0000
0000
0110
0000
0000
0001
0000
,
1000
0000
0010
0000
0100
0000
1000
0000
0101
0000
0000
1010
0000
0000
0000
0000
;

//---------------dance-single - MANIAC----------------
#NOTES:
     dance-single:
     MANIAC:
     Hard:
     7:
     0.469,0.437,0.717,0.098,0.255,227.000,66.000,9.000,0.000,0.000:
0000
0000
0000
0000
,
0000
0000
0000
0000
,
0200
0000
0000
0000
0310
0000
1000
0010
,
0100
0000
0001
0000
0100
0000
0010
0000
2000
0000
0000
0002
0000
0000
0000
0000
,
0000
0000
0000
3003
,
1001
0000
0000
0000
0110
0000
0000
0000
1100
0000
0000
0011
0000
0000
0100
0000
,
1000
0000
0001
0000
0100
0000
0010
0000
1000
0010
0000
0000
0100
0000
0000
0000
,
0101
0000
0000
0000
1010
0000
0000
0000
0110
0000
0000
1001
0000
0000
0100
0000
,
0001
0000
0100
0000
1000
0000
0100
0000
0001
0000
0000
0110
0000
0000
0000
0000
,
1100
0000
0020
0000
0200
0000
0330
1000
,
0100
0000
0000
0010
0000
0000
2000
0000
0002
0000
0000
0000
3003
0000
0010
0000
,
0100
0000
0000
1001
0000
0000
0001
0000
0100
0000
0000
1001
0000
0000
1000
0000
,
0100
0000
0000
1001
0000
0000
0010
0000
0100
0000
0000
0000
0000
0000
0010
0001
,
1000
0000
0000
0100
0000
0000
0010
0000
1001
0000
0000
0000
0000
0000
1000
0010
,
0100
0000
0000
0001
0000
0000
1000
0000
0110
0000
0000
0000
0000
0000
1000
0000
,
0110
0000
0000
1000
0000
0000
0001
0000
0110
0000
0000
0000
0002
0000
0000
0000
,
2003
0000
0000
0100
3001
0000
0000
0000
,
1100
0000
0000
0000
0010
0000
0000
0001
0000
0000
0000
0000
0000
0000
1000
0000
,
0010
0000
0000
1100
0000
0000
0001
0000
0100
0000
0000
0000
0000
0000
1000
0000
,
0110
0000
0000
0001
0000
0000
1000
0000
0110
0000
0000
1000
0000
0000
0001
0000
,
0110
0000
0000
0001
0000
0000
1000
0000
0110
0000
0000
0000
0000
0000
1000
0000
,
0100
0000
0000
0001
0000
0000
1000
0000
0101
0000
0000
0000
0000
0000
0100
0001
,
0100
0000
0000
1000
0000
0000
0001
0000
1010
0000
0000
0000
0000
0000
1000
0000
,
0010
0000
0000
0100
0000
0000
0001
0000
0010
0000
0000
0100
0000
0000
1000
0000
,
0011
1010
1100
0101
,
1000
0000
0000
0100
0000
0000
0001
0000
0001
0000
0000
0100
0000
0000
1000
0000
,
0001
0000
0000
0010
0000
0000
1000
0000
1000
0000
0000
0010
0000
0000
0001
0000
,
0010
0000
0000
0001
0000
0000
0100
0000
0100
0000
0000
0001
0000
0000
0010
0000
,
1100
0110
0011
1001
,
1010
0000
0000
0100
0000
0000
0001
0000
1100
0000
0000
0001
0000
0000
0010
0000
,
0101
0000
0000
1000
0000
0000
0010
0000
1001
0000
0000
0010
0000
0000
0100
0000
,
0011
0000
0000
0100
0000
0000
1000
0000
0110
0000
0000
1000
0000
0000
0001
0000
,
0110
0000
0000
0000
0000
0000
0000
0000
1100
0000
0000
0110
0000
0000
0011
0000
,
1001
0000
0000
0000
0100
0000
0000
0000
0010
0000
0000
0100
0000
0000
1000
0000
,
0110
0000
0000
0000
1000
0000
0100
0000
0010
0001
0000
0000
1000
0000
0000
0000
,
0110
0000
1100
0000
0101
0000
0100
1000
,
0100
0000
0010
0000
0001
0000
0010
0000
1000
0001
0000
0000
0010
0000
0000
0000
,
1100
0000
0000
0000
0011
0000
0000
0000
1010
0000
0000
0101
0000
0000
1000
0000
,
0010
0000
0100
0000
0001
0000
0010
0000
0100
1000
0000
0000
0001
0000
0000
0000
,
1100
0000
0000
0000
0101
0000
0000
0000
0011
0000
0000
1010
0000
0000
0100
0000
,
0001
0010
1000
0100
0001
0000
0010
0000
,
1001
0000
0000
0000
0101
0000
0000
0000
1100
0000
0000
0110
0000
0000
0001
0000
,
0010
0000
1000
0000
0010
0000
0001
0000
0010
1000
0000
0000
0100
0000
0000
0000
,
1001
0000
0000
0000
0110
0000
0000
0000
1001
0000
0000
0110
0000
0000
1000
0000
,
0001
0000
0100
0000
0010
0000
1000
0000
0011
0000
0000
1100
0000
0000
0000
0000
;

//---------------dance-single - BEGINNER----------------
#NOTES:
     dance-single:
     BEGINNER:
     Beginner:
     2:
     0.154,0.193,0.185,0.000,0.000,82.000,17.000,0.000,0.000,0.000:
0000
0000
0000
0000
,
0000
0000
0000
0000
,
0000
0000
0000
0000
,
0000
0000
0000
0000
,
0000
0000
0000
0000
,
1000
0000
1000
0000
,
0001
0000
0001
0000
,
1001
0000
0010
0000
,
1010
0000
0100
0000
,
1000
0000
0100
0000
,
1000
0000
0010
0000
,
0100
0000
1000
0000
,
0100
0000
0010
0000
,
1000
0000
1000
0000
,
0001
0000
0001
0000
,
1000
0000
0001
0000
,
0100
0000
0010
0000
,
1000
0000
0100
0000
,
1000
0000
0001
0000
,
1000
0000
0001
0000
,
1000
0000
0100
0000
,
1000
0000
0100
0000
,
0010
0000
0001
0000
,
0010
0000
0100
0000
,
1001
0000
0010
1000
,
0001
0000
0100
0000
,
1000
0000
0010
0000
,
1000
0000
0010
0000
,
1000
0000
0001
0100
,
0010
0000
1000
0000
,
0010
0000
0001
0000
,
0100
0000
0001
0000
,
0010
0000
1100
0000
,
1001
0000
0001
0000
,
0101
0000
1000
0000
,
1010
0000
0010
0000
,
0011
0000
0100
0000
,
1100
0000
0010
0000
,
1001
0000
0100
0000
,
0101
0000
0001
0000
,
1010
0000
1000
0000
,
1001
0000
0100
0000
,
1100
0000
0001
0000
,
0101
0000
1000
0000
,
1001
0000
1001
0000
;
