#TITLE:Steel Angel Kurumi;
#SUBTITLE:- Kiss Kara Hajimaru Miracle;
#ARTIST:Atsuko Enomoto/Rie Tanaka/Masayo Kurata;
#TITLETRANSLIT:;
#SUBTITLETRANSLIT:;
#ARTISTTRANSLIT:;
#CREDIT:Anime Toshokan;
#BANNER:Steel Angel Kurumi - Kiss Kara Hajimaru Miracle.png;
#BACKGROUND:Steel Angel Kurumi - Kiss Kara Hajimaru Miracle bg.png;
#LYRICSPATH:;
#CDTITLE:dejiko.png;
#MUSIC:Steel Angel Kurumi - Kiss Kara Hajimaru Miracle.mp3;
#OFFSET:-0.482;
#SAMPLESTART:64.660;
#SAMPLELENGTH:12.200;
#SELECTABLE:YES;
#DISPLAYBPM:157.000;
#BPMS:0.000=157.010,28.000=156.820,195.000=156.390;
#STOPS:;
#BGCHANGES:;
// cache tags:
#FIRSTBEAT:16.000;
#LASTBEAT:223.750;
#SONGFILENAME:Songs/DDR Anime 2nd Mix/Steel Angel Kurumi - Kiss Kara Hajimaru Miracle/Steel Angel Kurumi - Kiss Kara Hajimaru Miracle.sm;
#HASMUSIC:1;
#HASBANNER:1;
#MUSICLENGTH:92.015;
// end cache tags

//---------------dance-single - BASIC----------------
#NOTES:
     dance-single:
     BASIC:
     Easy:
     4:
     0.247,0.365,0.293,0.120,0.022,121.000,27.000,11.000,0.000,0.000:
0000
0000
0000
0000
,
0000
0000
0000
0000
,
0000
0000
0000
0000
,
0000
0000
0000
0000
,
2000
0000
0000
3000
,
0002
0000
0000
0003
,
2000
0000
0000
3000
,
0002
0000
0000
0003
,
0020
0000
0000
0030
,
0200
0000
0000
0300
,
0220
0000
0000
0330
,
2002
0000
0000
3003
,
1000
0100
0010
0001
,
0100
0010
1000
0010
,
0100
0010
0100
0001
,
0100
1000
0010
0110
,
1000
0000
0001
0000
,
1000
0000
0001
0000
,
0100
0100
0010
0000
,
1000
0000
0000
0000
,
0001
0000
1000
0000
,
0010
0000
1000
0000
,
0010
0010
0100
0000
,
0110
0000
0000
0000
,
0001
0000
1000
0000
,
0001
0000
0100
0000
,
1000
1000
0001
0000
,
0110
0000
0000
0000
,
0100
0000
0001
0000
,
1000
0000
0010
0000
,
0100
1000
1000
0000
,
1001
0000
0000
0000
,
0110
0000
1001
0000
,
1100
0000
0101
0000
,
1001
1001
0110
0000
,
0010
0000
0000
0000
,
1100
0000
1010
0000
,
0101
0000
0011
0000
,
0010
0001
0011
0000
,
2000
0000
0000
3000
,
1000
0000
0000
0000
0000
0000
0000
0100
0000
0000
0000
0000
0000
0010
0000
0000
,
0000
0001
0000
0000
0000
0000
0000
0000
,
1000
0100
0010
0001
,
1000
0010
0010
0000
,
0010
0100
1000
0100
,
0100
0001
0001
0000
,
1000
1100
0001
0101
,
0010
0110
0100
0000
,
1001
0000
1001
0000
,
1001
0000
0000
0000
,
1001
0000
1001
0010
,
0110
0000
0000
0000
,
0001
0010
0100
1000
,
0010
0100
0001
0100
,
1000
0010
0001
0100
,
1000
0000
0000
0000
0010
0000
0000
0000
0001
0000
0000
0000
0000
0100
0000
0100
;

//---------------dance-single - ANOTHER----------------
#NOTES:
     dance-single:
     ANOTHER:
     Medium:
     5:
     0.380,0.517,0.435,0.337,0.022,174.000,40.000,31.000,0.000,0.000:
0000
0000
0000
0000
,
0000
0000
0000
0000
,
0000
0000
0000
0000
,
0000
0000
0000
0000
,
2002
0000
0000
3003
,
0220
0000
0000
0330
,
2200
0000
0000
3300
,
0202
0000
0000
0303
,
2020
0000
0000
3030
,
0022
0000
0000
0033
,
2002
0000
0000
3003
,
0220
0000
0000
0330
,
1000
0100
0010
0001
,
0100
0010
1000
0010
,
0100
0010
0100
0001
,
0100
1000
0010
0110
,
1000
0001
0001
1000
,
1000
0001
0001
0010
,
0100
0100
0110
0001
,
1000
0001
1000
0001
,
1000
1000
1000
0001
,
0001
0001
0010
0100
,
0010
0100
0100
0010
,
0100
0100
0100
0100
0000
0000
0001
0000
,
0001
0100
1000
0100
,
0001
0010
0100
1000
,
0001
1000
0001
0110
,
1000
0001
1000
0001
,
0100
0010
0001
0010
,
1000
0100
0010
0001
,
0100
0001
1000
1001
,
1001
2002
0000
3003
,
0100
1001
0100
0101
,
0010
1100
0001
0120
,
0100
0100
0100
0130
,
0220
0000
0000
0330
,
1001
0100
1010
0001
,
0101
0100
1100
0010
,
1010
0001
1001
0100
,
2002
0000
0000
3003
,
2200
0000
0000
3300
0000
0000
0000
0202
0000
0000
0303
0000
0000
0220
0000
0330
,
0000
2002
0000
0000
0000
0000
3003
0000
,
1000
0010
0001
0010
,
1000
0100
0001
0100
,
1000
0100
1000
0001
,
0100
0001
0001
1000
,
0001
0110
1000
0110
,
0001
0110
1000
0110
,
1100
0100
0101
0100
,
1001
0001
0001
0001
,
1001
0100
1001
0010
,
0110
0010
0010
0010
,
0001
0010
0100
1000
,
0001
0100
1000
0010
,
0001
0100
1000
0100
,
0010
0000
0000
0000
0001
0000
0000
0000
1000
0000
0000
0000
0000
0100
0000
0100
;

//---------------dance-single - MANIAC----------------
#NOTES:
     dance-single:
     MANIAC:
     Hard:
     8:
     0.520,0.517,0.446,0.293,0.109,267.000,41.000,27.000,0.000,0.000:
0000
0000
0000
0000
,
0000
0000
0000
0000
,
0000
0000
0000
0000
,
0000
0000
0000
0000
,
1000
0100
1000
0000
0022
0000
0033
0000
,
1000
0010
1000
0000
0202
0000
0303
0000
,
0001
0100
0001
0000
2020
0000
3030
0000
,
1001
0000
0000
0000
0000
0000
1000
0001
1000
0001
1000
0001
1000
0000
0000
0000
,
1000
0100
0000
1000
0200
0000
0000
0000
0000
0000
0000
0000
0300
0000
0000
0000
,
0001
0010
0000
0001
0020
0000
0000
0000
0000
0000
0030
0000
0000
0000
0010
0000
,
0220
0000
0330
0000
1000
1000
0000
1000
,
2002
0000
0000
3003
0000
0100
1001
0000
,
1000
0000
0001
0000
0000
0000
0100
0000
0000
0010
0000
0000
0001
0000
0000
0000
,
0100
0000
1000
0000
0000
0000
0001
0000
0000
0010
0000
0000
0100
0000
0000
0000
,
0100
0000
0001
0000
0000
0000
1000
0000
0000
0010
0000
0000
0100
0000
0000
0000
,
0100
0000
1100
0000
0000
0000
0001
0000
0000
1001
0000
0000
0110
0000
0000
0000
,
1000
0100
0001
0010
1000
0100
0001
0010
,
1000
0100
0010
0001
0011
0000
0100
0000
,
0100
0100
0100
1002
0000
0000
1000
0000
,
0100
1000
0100
1003
,
0010
0001
0100
1000
0100
0001
0010
0001
,
0100
0001
0010
0100
1000
0100
0010
0001
,
0000
0010
0010
0010
2001
0000
0001
0000
,
0100
0001
0100
3001
,
0001
0010
0100
0001
1000
0010
0100
0010
,
0001
1000
0010
0100
0100
0001
0100
0000
,
1000
1000
1000
0120
0000
0000
0001
0000
,
1000
0001
1000
0130
,
0100
0010
0100
0001
0001
1000
1000
0010
,
0010
0001
1000
0100
0010
0001
0010
0100
,
0100
1000
1000
1000
1000
0000
0001
1000
,
1001
0100
0100
0000
0000
0000
0010
0000
,
0110
0010
1001
0100
,
1100
0001
0101
0100
,
1001
0100
1001
0000
0110
0000
0020
0000
,
0000
0000
0000
0030
,
1100
0100
1010
0010
,
0101
1000
0011
0000
,
1000
0001
1000
0000
0000
0000
0000
0000
0011
0000
0001
0000
0000
0000
0000
0000
,
0010
0010
0010
0100
0100
0100
0000
0000
,
2200
0000
3300
0000
0000
0000
0000
0220
0000
0000
0330
0000
0000
0022
0033
0000
,
0000
2002
0000
0000
0000
3003
0000
0000
,
1000
1000
0100
0100
0010
0010
0001
0001
,
1000
0001
0010
0100
0010
0000
0000
0000
,
0001
0001
0010
0010
0100
0100
1000
1000
,
0010
0001
1000
0001
1000
0000
0000
0000
,
1000
1000
1100
0000
0001
0001
0101
0000
,
0010
0010
0110
0000
0100
0000
0000
0001
,
1001
0000
0000
1000
1001
0000
0000
0001
,
1002
2003
3002
1003
,
1000
0100
0010
0001
1000
0100
0010
0100
,
1000
1001
1001
0000
,
0001
0000
1000
0000
0000
0000
0010
0000
0000
0100
0000
0000
1000
0000
0000
0000
,
0010
0000
0001
0000
0000
0000
0100
0000
0000
0010
0000
0000
0001
0000
0000
0000
,
1000
0000
0001
0000
0000
0000
1000
0000
0000
0010
0000
0000
0001
0000
0000
0000
,
1000
0000
0100
0000
0000
0000
0001
0000
0000
0100
0000
0000
0000
1100
0000
0101
;

//---------------dance-single - BEGINNER----------------
#NOTES:
     dance-single:
     BEGINNER:
     Beginner:
     2:
     0.183,0.302,0.239,0.120,0.000,85.000,22.000,11.000,0.000,0.000:
0000
0000
0000
0000
,
0000
0000
0000
0000
,
0000
0000
0000
0000
,
0000
0000
0000
0000
,
2000
0000
3000
0000
,
0002
0000
0003
0000
,
2000
0000
3000
0000
,
0002
0000
0003
0000
,
0020
0000
0030
0000
,
0200
0000
0300
0000
,
0220
0000
0330
0000
,
2002
0000
3003
0000
,
1000
0000
0010
0000
,
0100
0000
1000
0000
,
0100
0000
0100
0000
,
0100
0000
0010
0000
,
1000
0000
0001
0000
,
1000
0000
0001
0000
,
0100
0000
0010
0000
,
1000
0000
0000
0000
,
0001
0000
1000
0000
,
0010
0000
1000
0000
,
0010
0000
0100
0000
,
0110
0000
0000
0000
,
0001
0000
1000
0000
,
0001
0000
0100
0000
,
1000
0000
0001
0000
,
0110
0000
0000
0000
,
0100
0000
0001
0000
,
1000
0000
0010
0000
,
0100
0000
1000
0000
,
1001
0000
0000
0000
,
0110
0000
1001
0000
,
1100
0000
0101
0000
,
1001
0000
0110
0000
,
0010
0000
0000
0000
,
1100
0000
1010
0000
,
0101
0000
0011
0000
,
0010
0000
0011
0000
,
2000
0000
0000
3000
,
1000
0000
0000
0000
,
0000
0000
0000
0000
,
1000
0000
0010
0000
,
1000
0000
0010
0000
,
0010
0000
1000
0000
,
0100
0000
0001
0000
,
1000
0000
0001
0000
,
0010
0000
0100
0000
,
1001
0000
1001
0000
,
1001
0000
0000
0000
,
1001
0000
1001
0000
,
0110
0000
0000
0000
,
0001
0000
0100
0000
,
0010
0000
0001
0000
,
1000
0000
0001
0000
,
1000
0000
0001
0000
;
