#TITLE:Let It Flow;
#SUBTITLE:;
#ARTIST:BANTU;
#TITLETRANSLIT:;
#SUBTITLETRANSLIT:;
#ARTISTTRANSLIT:;
#CREDIT:;
#BANNER:Let It Flow.png;
#BACKGROUND:Let It Flow-bg.png;
#LYRICSPATH:Let It Flow.lrc;
#CDTITLE:;
#MUSIC:Let It Flow.mp3;
#OFFSET:-0.421;
#SAMPLESTART:26.980;
#SAMPLELENGTH:12.000;
#SELECTABLE:YES;
#DISPLAYBPM:81.000:163.000;
#BPMS:0.000=162.570,48.000=144.000,50.000=125.130,52.000=112.000,53.000=96.000,54.000=81.285,70.000=162.570;
#STOPS:;
#BGCHANGES:;
// cache tags:
#FIRSTBEAT:14.750;
#LASTBEAT:261.500;
#SONGFILENAME:Songs/StepMix 1.0/Let It Flow/Let It Flow.sm;
#HASMUSIC:1;
#HASBANNER:1;
#MUSICLENGTH:110.087;
// end cache tags

//---------------dance-single - ----------------
#NOTES:
     dance-single:
     :
     Beginner:
     1:
     0.170,0.195,0.036,0.000,0.000,127.000,4.000,0.000,0.000,0.000:  // measure 1
0000
0000
0000
0000
,  // measure 2
0000
0000
0000
0000
,  // measure 3
0000
0000
0000
0000
,  // measure 4
0000
0000
0000
0000
,  // measure 5
0010
0000
0010
0000
,  // measure 6
0001
0000
0001
0000
,  // measure 7
0010
0000
0010
0000
,  // measure 8
1000
0000
1000
0000
,  // measure 9
0010
0000
0010
0000
,  // measure 10
0100
0000
0100
0000
,  // measure 11
0001
0000
0001
0000
,  // measure 12
1000
0000
1000
0000
,  // measure 13
0010
0000
0000
0000
,  // measure 14
0000
0000
1001
0000
,  // measure 15
0000
0000
1001
0000
,  // measure 16
0000
0000
0110
0000
,  // measure 17
0000
0000
0110
0000
,  // measure 18
0000
0000
1000
0000
,  // measure 19
1000
0000
0001
0000
,  // measure 20
0001
0000
0010
0000
,  // measure 21
0100
0000
0001
0000
,  // measure 22
0001
0000
1000
0000
,  // measure 23
1000
0000
0100
0000
,  // measure 24
0100
0000
0010
0000
,  // measure 25
0010
0000
0001
0000
,  // measure 26
0000
0000
1000
0000
,  // measure 27
0000
0000
0100
0000
,  // measure 28
0000
0000
0001
0000
,  // measure 29
0000
0000
0010
0000
,  // measure 30
0000
0000
1000
0000
,  // measure 31
0001
0000
0100
0100
,  // measure 32
0100
0000
1000
0000
,  // measure 33
0001
0000
0010
0010
,  // measure 34
0010
0000
1000
0000
,  // measure 35
0001
0000
0100
0100
,  // measure 36
0100
0000
0001
0000
,  // measure 37
0010
0000
0001
0001
,  // measure 38
0001
0000
1000
0000
,  // measure 39
1000
0000
0010
0010
,  // measure 40
0010
0000
1000
0000
,  // measure 41
1000
0000
0100
0100
,  // measure 42
0100
0000
0001
0000
,  // measure 43
0001
0000
0010
0010
,  // measure 44
0010
0000
0001
0000
,  // measure 45
0001
0000
1000
1000
,  // measure 46
1000
0000
0100
0000
,  // measure 47
0100
0000
0001
0000
,  // measure 48
0001
0001
0010
0000
,  // measure 49
0010
0010
1000
0000
,  // measure 50
1000
1000
0100
0000
,  // measure 51
0001
1000
0001
0000
,  // measure 52
0100
0100
0010
0000
,  // measure 53
0001
1000
0001
0000
,  // measure 54
0100
0100
0001
0000
,  // measure 55
0001
0001
0010
0000
,  // measure 56
0010
0010
1000
0000
,  // measure 57
1000
1000
0001
0000
,  // measure 58
0001
0001
0100
0000
,  // measure 59
0100
0000
0100
0000
,  // measure 60
0100
0000
0100
0100
,  // measure 61
0100
0100
0100
0100
,  // measure 62
0100
0100
0000
0000
;

//---------------dance-single - ----------------
#NOTES:
     dance-single:
     :
     Easy:
     3:
     0.266,0.334,0.273,0.055,0.000,169.000,30.000,6.000,0.000,0.000:  // measure 1
0000
0000
0000
0000
,  // measure 2
0000
0000
0000
0000
,  // measure 3
0000
0000
0000
0000
,  // measure 4
0000
0000
0000
0000
,  // measure 5
1000
0001
0001
0000
,  // measure 6
0010
0001
0100
0000
,  // measure 7
1000
1000
0001
0000
,  // measure 8
0100
0100
0001
0000
,  // measure 9
0010
0010
0001
0000
,  // measure 10
1000
1000
0100
0000
,  // measure 11
0100
0100
0100
0000
,  // measure 12
0010
0010
0010
0000
,  // measure 13
2002
0000
3003
0000
,  // measure 14
0000
0000
1001
0000
,  // measure 15
1001
0000
0110
0000
,  // measure 16
0110
0000
1001
0000
,  // measure 17
1001
0000
0110
0000
,  // measure 18
0110
0000
0010
1000
,  // measure 19
0001
1000
1001
0000
,  // measure 20
0000
0000
0100
0001
,  // measure 21
0100
0010
0110
0000
,  // measure 22
0000
0000
0010
1000
,  // measure 23
0001
0100
0101
0000
,  // measure 24
0000
0000
0010
0001
,  // measure 25
1000
0100
1100
0000
,  // measure 26
0000
0000
2000
0000
,  // measure 27
0000
3000
0002
0000
,  // measure 28
0000
0003
2000
0000
,  // measure 29
0000
3000
0002
0000
,  // measure 30
0000
0003
1000
0010
,  // measure 31
1000
0010
1000
1000
,  // measure 32
1000
0000
0001
0010
,  // measure 33
0001
0010
0001
0001
,  // measure 34
0001
0000
0100
0001
,  // measure 35
0010
0001
0100
0100
,  // measure 36
0100
0000
1000
0010
,  // measure 37
1000
0100
1000
0001
,  // measure 38
1000
0000
1001
0000
,  // measure 39
1001
0000
0110
0000
,  // measure 40
0110
0000
1001
0000
,  // measure 41
1001
0000
0110
0000
,  // measure 42
0110
0000
0010
0010
,  // measure 43
1000
1000
0001
0001
,  // measure 44
0100
0000
0010
0010
,  // measure 45
0010
0010
0110
0000
,  // measure 46
0000
0000
0001
0100
,  // measure 47
0001
0100
0001
0100
,  // measure 48
0001
0100
1000
0010
,  // measure 49
1000
0010
1000
0010
,  // measure 50
1000
0010
0001
0001
,  // measure 51
1000
1000
0001
0001
,  // measure 52
1000
1000
0010
0010
,  // measure 53
0100
0100
0010
0010
,  // measure 54
0100
0100
0010
0001
,  // measure 55
0100
0001
1000
0010
,  // measure 56
0100
0100
0001
1000
,  // measure 57
0010
0100
0010
0010
,  // measure 58
0100
0100
0001
1000
,  // measure 59
0100
0010
0001
1000
,  // measure 60
0100
0010
1001
1001
,  // measure 61
1001
1001
1001
1001
,  // measure 62
1001
1001
0000
0000
;

//---------------dance-single - ----------------
#NOTES:
     dance-single:
     :
     Medium:
     5:
     0.398,0.510,0.581,0.118,0.000,230.000,64.000,13.000,0.000,0.000:  // measure 1
0000
0000
0000
0000
,  // measure 2
0000
0000
0000
0000
,  // measure 3
0000
0000
0000
0000
,  // measure 4
0000
0000
0000
0000
,  // measure 5
1000
0100
0010
0001
,  // measure 6
0001
0010
0100
1000
,  // measure 7
0001
1000
0010
0010
,  // measure 8
0001
0100
0001
0001
,  // measure 9
0100
0010
1000
0100
,  // measure 10
0001
1000
0010
0010
,  // measure 11
0100
0001
1000
1000
,  // measure 12
0010
0000
0000
0000
,  // measure 13
2002
0000
0000
0000
,  // measure 14
0000
3003
0010
0110
,  // measure 15
0001
1001
1000
1100
,  // measure 16
0100
1010
0001
0011
,  // measure 17
0001
0101
1000
1001
,  // measure 18
0110
0110
2000
0001
,  // measure 19
0001
3001
0020
0100
,  // measure 20
0100
0130
2000
0001
,  // measure 21
0100
3001
0020
0001
,  // measure 22
0100
0031
0002
1000
,  // measure 23
1000
1003
0200
0010
,  // measure 24
0010
0310
0002
1000
,  // measure 25
0100
1003
0200
0010
,  // measure 26
1000
0310
0110
0000
,  // measure 27
0110
0000
0101
1100
,  // measure 28
0101
0000
0110
0000
,  // measure 29
0110
0000
0101
1100
,  // measure 30
0101
0000
0100
0100
,  // measure 31
0001
0001
0010
0010
,  // measure 32
0100
0000
1000
0001
1000
0000
1000
0000
,  // measure 33
0010
0010
0100
0100
,  // measure 34
0001
0000
1000
0001
1000
0000
0010
0000
,  // measure 35
0100
0001
1000
0010
,  // measure 36
0100
0000
0001
0100
0001
0000
0100
0000
,  // measure 37
0010
1000
0001
0100
,  // measure 38
0010
0000
1000
0010
0100
0000
0010
0000
,  // measure 39
0110
0110
1000
0001
,  // measure 40
1001
0000
1000
0001
0010
0000
0100
0000
,  // measure 41
0110
0110
0001
1000
,  // measure 42
1001
0000
0001
1000
0001
0000
0001
0000
,  // measure 43
1001
1001
1100
0101
,  // measure 44
1100
0101
1001
1001
,  // measure 45
0110
0110
2002
0000
,  // measure 46
3003
0000
1000
0001
1000
0000
0010
0000
,  // measure 47
1010
1001
0001
0100
,  // measure 48
0101
1001
0001
0010
,  // measure 49
0011
1100
0010
0010
,  // measure 50
1001
1001
1000
0100
,  // measure 51
0001
0101
0100
1000
,  // measure 52
0010
0000
1000
0010
1000
0000
0100
0000
,  // measure 53
1100
1010
1001
1001
,  // measure 54
0100
0000
0001
1000
0010
0000
0110
0000
,  // measure 55
0100
0101
0001
0101
,  // measure 56
0001
0011
1000
1010
,  // measure 57
0010
0110
1000
1100
,  // measure 58
0001
0000
1000
0001
1001
0000
1100
0000
,  // measure 59
0101
0000
1000
0001
1000
0000
1100
0000
,  // measure 60
0011
0000
1000
0001
1000
0000
0110
0000
,  // measure 61
1100
0000
1000
0001
1000
0000
0010
0100
,  // measure 62
0010
0000
1000
0001
2000
0000
0000
0000
,  // measure 63
0000
0000
0000
3000
0000
0000
0000
0000
;

//---------------dance-single - ----------------
#NOTES:
     dance-single:
     :
     Hard:
     9:
     0.554,0.624,0.427,0.109,0.114,368.000,47.000,12.000,0.000,0.000:  // measure 1
0000
0000
0000
0000
,  // measure 2
0000
0000
0000
0000
,  // measure 3
0000
0000
0000
0000
,  // measure 4
0000
0000
0000
0000
,  // measure 5
0010
0000
0010
0000
1001
0000
0100
0001
,  // measure 6
0011
0000
1100
0000
0011
0000
1000
0100
,  // measure 7
0010
0000
0010
0000
1001
0000
0100
1000
,  // measure 8
1010
0000
0101
0000
1010
0000
0010
0100
,  // measure 9
0001
0000
0001
0000
1000
0000
0100
0100
,  // measure 10
0110
0000
0110
0000
1001
0000
1000
0010
,  // measure 11
0100
0000
0100
0000
0010
0000
1000
1000
,  // measure 12
1001
0000
1001
0000
0110
0000
1000
0001
,  // measure 13
2002
0000
0000
0000
,  // measure 14
0000
0000
0000
0000
3003
0000
0000
0000
1000
0100
0000
0000
0100
0000
0000
0001
,  // measure 15
0000
0000
0001
0000
0100
0000
0000
0000
1000
0100
0000
0000
0100
0000
0000
0001
,  // measure 16
0000
0000
0001
0000
0100
0000
0000
0000
1000
0100
0000
0000
0110
0000
0000
1001
,  // measure 17
0000
0000
1001
0000
0110
0000
0000
0000
0001
0100
0000
0000
0110
0000
0000
1001
,  // measure 18
0000
1001
0110
0000
0001
0000
0100
0010
,  // measure 19
1000
0000
0100
0010
0001
0000
1000
0001
,  // measure 20
0100
0000
0010
1000
1010
0000
0100
0001
,  // measure 21
0100
0000
1000
0010
1000
0000
0100
0001
,  // measure 22
0100
0000
0001
0010
1001
0000
1000
0100
,  // measure 23
1000
0000
0001
0010
0001
0000
1000
0100
,  // measure 24
1000
0000
0001
1000
1001
0000
1000
0100
,  // measure 25
1000
0000
0010
0100
0020
0000
0000
0000
,  // measure 26
0030
0000
0000
1000
0100
0000
0001
0000
0200
0000
0000
0000
0000
0000
0000
0000
,  // measure 27
0000
1300
0001
1000
0020
0000
0000
0000
,  // measure 28
0000
1030
0001
1000
0200
0000
0000
0000
,  // measure 29
0000
1300
0001
1000
2002
0000
0000
0000
,  // measure 30
3003
0000
0000
1000
0100
0000
0001
0000
0100
0000
1000
0000
0100
0000
0001
0000
,  // measure 31
0100
1000
0100
0000
1000
0010
0001
0010
,  // measure 32
1000
0010
0001
0000
0010
0100
0001
1000
,  // measure 33
0010
0100
0001
0000
1000
0100
0010
0001
,  // measure 34
1000
0100
0010
0000
0001
0001
0100
0010
,  // measure 35
1000
1000
0010
0000
0100
0100
0001
1000
,  // measure 36
0010
0010
1000
0000
0100
0001
0100
1000
,  // measure 37
0010
0001
0010
0000
1000
0100
0001
0100
,  // measure 38
1000
0010
1000
0000
0001
0100
0001
0100
,  // measure 39
1010
0000
0101
0000
0001
0010
0001
0010
,  // measure 40
1100
0000
0011
0000
1000
0100
0001
0100
,  // measure 41
1001
0000
1100
0000
0001
0100
1000
0100
,  // measure 42
1001
0101
0110
1001
,  // measure 43
1100
1001
0011
0110
,  // measure 44
1001
0000
1100
0000
1000
0001
1000
0001
,  // measure 45
0110
1001
2002
0000
,  // measure 46
3003
0000
0000
1000
0100
0000
0001
0000
0100
0000
1000
0000
0001
0000
1000
0000
,  // measure 47
0100
1000
0010
1000
0010
0001
0010
1000
,  // measure 48
0010
0100
0001
0100
1000
0100
1000
0100
,  // measure 49
0010
0100
0001
0010
0100
1000
0010
0100
,  // measure 50
0001
0010
0100
1000
0001
0010
0100
1000
,  // measure 51
1000
0100
0010
0001
0001
0100
0010
1000
,  // measure 52
1000
0010
0100
0001
1000
0001
0010
0001
,  // measure 53
1000
0001
0100
0001
1000
0001
1000
0010
,  // measure 54
1000
0001
1000
0100
0100
1000
0001
1000
,  // measure 55
0100
0000
1000
0000
0010
0100
0010
0000
0010
0000
0001
0000
0010
0000
1000
0000
,  // measure 56
0010
0000
0100
0000
0001
1000
0001
0000
1000
0000
0100
0000
1000
0000
0100
0000
,  // measure 57
0010
0000
0100
0000
0001
0100
0001
0000
0100
0000
1000
0000
0010
0000
0100
0000
,  // measure 58
0001
0000
0010
0000
0001
0010
0001
0000
0001
0000
0010
0000
0100
0000
1000
0000
,  // measure 59
1000
0000
0100
0000
0010
0001
0010
0000
0001
0000
0100
0000
0010
0000
1000
0000
,  // measure 60
1000
0000
0010
0000
0100
0001
1000
0000
0001
0010
0001
0000
1000
0100
1000
0000
,  // measure 61
0001
0010
0001
0000
1000
0100
1000
0000
0001
1000
0001
0000
0010
1000
0010
0000
,  // measure 62
0001
1000
0001
0000
0100
1000
0100
0000
2002
0000
0000
0000
0000
0000
0000
0000
,  // measure 63
0000
0000
0000
0000
,  // measure 64
0000
0000
0000
0000
,  // measure 65
0000
0000
0000
0000
,  // measure 66
0000
0000
0000
3003
0000
0000
0000
0000
;

//---------------dance-double - ----------------
#NOTES:
     dance-double:
     :
     Easy:
     4:
     0.270,0.501,0.282,0.182,0.000,157.000,31.000,20.000,0.000,0.000:  // measure 1
00000000
00000000
00000000
00000000
,  // measure 2
00000000
00000000
00000000
00000000
,  // measure 3
00000000
00000000
00000000
00000000
,  // measure 4
00000000
00000000
00000000
00000000
,  // measure 5
10000000
00000000
01000000
00000000
,  // measure 6
00010000
00000000
00001000
00010000
,  // measure 7
00001000
00000000
00000100
00000000
,  // measure 8
00000001
00000000
00000100
00000001
,  // measure 9
00000010
00000000
00001000
00000000
,  // measure 10
00010000
00000000
00001000
00010000
,  // measure 11
00100000
00000000
10000000
00000000
,  // measure 12
01000000
00000000
00010000
00001000
,  // measure 13
00022000
00000000
00000000
00000000
,  // measure 14
00000000
00033000
00000200
00000300
,  // measure 15
00001000
00000001
00000020
00000030
,  // measure 16
00010000
00001000
02000000
03000000
,  // measure 17
00010000
10000000
00200000
00300000
,  // measure 18
00010000
00001000
00010000
00001000
,  // measure 19
00000010
00000000
00001000
00010000
,  // measure 20
01000000
00000000
00010000
00100000
,  // measure 21
00001000
00000000
00010000
00000010
,  // measure 22
00001000
00000000
00000001
00000100
,  // measure 23
00000010
00000000
00001000
00000100
,  // measure 24
00010000
00000000
00001000
00010000
,  // measure 25
01000000
00000000
10000000
00010000
,  // measure 26
10000000
00010000
02002000
00000000
,  // measure 27
03003000
00000000
00020200
00000000
,  // measure 28
00030300
00000000
02002000
00000000
,  // measure 29
03003000
00000000
00020200
00000000
,  // measure 30
00030300
00000000
00001000
00000000
,  // measure 31
00001000
00000000
00000100
00000010
,  // measure 32
00000001
00000000
00000100
00000000
,  // measure 33
00001000
00000000
00010000
00100000
,  // measure 34
10000000
00000000
10100000
00000000
,  // measure 35
01010000
00000000
00001000
00010000
,  // measure 36
00001000
00000000
00001010
00000000
,  // measure 37
00000101
00000000
00000001
00001000
,  // measure 38
00000001
00000000
00000100
00001000
,  // measure 39
00010000
00000000
00001000
00010000
,  // measure 40
01000000
00000000
10000000
00010000
,  // measure 41
10010000
00000000
00100000
00001000
,  // measure 42
00101000
00000000
00010000
00001000
,  // measure 43
00001000
00000000
00000100
00000100
,  // measure 44
00000110
00000000
00001000
00000100
,  // measure 45
00010000
00001000
00022000
00000000
,  // measure 46
00033000
00000000
00001000
00000000
,  // measure 47
00000010
00000000
00000001
00000001
,  // measure 48
00000001
00000001
00000100
00000000
,  // measure 49
00001000
00000000
00011000
00011000
,  // measure 50
00011000
00011000
00100000
00000000
,  // measure 51
10000000
00000000
01000000
00100000
,  // measure 52
01000000
00100000
00010000
00000000
,  // measure 53
00010000
00000000
01000000
00000000
,  // measure 54
00001000
00000000
00000010
00000001
,  // measure 55
00000010
00000001
00000010
00000100
,  // measure 56
00000010
00000100
00001000
00000100
,  // measure 57
00001000
00000100
00010000
00001000
,  // measure 58
00010000
00001000
00022000
00033000
,  // measure 59
00022000
00033000
01010000
10100000
,  // measure 60
01010000
10100000
00011000
01010000
,  // measure 61
00011000
01010000
00011000
00001100
,  // measure 62
00011000
00001100
00000000
00000000
;

//---------------dance-double - ----------------
#NOTES:
     dance-double:
     :
     Medium:
     6:
     0.367,0.502,0.282,0.055,0.000,246.000,31.000,6.000,0.000,0.000:  // measure 1
00000000
00000000
00000000
00000000
,  // measure 2
00000000
00000000
00000000
00000000
,  // measure 3
00000000
00000000
00000000
00000000
,  // measure 4
00000000
00000000
00000000
00000000
,  // measure 5
10000000
00010000
01000000
00100000
,  // measure 6
10000000
01000000
11000000
00000000
,  // measure 7
01000000
00010000
00001000
00000100
,  // measure 8
00000001
00000100
00000010
00001000
,  // measure 9
00000100
00010000
00001000
00010000
,  // measure 10
00100000
00100000
01100000
00000000
,  // measure 11
10000000
00100000
00010000
00001000
,  // measure 12
00000010
00000001
00000100
00001000
,  // measure 13
00000000
00000000
00000000
00000000
,  // measure 14
00000000
00000000
00011000
00101000
,  // measure 15
00011000
01001000
00011000
00010010
,  // measure 16
00011000
00000000
00010100
00000000
00001000
00000100
00001000
00000100
,  // measure 17
00010000
00001000
00010000
00001000
01000000
00010000
01000000
00010000
,  // measure 18
10000000
01000000
10000000
01000000
00100000
00000000
00010000
00000000
,  // measure 19
01000000
00001000
00010000
00001000
,  // measure 20
00000010
00000000
00000001
00000010
00000100
00000000
00001000
00000000
,  // measure 21
00000010
00000001
00000010
00001000
,  // measure 22
00000100
00000000
00000010
00000100
00000010
00000000
00000001
00000000
,  // measure 23
00000100
00001000
00010000
00100000
,  // measure 24
10000000
00000000
01000000
10000000
00100000
00000000
00010000
00000000
,  // measure 25
00100000
10000000
01000000
00100000
,  // measure 26
01000000
00000000
10000000
10000000
20000000
00000000
00000000
00000000
,  // measure 27
00000000
30000000
02000000
00000000
,  // measure 28
00000000
03000000
00020000
00000000
,  // measure 29
00000000
00000000
00002000
00000000
,  // measure 30
00000000
00000000
00033000
00000000
00001000
00000000
00000010
00000001
,  // measure 31
00000010
00000000
00000000
00000000
00001000
00000000
00000010
00000001
,  // measure 32
00000010
00000000
00000011
00000000
00000100
00000000
00001000
00010000
,  // measure 33
00001000
00000000
00000000
00000000
00000100
00000000
00001000
00010000
,  // measure 34
00001000
00000000
00011000
00000000
00100000
00000000
10000000
01000000
,  // measure 35
00100000
00000000
00000000
00000000
00100000
00000000
00010000
01000000
,  // measure 36
00100000
00000000
01100000
00000000
10000000
00000000
01000000
00100000
,  // measure 37
01000000
00000000
00000000
00000000
00010000
00000000
00001000
00010000
,  // measure 38
00001000
00011000
00001000
01000000
,  // measure 39
00010000
00000000
10000000
10000000
01000000
00000000
00100000
00000000
,  // measure 40
00010000
00000000
01000000
01000000
00100000
00000000
00010000
00000000
,  // measure 41
00001000
00000000
00010000
00010000
00001000
00000000
00000010
00000000
,  // measure 42
00000001
00000000
00001000
00001000
00001100
00000000
00011000
00000000
,  // measure 43
01010000
00011000
00001100
00011000
,  // measure 44
01010000
00011000
00001010
00000101
,  // measure 45
00001010
00000101
00002002
00000000
,  // measure 46
00000000
00003003
00000001
00001000
,  // measure 47
00000010
00000100
00001000
00000000
00010000
00000000
00001000
00000000
,  // measure 48
00010000
00100000
10000000
00000000
01000000
00000000
01000000
00000000
,  // measure 49
00100000
01000000
00100000
00000000
00010000
00000000
10000000
00000000
,  // measure 50
00100000
10000000
01000000
00000000
00100000
00000000
00010000
00000000
,  // measure 51
01000000
00010000
00010000
00000000
00001000
00000000
00010000
00000000
,  // measure 52
00001000
00000100
00001000
00000000
00000100
00000000
00000010
00000000
,  // measure 53
00001000
00000001
00001000
00000000
00001001
00000000
00011000
00000000
,  // measure 54
10010000
00011000
00000010
00001000
,  // measure 55
00010000
00001000
00010000
00000000
00100000
00000000
01000000
00000000
,  // measure 56
00010000
01000000
00010000
00000000
10000000
00000000
01000000
00000000
,  // measure 57
00010000
00001000
00010000
00000000
00001000
00000000
00000100
00000000
,  // measure 58
00000001
00000100
00000001
00000000
00000010
00000000
00000010
00000000
,  // measure 59
00000100
00000100
00000100
00000000
00001000
00010000
00001000
00000000
,  // measure 60
00000100
00001000
00000100
00000000
00001000
00010000
00001000
00000000
,  // measure 61
00000010
00001000
00000010
00000000
00000001
00000100
00001000
00000000
,  // measure 62
00001000
00000100
00000001
00000100
00000000
00000000
00000000
00000000
;

//---------------dance-double - ----------------
#NOTES:
     dance-double:
     :
     Hard:
     9:
     0.570,0.604,0.055,0.100,0.073,422.000,6.000,11.000,0.000,0.000:  // measure 1
00000000
00000000
00000000
00000000
,  // measure 2
00000000
00000000
00000000
00000000
,  // measure 3
00000000
00000000
00000000
00000000
,  // measure 4
00000000
00000000
00000000
00000000
00000000
00000000
00000000
00000000
00000000
00000000
00000000
00010000
00001000
00000000
00010000
00000000
,  // measure 5
00100000
10000000
01000000
00100000
00010000
01000000
00100000
10000000
,  // measure 6
00010000
00100000
01000000
00100000
10000000
00100000
00010000
01000000
,  // measure 7
00100000
10000000
01000000
00010000
00001000
00000100
00000001
00000010
,  // measure 8
00000001
00001000
00000010
00001000
00000001
00001000
00000100
00001000
,  // measure 9
00000001
00000100
00000010
00001000
00000001
00000100
00000010
00001000
,  // measure 10
00000100
00010000
00001000
01000000
00010000
10000000
00100000
00010000
,  // measure 11
00001000
00000100
00000001
00000100
00001000
00000100
00000001
00001000
,  // measure 12
00001001
00000000
00001001
00000000
00000100
00000000
00001000
00000000
00011000
00000000
00000000
00001000
00010000
00000000
00001000
00000000
,  // measure 13
00022000
00000000
00000000
00000000
,  // measure 14
00000000
00000000
00000000
00000000
00033000
00000000
00000000
00000000
00010000
00002000
00000000
00000000
00000000
00000000
00000000
00000000
,  // measure 15
00010000
00000000
01000000
00000000
00013000
00000000
00000000
00000000
00001000
00020000
00000000
00000000
00000000
00000000
00000000
00000000
,  // measure 16
00001000
00000000
00000100
00000000
00031000
00000000
00000000
00000000
00010000
00002000
00000000
00000000
00000000
00000000
00000000
00000000
,  // measure 17
00000010
00000000
00000010
00000000
00013000
00000000
00000000
00000000
00001000
00020000
00000000
00000000
00000000
00000000
00000000
00000000
,  // measure 18
00100000
00100000
00031000
00000000
00100000
01000000
00010000
10000000
,  // measure 19
00100000
01000000
00010000
10000000
01000000
00010000
00001000
01000000
,  // measure 20
00001000
00010000
00001000
01000000
00001000
00000010
00000001
00000010
,  // measure 21
00001000
00010000
00001000
00000010
00000001
00000100
00000001
00000100
,  // measure 22
00000010
00000100
00000010
00000100
00001000
00010000
00001000
00010000
,  // measure 23
00000100
00010000
00001000
00010000
00100000
00010000
00100000
00010000
,  // measure 24
00001000
00010000
00001000
00010000
00100000
10000000
01000000
00010000
,  // measure 25
00001000
00010000
00100000
10000000
20020000
00000000
00000000
00000000
,  // measure 26
30030000
00000000
00000000
10000000
00010000
00000000
01000000
00000000
00000000
00000000
00100000
00000000
00100000
00000000
00000000
00000000
,  // measure 27
00100000
00000000
00000000
00100000
00000000
00000000
00100000
00000000
00000000
00000000
10000000
00000000
10000000
00000000
00000000
00000000
,  // measure 28
10000000
00000000
00000000
10000000
00000000
00000000
10000000
00000000
00000000
00000000
01000000
00000000
01000000
00000000
00000000
00000000
,  // measure 29
01000000
00000000
00000000
01000000
00000000
00000000
01000000
00000000
00000000
00000000
00000000
00000000
00000000
00000000
00000000
00000000
,  // measure 30
00000000
00000000
00000000
00010000
00001000
00000000
00010000
00000000
00001000
00000000
00000010
00000000
00000001
00000000
00000100
00000000
,  // measure 31
00000001
00000100
00000010
00000100
00000001
00000100
00000010
00001000
,  // measure 32
00000100
00001000
00000100
00001000
00000001
00001000
00000010
00001000
,  // measure 33
00000100
00010000
00001000
01000000
00010000
10000000
00100000
10000000
,  // measure 34
01000000
10000000
00100000
00010000
00001000
00010000
00001000
00010000
,  // measure 35
01000000
00010000
01000000
00010000
01000000
10000000
00100000
01000000
,  // measure 36
00010000
10000000
00100000
01000000
00010000
01000000
00001000
01000000
,  // measure 37
00001000
00010000
00000100
00010000
00000100
00001000
00000001
00001000
,  // measure 38
00000100
00001000
00000001
00001000
00000001
00000100
00001000
00010000
,  // measure 39
01000000
10000000
01000000
00010000
00001000
00000100
00000001
00000100
,  // measure 40
00001000
00010000
01000000
10000000
00010000
00100000
01000000
10000000
,  // measure 41
00010000
00100000
01000000
10000000
00010000
01000000
00001000
00001000
,  // measure 42
00010000
00000100
00001000
00001000
00000100
00000010
00000100
00000001
,  // measure 43
00000100
00000010
00000100
00000001
00000100
00010000
00000100
00010000
,  // measure 44
00001000
01000000
00001000
01000000
00100000
10000000
01000000
00010000
,  // measure 45
00001000
00000010
00001000
00020000
00000000
00000000
00000000
00000000
,  // measure 46
00030000
00000000
00000000
00001000
00010000
00000000
00001000
00000000
00010000
00000000
00100000
00000000
00010000
00000000
00100000
00000000
,  // measure 47
10000000
00100000
00010000
00100000
10000000
01000000
10000000
01000000
,  // measure 48
10000000
01000000
00010000
01000000
10000000
00010000
00100000
00100000
,  // measure 49
00010000
10000000
00100000
00100000
01000000
00001000
00010000
00100000
,  // measure 50
01000000
00001000
00010000
00100000
10000000
01000000
00010000
00001000
,  // measure 51
00000010
00000001
00000100
00001000
00010000
00001000
00001000
00010000
,  // measure 52
00001000
00001000
00010000
00001000
00001000
00010000
00100000
00010000
,  // measure 53
00100000
10000000
00100000
10000000
01000000
10000000
01000000
00010000
,  // measure 54
01000000
00010000
00001000
00010000
00001000
00000010
00001000
00000010
,  // measure 55
00000001
00000010
00000001
00000100
00001000
00010000
01000000
10000000
,  // measure 56
00010000
01000000
00100000
01000000
10000000
01000000
00100000
01000000
,  // measure 57
00010000
01000000
00001000
01000000
00010000
01000000
00001000
01000000
,  // measure 58
00100000
10000000
01000000
00010000
00001000
00010000
00001000
00010000
,  // measure 59
00000100
00001000
00000100
00001000
00000100
00010000
00000100
00010000
,  // measure 60
00001000
00010000
00001000
00010000
00001000
01000000
00001000
01000000
,  // measure 61
00001000
00000000
00010000
00000000
00001000
00000000
00010000
00000000
00001000
00010000
00001000
00000000
01000000
00001000
01000000
00000000
,  // measure 62
00010000
01000000
00010000
00000000
01000000
00100000
01000000
00000000
20020000
00000000
00000000
00000000
00000000
00000000
00000000
00000000
,  // measure 63
00000000
00000000
00000000
00000000
,  // measure 64
00000000
00000000
00000000
30030000
00000000
00000000
00000000
00000000
;
